  0
SECTION
  2
HEADER
  9
$ACADVER
  1
AC1018
  9
$ACADMAINTVER
 70
     0
  9
$DWGCODEPAGE
  3
ANSI_932
  9
$INSBASE
 10
0.0
 20
0.0
 30
0.0
  9
$EXTMIN
 10
-0.0430971755777137
 20
-0.0200178784580203
 30
-0.0000000000000153
  9
$EXTMAX
 10
1188.003272980347
 20
840.0276760416534
 30
0.0
  9
$LIMMIN
 10
0.0
 20
0.0
  9
$LIMMAX
 10
1188.0
 20
840.0
  9
$ORTHOMODE
 70
     0
  9
$REGENMODE
 70
     1
  9
$FILLMODE
 70
     1
  9
$QTEXTMODE
 70
     0
  9
$MIRRTEXT
 70
     0
  9
$LTSCALE
 40
1.0
  9
$ATTMODE
 70
     1
  9
$TEXTSIZE
 40
2.5
  9
$TRACEWID
 40
1.0
  9
$TEXTSTYLE
  7
Std
  9
$CLAYER
  8
sunpo
  9
$CELTYPE
  6
ByLayer
  9
$CECOLOR
 62
   256
  9
$CELTSCALE
 40
1.0
  9
$DISPSILH
 70
     0
  9
$DIMSCALE
 40
2.0
  9
$DIMASZ
 40
3.5
  9
$DIMEXO
 40
2.0
  9
$DIMDLI
 40
8.0
  9
$DIMRND
 40
0.0
  9
$DIMDLE
 40
0.0
  9
$DIMEXE
 40
1.0
  9
$DIMTP
 40
0.0
  9
$DIMTM
 40
0.0
  9
$DIMTXT
 40
3.0
  9
$DIMCEN
 40
0.0
  9
$DIMTSZ
 40
0.0
  9
$DIMTOL
 70
     0
  9
$DIMLIM
 70
     0
  9
$DIMTIH
 70
     0
  9
$DIMTOH
 70
     0
  9
$DIMSE1
 70
     0
  9
$DIMSE2
 70
     0
  9
$DIMTAD
 70
     1
  9
$DIMZIN
 70
     8
  9
$DIMBLK
  1
DotSmall
  9
$DIMASO
 70
     1
  9
$DIMSHO
 70
     1
  9
$DIMPOST
  1

  9
$DIMAPOST
  1

  9
$DIMALT
 70
     0
  9
$DIMALTD
 70
     3
  9
$DIMALTF
 40
0.03937007874016
  9
$DIMLFAC
 40
1.0
  9
$DIMTOFL
 70
     1
  9
$DIMTVP
 40
0.0
  9
$DIMTIX
 70
     0
  9
$DIMSOXD
 70
     0
  9
$DIMSAH
 70
     0
  9
$DIMBLK1
  1

  9
$DIMBLK2
  1

  9
$DIMSTYLE
  2
dim2
  9
$DIMCLRD
 70
     3
  9
$DIMCLRE
 70
     3
  9
$DIMCLRT
 70
     2
  9
$DIMTFAC
 40
1.0
  9
$DIMGAP
 40
0.6
  9
$DIMJUST
 70
     0
  9
$DIMSD1
 70
     0
  9
$DIMSD2
 70
     0
  9
$DIMTOLJ
 70
     0
  9
$DIMTZIN
 70
     8
  9
$DIMALTZ
 70
     0
  9
$DIMALTTZ
 70
     0
  9
$DIMUPT
 70
     0
  9
$DIMDEC
 70
     1
  9
$DIMTDEC
 70
     1
  9
$DIMALTU
 70
     2
  9
$DIMALTTD
 70
     3
  9
$DIMTXSTY
  7
Std
  9
$DIMAUNIT
 70
     0
  9
$DIMADEC
 70
     0
  9
$DIMALTRND
 40
0.0
  9
$DIMAZIN
 70
     0
  9
$DIMDSEP
 70
    46
  9
$DIMATFIT
 70
     3
  9
$DIMFRAC
 70
     0
  9
$DIMLDRBLK
  1
Open30
  9
$DIMLUNIT
 70
     6
  9
$DIMLWD
 70
     9
  9
$DIMLWE
 70
     9
  9
$DIMTMOVE
 70
     2
  9
$LUNITS
 70
     2
  9
$LUPREC
 70
     2
  9
$SKETCHINC
 40
1.0
  9
$FILLETRAD
 40
0.0
  9
$AUNITS
 70
     0
  9
$AUPREC
 70
     2
  9
$MENU
  1
.
  9
$ELEVATION
 40
0.0
  9
$PELEVATION
 40
0.0
  9
$THICKNESS
 40
0.0
  9
$LIMCHECK
 70
     0
  9
$CHAMFERA
 40
10.0
  9
$CHAMFERB
 40
10.0
  9
$CHAMFERC
 40
20.0
  9
$CHAMFERD
 40
0.0
  9
$SKPOLY
 70
     0
  9
$TDCREATE
 40
2451935.570731713
  9
$TDUCREATE
 40
2451935.195731713
  9
$TDUPDATE
 40
2455741.621145290
  9
$TDUUPDATE
 40
2455741.246145290
  9
$TDINDWG
 40
0.8315404977
  9
$TDUSRTIMER
 40
0.8315404977
  9
$USRTIMER
 70
     1
  9
$ANGBASE
 50
0.0
  9
$ANGDIR
 70
     0
  9
$PDMODE
 70
     0
  9
$PDSIZE
 40
0.0
  9
$PLINEWID
 40
0.0
  9
$SPLFRAME
 70
     0
  9
$SPLINETYPE
 70
     6
  9
$SPLINESEGS
 70
     8
  9
$HANDSEED
  5
69AC
  9
$SURFTAB1
 70
     6
  9
$SURFTAB2
 70
     6
  9
$SURFTYPE
 70
     6
  9
$SURFU
 70
     6
  9
$SURFV
 70
     6
  9
$UCSBASE
  2

  9
$UCSNAME
  2

  9
$UCSORG
 10
0.0
 20
0.0
 30
0.0
  9
$UCSXDIR
 10
1.0
 20
0.0
 30
0.0
  9
$UCSYDIR
 10
0.0
 20
1.0
 30
0.0
  9
$UCSORTHOREF
  2

  9
$UCSORTHOVIEW
 70
     0
  9
$UCSORGTOP
 10
0.0
 20
0.0
 30
0.0
  9
$UCSORGBOTTOM
 10
0.0
 20
0.0
 30
0.0
  9
$UCSORGLEFT
 10
0.0
 20
0.0
 30
0.0
  9
$UCSORGRIGHT
 10
0.0
 20
0.0
 30
0.0
  9
$UCSORGFRONT
 10
0.0
 20
0.0
 30
0.0
  9
$UCSORGBACK
 10
0.0
 20
0.0
 30
0.0
  9
$PUCSBASE
  2

  9
$PUCSNAME
  2

  9
$PUCSORG
 10
0.0
 20
0.0
 30
0.0
  9
$PUCSXDIR
 10
1.0
 20
0.0
 30
0.0
  9
$PUCSYDIR
 10
0.0
 20
1.0
 30
0.0
  9
$PUCSORTHOREF
  2

  9
$PUCSORTHOVIEW
 70
     0
  9
$PUCSORGTOP
 10
0.0
 20
0.0
 30
0.0
  9
$PUCSORGBOTTOM
 10
0.0
 20
0.0
 30
0.0
  9
$PUCSORGLEFT
 10
0.0
 20
0.0
 30
0.0
  9
$PUCSORGRIGHT
 10
0.0
 20
0.0
 30
0.0
  9
$PUCSORGFRONT
 10
0.0
 20
0.0
 30
0.0
  9
$PUCSORGBACK
 10
0.0
 20
0.0
 30
0.0
  9
$USERI1
 70
     0
  9
$USERI2
 70
     0
  9
$USERI3
 70
     0
  9
$USERI4
 70
     0
  9
$USERI5
 70
     0
  9
$USERR1
 40
0.0
  9
$USERR2
 40
0.0
  9
$USERR3
 40
0.0
  9
$USERR4
 40
0.0
  9
$USERR5
 40
0.0
  9
$WORLDVIEW
 70
     1
  9
$SHADEDGE
 70
     3
  9
$SHADEDIF
 70
    70
  9
$TILEMODE
 70
     1
  9
$MAXACTVP
 70
    64
  9
$PINSBASE
 10
0.0
 20
0.0
 30
0.0
  9
$PLIMCHECK
 70
     0
  9
$PEXTMIN
 10
-25.93123167385193
 20
-53.05770098799053
 30
-0.000000000000013
  9
$PEXTMAX
 10
1184.147841776788
 20
820.157747913802
 30
0.0000000000000023
  9
$PLIMMIN
 10
-9.9906005859375
 20
-33.95135498046875
  9
$PLIMMAX
 10
1177.967407226562
 20
805.9419555664062
  9
$UNITMODE
 70
     0
  9
$VISRETAIN
 70
     1
  9
$PLINEGEN
 70
     0
  9
$PSLTSCALE
 70
     1
  9
$TREEDEPTH
 70
  3020
  9
$CMLSTYLE
  2
Standard
  9
$CMLJUST
 70
     0
  9
$CMLSCALE
 40
20.0
  9
$PROXYGRAPHICS
 70
     1
  9
$MEASUREMENT
 70
     1
  9
$CELWEIGHT
370
    -1
  9
$ENDCAPS
280
     0
  9
$JOINSTYLE
280
     0
  9
$LWDISPLAY
290
     0
  9
$INSUNITS
 70
     4
  9
$HYPERLINKBASE
  1

  9
$STYLESHEET
  1
monochrome.ctb
  9
$XEDIT
290
     1
  9
$CEPSNTYPE
380
     0
  9
$PSTYLEMODE
290
     1
  9
$FINGERPRINTGUID
  2
{1128C918-EA32-49CA-A447-4FB40908B966}
  9
$VERSIONGUID
  2
{7D094349-0F5B-4394-A590-823BD8CC3453}
  9
$EXTNAMES
290
     1
  9
$PSVPSCALE
 40
0.0
  9
$OLESTARTUP
290
     0
  9
$SORTENTS
280
   127
  9
$INDEXCTL
280
     0
  9
$HIDETEXT
280
     0
  9
$XCLIPFRAME
290
     0
  9
$HALOGAP
280
     0
  9
$OBSCOLOR
 70
   257
  9
$OBSLTYPE
280
     0
  9
$INTERSECTIONDISPLAY
280
     0
  9
$INTERSECTIONCOLOR
 70
   257
  9
$DIMASSOC
280
     1
  9
$PROJECTNAME
  1

  0
ENDSEC
  0
SECTION
  2
CLASSES
  0
CLASS
  1
ACDBDICTIONARYWDFLT
  2
AcDbDictionaryWithDefault
  3
ObjectDBX Classes
 90
        0
 91
        1
280
     0
281
     0
  0
CLASS
  1
SORTENTSTABLE
  2
AcDbSortentsTable
  3
ObjectDBX Classes
 90
        0
 91
        3
280
     0
281
     0
  0
ENDSEC
  0
SECTION
  2
TABLES
  0
TABLE
  2
VPORT
  5
8
330
0
100
AcDbSymbolTable
 70
     4
  0
VPORT
  5
69AB
330
8
100
AcDbSymbolTableRecord
100
AcDbViewportTableRecord
  2
*Active
 70
     0
 10
0.0
 20
0.0
 11
1.0
 21
1.0
 12
593.9800879023846
 22
420.0038290815977
 13
0.0
 23
0.0
 14
10.0
 24
10.0
 15
10.0
 25
10.0
 16
0.0
 26
0.0
 36
1.0
 17
0.0
 27
0.0
 37
0.0
 40
846.4116916013244
 41
1.458912768647282
 42
50.0
 43
0.0
 44
0.0
 50
0.0
 51
0.0
 71
     0
 72
   100
 73
     1
 74
     3
 75
     0
 76
     0
 77
     0
 78
     0
281
     0
 65
     1
110
0.0
120
0.0
130
0.0
111
1.0
121
0.0
131
0.0
112
0.0
122
1.0
132
0.0
 79
     0
146
0.0
  0
ENDTAB
  0
TABLE
  2
LTYPE
  5
5
330
0
100
AcDbSymbolTable
 70
    14
  0
LTYPE
  5
14
330
5
100
AcDbSymbolTableRecord
100
AcDbLinetypeTableRecord
  2
ByBlock
 70
     0
  3

 72
    65
 73
     0
 40
0.0
  0
LTYPE
  5
15
330
5
100
AcDbSymbolTableRecord
100
AcDbLinetypeTableRecord
  2
ByLayer
 70
     0
  3

 72
    65
 73
     0
 40
0.0
  0
LTYPE
  5
16
330
5
100
AcDbSymbolTableRecord
100
AcDbLinetypeTableRecord
  2
Continuous
 70
     0
  3
Solid line
 72
    65
 73
     0
 40
0.0
  0
LTYPE
  5
2F
330
5
100
AcDbSymbolTableRecord
100
AcDbLinetypeTableRecord
  2
ACAD_ISO04W100
 70
     0
  3
ISO long-dash dot ____ . ____ . ____ . ____ . _
 72
    65
 73
     4
 40
30.0
 49
24.0
 74
     0
 49
-3.0
 74
     0
 49
0.0
 74
     0
 49
-3.0
 74
     0
  0
LTYPE
  5
31
330
5
100
AcDbSymbolTableRecord
100
AcDbLinetypeTableRecord
  2
HIDDEN2
 70
     0
  3
Hidden (.5x) _ _ _ _ _ _ _ _ _ _ _ _ _ _ _ _ _
 72
    65
 73
     2
 40
4.762499999999999
 49
3.174999999999999
 74
     0
 49
-1.587499999999999
 74
     0
  0
LTYPE
  5
2D8
330
5
100
AcDbSymbolTableRecord
100
AcDbLinetypeTableRecord
  2
ACAD_ISO05W100
 70
     0
  3
ISO long-dash double-dot ____ .. ____ .. ____ .
 72
    65
 73
     6
 40
33.0
 49
24.0
 74
     0
 49
-3.0
 74
     0
 49
0.0
 74
     0
 49
-3.0
 74
     0
 49
0.0
 74
     0
 49
-3.0
 74
     0
  0
LTYPE
  5
6B3
330
5
100
AcDbSymbolTableRecord
100
AcDbLinetypeTableRecord
  2
HIDS
 70
     0
  3
(破線１)- - - - - - - - - - - - - - - - - - - -
 72
    65
 73
     2
 40
2.5
 49
1.5
 74
     0
 49
-1.0
 74
     0
  0
LTYPE
  5
1A5B
330
5
100
AcDbSymbolTableRecord
100
AcDbLinetypeTableRecord
  2
HOJO
 70
     0
  3
-----------------------------------------------
 72
    65
 73
     2
 40
0.0
 49
0.0
 74
     0
 49
0.0
 74
     0
  0
LTYPE
  5
1A5C
330
5
100
AcDbSymbolTableRecord
100
AcDbLinetypeTableRecord
  2
PHAS
 70
     0
  3
(二点鎖線１)---- - - ---- - - ---- - - ---- - -
 72
    65
 73
     6
 40
15.0
 49
10.0
 74
     0
 49
-1.0
 74
     0
 49
1.0
 74
     0
 49
-1.0
 74
     0
 49
1.0
 74
     0
 49
-1.0
 74
     0
  0
LTYPE
  5
1A5D
330
5
100
AcDbSymbolTableRecord
100
AcDbLinetypeTableRecord
  2
DASHED1
 70
     0
  3
--  --  --  --  --  --  --  --  
 72
    65
 73
     2
 40
2.5
 49
1.25
 74
     0
 49
-1.25
 74
     0
  0
LTYPE
  5
1A5E
330
5
100
AcDbSymbolTableRecord
100
AcDbLinetypeTableRecord
  2
DASHED
 70
     0
  3
__ __ __ __ __ __ __ __ __ __ __ __ __ __ __
 72
    65
 73
     2
 40
0.75
 49
0.5
 74
     0
 49
-0.25
 74
     0
  0
LTYPE
  5
1A5F
330
5
100
AcDbSymbolTableRecord
100
AcDbLinetypeTableRecord
  2
DOT
 70
     0
  3
...............................................
 72
    65
 73
     2
 40
0.25
 49
0.0
 74
     0
 49
-0.25
 74
     0
  0
LTYPE
  5
1A60
330
5
100
AcDbSymbolTableRecord
100
AcDbLinetypeTableRecord
  2
CENTER1
 70
     0
  3
----- - ----- - ----- - ----- - 
 72
    65
 73
     4
 40
10.0
 49
6.25
 74
     0
 49
-1.25
 74
     0
 49
1.25
 74
     0
 49
-1.25
 74
     0
  0
LTYPE
  5
1A61
330
5
100
AcDbSymbolTableRecord
100
AcDbLinetypeTableRecord
  2
CENL
 70
     0
  3
(一点鎖線２)------ - ------ - ------ - ------ -
 72
    65
 73
     4
 40
19.5
 49
15.0
 74
     0
 49
-1.5
 74
     0
 49
1.5
 74
     0
 49
-1.5
 74
     0
  0
LTYPE
  5
30DD
330
5
100
AcDbSymbolTableRecord
100
AcDbLinetypeTableRecord
  2
CENS
 70
     0
  3
(一点鎖線１)---- - ---- - ---- - ---- - ---- - 
 72
    65
 73
     4
 40
13.0
 49
10.0
 74
     0
 49
-1.0
 74
     0
 49
1.0
 74
     0
 49
-1.0
 74
     0
  0
LTYPE
  5
4C8E
330
5
100
AcDbSymbolTableRecord
100
AcDbLinetypeTableRecord
  2
DOT2
 70
     0
  3
Dot (.5x) .....................................
 72
    65
 73
     2
 40
3.174999999999998
 49
0.0
 74
     0
 49
-3.174999999999998
 74
     0
  0
ENDTAB
  0
TABLE
  2
LAYER
  5
2
102
{ACAD_XDICTIONARY
360
307
102
}
330
0
100
AcDbSymbolTable
 70
    22
  0
LAYER
  5
10
330
2
100
AcDbSymbolTableRecord
100
AcDbLayerTableRecord
  2
0
 70
     0
 62
     7
  6
Continuous
370
    20
390
F
  0
LAYER
  5
2C
330
2
100
AcDbSymbolTableRecord
100
AcDbLayerTableRecord
  2
kijun
 70
     0
 62
     1
  6
ACAD_ISO04W100
370
     9
390
F
  0
LAYER
  5
32
330
2
100
AcDbSymbolTableRecord
100
AcDbLayerTableRecord
  2
Defpoints
 70
     0
 62
     7
  6
Continuous
290
     0
370
    20
390
F
  0
LAYER
  5
33
330
2
100
AcDbSymbolTableRecord
100
AcDbLayerTableRecord
  2
hojo
 70
     0
 62
     6
  6
Continuous
290
     0
370
     9
390
F
  0
LAYER
  5
34
330
2
100
AcDbSymbolTableRecord
100
AcDbLayerTableRecord
  2
hatch
 70
     0
 62
     8
  6
Continuous
370
     9
390
F
  0
LAYER
  5
35
330
2
100
AcDbSymbolTableRecord
100
AcDbLayerTableRecord
  2
moji
 70
     0
 62
     7
  6
Continuous
370
    18
390
F
  0
LAYER
  5
36
330
2
100
AcDbSymbolTableRecord
100
AcDbLayerTableRecord
  2
size
 70
     0
 62
     7
  6
Continuous
370
    20
390
F
  0
LAYER
  5
37
330
2
100
AcDbSymbolTableRecord
100
AcDbLayerTableRecord
  2
sunpo
 70
     0
 62
     3
  6
Continuous
370
    15
390
F
  0
LAYER
  5
2D9
330
2
100
AcDbSymbolTableRecord
100
AcDbLayerTableRecord
  2
2tensasen
 70
     0
 62
   131
  6
ACAD_ISO05W100
370
     9
390
F
  0
LAYER
  5
2DA
330
2
100
AcDbSymbolTableRecord
100
AcDbLayerTableRecord
  2
hasen
 70
     0
 62
    41
  6
HIDDEN2
370
     9
390
F
  0
LAYER
  5
2ED
330
2
100
AcDbSymbolTableRecord
100
AcDbLayerTableRecord
  2
saisen
 70
     0
 62
   134
  6
Continuous
370
     9
390
F
  0
LAYER
  5
40F
330
2
100
AcDbSymbolTableRecord
100
AcDbLayerTableRecord
  2
wakumoji
 70
     0
 62
     7
  6
Continuous
370
    20
390
F
  0
LAYER
  5
1A62
330
2
100
AcDbSymbolTableRecord
100
AcDbLayerTableRecord
  2
sunpo2
 70
     0
 62
   111
  6
Continuous
370
    15
390
F
  0
LAYER
  5
1A63
330
2
100
AcDbSymbolTableRecord
100
AcDbLayerTableRecord
  2
ADD_LINE
 70
     0
 62
  -225
  6
Continuous
290
     0
370
    -3
390
F
  0
LAYER
  5
1A64
330
2
100
AcDbSymbolTableRecord
100
AcDbLayerTableRecord
  2
KUTAI
 70
     0
 62
     9
  6
Continuous
370
    15
390
F
  0
LAYER
  5
1A66
330
2
100
AcDbSymbolTableRecord
100
AcDbLayerTableRecord
  2
kagu
 70
     0
 62
   161
  6
Continuous
370
    15
390
F
  0
LAYER
  5
1A6B
330
2
100
AcDbSymbolTableRecord
100
AcDbLayerTableRecord
  2
家具
 70
     0
 62
    53
  6
Continuous
370
    13
390
F
  0
LAYER
  5
30DE
330
2
100
AcDbSymbolTableRecord
100
AcDbLayerTableRecord
  2
_E-A_
 70
     0
 62
     7
  6
Continuous
370
    15
390
F
  0
LAYER
  5
30E0
330
2
100
AcDbSymbolTableRecord
100
AcDbLayerTableRecord
  2
waku
 70
     0
 62
     7
  6
Continuous
370
    20
390
F
  0
LAYER
  5
30E1
330
2
100
AcDbSymbolTableRecord
100
AcDbLayerTableRecord
  2
塗板･掲示板
 70
     0
 62
     7
  6
Continuous
370
    -3
390
F
  0
LAYER
  5
30E2
330
2
100
AcDbSymbolTableRecord
100
AcDbLayerTableRecord
  2
塗板・掲示板
 70
     0
 62
     7
  6
Continuous
370
    -3
390
F
  0
LAYER
  5
5416
330
2
100
AcDbSymbolTableRecord
100
AcDbLayerTableRecord
  2
_E-F_
 70
     0
 62
     7
  6
Continuous
370
    15
390
F
  0
ENDTAB
  0
TABLE
  2
STYLE
  5
3
330
0
100
AcDbSymbolTable
 70
     7
  0
STYLE
  5
11
330
3
100
AcDbSymbolTableRecord
100
AcDbTextStyleTableRecord
  2
Standard
 70
     0
 40
0.0
 41
1.0
 50
0.0
 71
     0
 42
2.5
  3
txt.shx
  4
bigfont.shx
  0
STYLE
  5
3D
330
3
100
AcDbSymbolTableRecord
100
AcDbTextStyleTableRecord
  2
kanji
 70
     0
 40
0.0
 41
1.0
 50
0.0
 71
     0
 42
2.5
  3
romans.shx
  4
extfont.shx
  0
STYLE
  5
41
330
3
100
AcDbSymbolTableRecord
100
AcDbTextStyleTableRecord
  2
gothic
 70
     0
 40
0.0
 41
1.0
 50
0.0
 71
     0
 42
2.5
  3
MS PGothic.ttf
  4

1001
ACAD
1000
MS PGothic
1071
    32818
  0
STYLE
  5
305
330
3
100
AcDbSymbolTableRecord
100
AcDbTextStyleTableRecord
  2
Std
 70
     0
 40
0.0
 41
0.8
 50
0.0
 71
     0
 42
2.5
  3
romans.shx
  4
bigfont.shx
  0
STYLE
  5
382
330
3
100
AcDbSymbolTableRecord
100
AcDbTextStyleTableRecord
  2
mincho
 70
     0
 40
0.0
 41
1.0
 50
0.0
 71
     0
 42
2.5
  3
MS PMincho.ttf
  4

1001
ACAD
1000
MS PMincho
1071
    32786
  0
STYLE
  5
1A6C
330
3
100
AcDbSymbolTableRecord
100
AcDbTextStyleTableRecord
  2
StdW
 70
     0
 40
0.0
 41
1.0
 50
0.0
 71
     0
 42
2.5
  3
romans.shx
  4
bigfont.shx
  0
STYLE
  5
30E3
330
3
100
AcDbSymbolTableRecord
100
AcDbTextStyleTableRecord
  2
dim
 70
     0
 40
0.0
 41
0.75
 50
0.0
 71
     0
 42
2.5
  3
txt.shx
  4
bigfont.shx
  0
ENDTAB
  0
TABLE
  2
VIEW
  5
6
330
0
100
AcDbSymbolTable
 70
     0
  0
ENDTAB
  0
TABLE
  2
UCS
  5
7
330
0
100
AcDbSymbolTable
 70
     0
  0
ENDTAB
  0
TABLE
  2
APPID
  5
9
330
0
100
AcDbSymbolTable
 70
     1
  0
APPID
  5
12
330
9
100
AcDbSymbolTableRecord
100
AcDbRegAppTableRecord
  2
ACAD
 70
     0
  0
ENDTAB
  0
TABLE
  2
DIMSTYLE
  5
A
330
0
100
AcDbSymbolTable
 70
    17
100
AcDbDimStyleTable
 71
     3
340
306
340
30E5
340
410
  0
DIMSTYLE
105
306
102
{ACAD_REACTORS
330
5903
330
58FC
330
58FB
330
58FA
330
58F9
330
58F8
330
58F7
330
589C
330
5823
330
5822
330
58F5
330
58F4
330
589A
330
5899
330
5898
330
5897
330
5896
330
5895
330
5894
330
5893
330
5863
330
5862
330
5861
330
5860
330
585F
330
575F
330
5959
102
}
330
A
100
AcDbSymbolTableRecord
100
AcDbDimStyleTableRecord
  2
dim2
 70
     0
 40
2.0
 41
3.5
 42
2.0
 43
8.0
 44
1.0
 73
     0
 74
     0
 77
     1
 78
     8
140
3.0
141
0.0
143
0.03937007874016
147
0.6
171
     3
172
     1
176
     3
177
     3
178
     2
271
     1
272
     1
274
     3
277
     6
279
     2
283
     0
284
     8
340
305
341
2D1A
342
46
371
     9
372
     9
  0
DIMSTYLE
105
410
330
A
100
AcDbSymbolTableRecord
100
AcDbDimStyleTableRecord
  2
Std2
 70
     0
 40
2.0
 41
2.299999999999999
 42
2.0
 43
8.0
 44
1.0
 73
     0
 74
     0
 77
     1
 78
     8
140
3.0
141
0.0
143
0.03937007874016
147
1.0
171
     3
172
     1
176
     3
177
     3
178
     2
271
     1
272
     1
274
     3
277
     6
279
     2
283
     0
284
     8
340
305
341
409
342
409
371
     9
372
     9
  0
DIMSTYLE
105
1A6D
330
A
100
AcDbSymbolTableRecord
100
AcDbDimStyleTableRecord
  2
dim10
 70
     0
 40
10.0
 41
3.5
 42
2.0
 43
8.0
 44
1.0
 73
     0
 74
     0
 77
     1
 78
     8
140
3.0
141
0.0
143
0.03937007874016
147
0.5
171
     3
172
     1
176
     3
177
     3
178
     2
271
     1
272
     1
274
     3
277
     6
279
     2
283
     0
284
     8
340
305
341
46
342
46
371
     9
372
     9
  0
DIMSTYLE
105
1A6E
330
A
100
AcDbSymbolTableRecord
100
AcDbDimStyleTableRecord
  2
dim10de
 70
     0
 40
10.0
 41
3.5
 42
2.0
 43
8.0
 44
1.0
 73
     0
 74
     0
 77
     1
 78
     8
140
3.0
141
0.0
143
0.03937007874016
147
0.5
171
     3
172
     1
271
     1
272
     1
274
     3
277
     6
279
     2
283
     0
284
     8
340
305
341
46
342
46
371
     9
372
     9
  0
DIMSTYLE
105
1A6F
330
A
100
AcDbSymbolTableRecord
100
AcDbDimStyleTableRecord
  2
Std10de
 70
     0
 40
10.0
 41
2.299999999999999
 42
2.0
 43
8.0
 44
1.0
 73
     0
 74
     0
 77
     1
 78
     8
140
3.0
141
0.0
143
0.03937007874016
147
0.5
171
     3
172
     1
271
     1
272
     1
274
     3
277
     6
279
     2
283
     0
284
     8
340
305
341
409
342
409
371
     9
372
     9
  0
DIMSTYLE
105
1A70
330
A
100
AcDbSymbolTableRecord
100
AcDbDimStyleTableRecord
  2
Std10
 70
     0
 40
10.0
 41
2.299999999999999
 42
2.0
 43
8.0
 44
1.0
 73
     0
 74
     0
 77
     1
 78
     8
140
3.0
141
0.0
143
0.03937007874016
147
0.6
171
     3
172
     1
176
     3
177
     3
178
     2
271
     1
272
     1
274
     3
277
     6
279
     2
283
     0
284
     8
340
305
341
409
342
409
371
     9
372
     9
  0
DIMSTYLE
105
30E4
330
A
100
AcDbSymbolTableRecord
100
AcDbDimStyleTableRecord
  2
dim20
 70
     0
 40
20.0
 41
3.0
 42
2.0
 43
8.0
 44
1.0
 73
     0
 77
     1
 78
     8
140
5.0
141
0.0
143
0.03937007874016
144
0.1
147
0.5
171
     3
172
     1
176
     3
177
     3
178
     2
271
     1
272
     1
274
     3
277
     6
279
     2
283
     2
284
     8
340
305
341
2D1A
342
46
371
     9
372
     9
  0
DIMSTYLE
105
30E5
102
{ACAD_REACTORS
330
574D
330
5729
330
5728
330
5727
330
5726
330
5725
330
571E
330
571D
330
571C
330
571B
330
571A
330
570F
102
}
330
A
100
AcDbSymbolTableRecord
100
AcDbDimStyleTableRecord
  2
dim2_20
 70
     0
 40
2.0
 41
3.0
 42
2.0
 43
8.0
 44
1.0
 73
     0
 74
     0
 77
     1
 78
     8
140
2.5
141
0.0
143
0.03937007874016
144
10.0
147
0.5
171
     3
172
     1
176
     3
177
     3
178
     2
271
     1
272
     1
274
     3
277
     6
279
     2
283
     0
284
     8
340
305
341
46
342
46
371
     9
372
     9
  0
DIMSTYLE
105
30E6
330
A
100
AcDbSymbolTableRecord
100
AcDbDimStyleTableRecord
  2
dim20-4
 70
     0
 40
20.0
 41
3.0
 42
5.0
 43
8.0
 44
1.0
 73
     0
 77
     1
 78
     8
140
5.0
141
0.0
143
0.03937007874016
144
0.5
147
0.5
171
     3
172
     1
176
     3
177
     3
178
     2
271
     1
272
     1
274
     3
277
     6
279
     2
283
     2
284
     8
340
305
341
2D1A
342
46
371
     9
372
     9
  0
DIMSTYLE
105
30E7
330
A
100
AcDbSymbolTableRecord
100
AcDbDimStyleTableRecord
  2
dim20-2
 70
     0
 40
20.0
 41
3.0
 42
5.0
 43
8.0
 44
1.0
 73
     0
 77
     1
 78
     8
140
5.0
141
0.0
143
0.03937007874016
147
0.5
171
     3
172
     1
176
     3
177
     3
178
     2
271
     1
272
     1
274
     3
277
     6
279
     2
283
     2
284
     8
340
305
341
2D1A
342
46
371
     9
372
     9
  0
DIMSTYLE
105
30E8
330
A
100
AcDbSymbolTableRecord
100
AcDbDimStyleTableRecord
  2
STD2$7
 70
     0
 40
2.0
 41
2.299999999999999
 42
1.0
 43
5.0
 44
1.0
 73
     0
 74
     0
 77
     1
 78
     8
140
2.5
141
0.0
145
0.9
147
0.5
172
     1
176
     3
177
     3
178
     2
271
     2
272
     2
277
     6
279
     2
284
     8
285
     8
286
     8
340
305
341
409
342
46
371
    15
372
    15
  0
DIMSTYLE
105
30E9
330
A
100
AcDbSymbolTableRecord
100
AcDbDimStyleTableRecord
  2
dim5
 70
     0
 40
5.0
 41
3.5
 42
2.0
 43
8.0
 44
1.0
 73
     0
 74
     0
 77
     1
 78
     8
140
3.0
141
0.0
143
0.03937007874016
147
0.5
171
     3
172
     1
176
     3
177
     3
178
     2
271
     1
272
     1
274
     3
277
     6
279
     2
283
     0
284
     8
340
305
341
46
342
46
371
     9
372
     9
  0
DIMSTYLE
105
4C8F
330
A
100
AcDbSymbolTableRecord
100
AcDbDimStyleTableRecord
  2
Std20
 70
     0
 40
20.0
 41
2.299999999999999
 42
2.0
 43
8.0
 44
1.0
 73
     0
 74
     0
 77
     1
 78
     8
140
2.5
141
0.0
143
0.03937007874016
147
0.4999999999999997
171
     3
172
     1
176
     3
177
     3
178
     2
271
     1
272
     1
274
     3
277
     6
279
     2
283
     0
284
     8
340
305
341
409
342
409
371
     9
372
     9
  0
DIMSTYLE
105
4C90
330
A
100
AcDbSymbolTableRecord
100
AcDbDimStyleTableRecord
  2
延長線
 70
     0
 40
2.0
 41
3.0
 42
0.625
 43
3.75
 44
1.25
 73
     0
 74
     0
 76
     1
 77
     1
 78
     8
140
2.500000000000001
141
2.5
143
0.0394
147
0.625
171
     4
172
     1
173
     1
176
     3
177
     3
178
     2
273
     8
274
     4
340
30E3
341
46
343
46
344
2D20
371
    -1
372
    -1
  0
DIMSTYLE
105
4C91
330
A
100
AcDbSymbolTableRecord
100
AcDbDimStyleTableRecord
  2
Std100
 70
     0
 40
100.0
 41
2.299999999999999
 42
2.0
 43
8.0
 44
1.0
 73
     0
 74
     0
 77
     1
 78
     8
140
2.5
141
0.0
143
0.03937007874016
147
0.4999999999999997
171
     3
172
     1
176
     3
177
     3
178
     2
271
     1
272
     1
274
     3
277
     6
279
     2
283
     0
284
     8
340
305
341
409
342
409
371
     9
372
     9
  0
DIMSTYLE
105
5417
330
A
100
AcDbSymbolTableRecord
100
AcDbDimStyleTableRecord
  2
dim3de
 70
     0
 40
3.0
 41
3.5
 42
2.0
 43
8.0
 44
1.0
 73
     0
 74
     0
 77
     1
 78
     8
140
3.0
141
0.0
143
0.03937007874016
147
0.5999999999999997
171
     3
172
     1
176
   256
177
   256
178
   256
271
     1
272
     1
274
     3
277
     6
279
     2
283
     0
284
     8
340
305
341
46
342
46
371
     9
372
     9
  0
DIMSTYLE
105
5418
330
A
100
AcDbSymbolTableRecord
100
AcDbDimStyleTableRecord
  2
dim3_30
 70
     0
 40
3.0
 41
3.5
 42
2.0
 43
8.0
 44
1.0
 73
     0
 74
     0
 77
     1
 78
     8
140
3.0
141
0.0
143
0.03937007874016
144
10.0
147
0.6
171
     3
172
     1
176
     3
177
     3
178
     2
271
     1
272
     1
274
     3
277
     6
279
     2
283
     0
284
     8
340
305
341
46
342
46
371
     9
372
     9
  0
ENDTAB
  0
TABLE
  2
BLOCK_RECORD
  5
1
330
0
100
AcDbSymbolTable
 70
    55
  0
BLOCK_RECORD
  5
1F
330
1
100
AcDbSymbolTableRecord
100
AcDbBlockTableRecord
  2
*Model_Space
340
22
  0
BLOCK_RECORD
  5
1B
330
1
100
AcDbSymbolTableRecord
100
AcDbBlockTableRecord
  2
*Paper_Space
340
1E
  0
BLOCK_RECORD
  5
23
330
1
100
AcDbSymbolTableRecord
100
AcDbBlockTableRecord
  2
*Paper_Space0
340
26
  0
BLOCK_RECORD
  5
46
330
1
100
AcDbSymbolTableRecord
100
AcDbBlockTableRecord
  2
_DotSmall
340
0
102
{BLKREFS
331
66B7
331
66B8
331
66C0
331
66C1
331
66C9
331
66CA
331
66D2
331
66D3
331
66DC
331
66DD
331
66E4
331
66E5
331
66ED
331
66EE
331
66F6
331
66F7
331
66FF
331
6700
331
6708
331
6709
331
6753
331
6754
331
675C
331
675D
331
6765
331
6766
331
676E
331
676F
331
6777
331
6778
331
6780
331
6781
331
6789
331
678A
331
6792
331
6793
331
679C
331
679D
331
67A5
331
67A6
331
67AD
331
67AE
331
67BF
331
67C0
331
67C8
331
67C9
331
67D1
331
67D2
331
67DA
331
67DB
331
67E3
331
67E4
331
67EC
331
67ED
331
67F5
331
67F6
331
6807
331
6808
331
683E
331
683F
331
6847
331
6848
331
6850
331
6851
331
6859
331
685A
331
686B
331
686C
331
6894
331
6895
331
6944
331
6945
331
6956
331
6957
331
6968
331
6969
331
697A
331
697B
331
6982
331
6983
331
698B
331
698C
331
6995
331
6996
102
}
  0
BLOCK_RECORD
  5
409
330
1
100
AcDbSymbolTableRecord
100
AcDbBlockTableRecord
  2
ARRI
340
0
  0
BLOCK_RECORD
  5
16A8
330
1
100
AcDbSymbolTableRecord
100
AcDbBlockTableRecord
  2
二葉ﾛｺﾞ
340
0
310
2800000020000000200000000100080000000000000400000000000000000000000000000000000000000000000080000080000000808000800000008000800080800000C0C0C000C0DCC000F0CAA6000020400000206000002080000020A0000020C0000020E00000400000004020000040400000406000004080000040A0
310
000040C0000040E00000600000006020000060400000606000006080000060A0000060C0000060E00000800000008020000080400000806000008080000080A0000080C0000080E00000A0000000A0200000A0400000A0600000A0800000A0A00000A0C00000A0E00000C0000000C0200000C0400000C0600000C0800000C0
310
A00000C0C00000C0E00000E0000000E0200000E0400000E0600000E0800000E0A00000E0C00000E0E00040000000400020004000400040006000400080004000A0004000C0004000E00040200000402020004020400040206000402080004020A0004020C0004020E000404000004040200040404000404060004040800040
310
40A0004040C0004040E00040600000406020004060400040606000406080004060A0004060C0004060E00040800000408020004080400040806000408080004080A0004080C0004080E00040A0000040A0200040A0400040A0600040A0800040A0A00040A0C00040A0E00040C0000040C0200040C0400040C0600040C08000
310
40C0A00040C0C00040C0E00040E0000040E0200040E0400040E0600040E0800040E0A00040E0C00040E0E00080000000800020008000400080006000800080008000A0008000C0008000E00080200000802020008020400080206000802080008020A0008020C0008020E00080400000804020008040400080406000804080
310
008040A0008040C0008040E00080600000806020008060400080606000806080008060A0008060C0008060E00080800000808020008080400080806000808080008080A0008080C0008080E00080A0000080A0200080A0400080A0600080A0800080A0A00080A0C00080A0E00080C0000080C0200080C0400080C0600080C0
310
800080C0A00080C0C00080C0E00080E0000080E0200080E0400080E0600080E0800080E0A00080E0C00080E0E000C0000000C0002000C0004000C0006000C0008000C000A000C000C000C000E000C0200000C0202000C0204000C0206000C0208000C020A000C020C000C020E000C0400000C0402000C0404000C0406000C0
310
408000C040A000C040C000C040E000C0600000C0602000C0604000C0606000C0608000C060A000C060C000C060E000C0800000C0802000C0804000C0806000C0808000C080A000C080C000C080E000C0A00000C0A02000C0A04000C0A06000C0A08000C0A0A000C0A0C000C0A0E000C0C00000C0C02000C0C04000C0C06000
310
C0C08000C0C0A000F0FBFF00A4A0A000808080000000FF0000FF000000FFFF00FF000000FF00FF00FFFF0000FFFFFF000000000000000000000000000000000000000000000000000000000000000000000000000000000000000000000000FFFFFF000000000000000000000000000000000000000000000000FFFFFFFFFF
310
000000FFFFFF0000000000000000000000000000000000000000FF0000FFFF000000FFFFFF00FFFF0000000000000000000000000000000000FF000000FFFF000000FFFFFFFF0000FFFF00000000000000000000000000FFFFFFFF000000FFFF0000FFFFFFFF00FFFF00FF0000000000000000000000FF00FFFFFFFF0000FF
310
FFFF00FFFFFF00FFFFFFFFFFFF000000000000000000FF0000FFFFFFFFFFFFFFFFFF00FFFF00FFFFFFFFFFFF00FF00000000000000FF000000FFFF00FFFF0000000000000000FFFFFFFFFFFF00FF00000000000000FF000000FFFFFF0000000000000000000000FFFFFF000000FFFF0000000000FF000000FFFFFFFF000000
310
000000000000000000000000FFFFFFFF0000000000FF00FFFFFFFFFF000000000000000000000000000000FFFFFFFFFFFF00000000FFFFFFFFFFFFFF000000000000000000000000000000FFFFFFFFFFFF000000FF00000000FFFF000000000000000000000000000000000000000000FF000000FF00000000000000000000
310
000000000000000000000000000000000000FF0000FF0000FFFFFFFFFFFFFFFFFFFFFFFFFFFFFFFFFFFFFFFFFFFFFFFFFF00FF0000FF00FFFFFFFFFFFFFFFFFFFFFFFFFFFFFFFFFFFFFFFFFFFFFFFFFFFF00FF0000FF00FFFFFFFFFFFFFFFFFFFFFFFFFFFFFFFFFFFFFFFFFFFFFFFFFFFF00FF0000FF00FFFFFFFFFFFFFFFF
310
FFFFFFFF0000FFFFFFFFFFFFFFFFFFFFFFFFFF00000000FF00FFFFFFFFFFFFFFFFFFFFFF000000FFFFFFFFFFFFFFFFFFFF00FF00000000FF00FFFFFFFFFFFFFFFFFFFF0000000000FFFFFFFFFFFFFFFFFF00FF00000000FF00FFFFFFFFFFFFFFFFFFFF0000000000FFFFFFFFFFFFFFFFFFFF000000000000FF00FFFFFFFFFF
310
FFFFFF000000000000FFFFFFFFFFFFFFFF00FF000000000000FF00FFFFFFFFFFFFFFFF00000000000000FFFFFFFFFFFFFFFF0000000000000000FF00FFFFFFFFFFFF000000000000000000FFFFFFFFFF00FF000000000000000000FF00FFFFFFFFFF000000000000000000FFFFFFFF00FF0000000000000000000000FFFFFF
310
FFFF0000000000000000000000FFFF00FF0000000000000000000000000000FF0000000000000000000000000000FFFF00000000000000000000000000000000FF0000000000000000000000FFFF00000000000000000000000000000000000000FFFFFFFFFF000000FFFFFF00000000000000000000000000000000000000
310
00000000000000FFFFFF00000000000000000000000000000000000000000000000000000000000000000000000000000000000000000000
102
{BLKREFS
331
1CF0
102
}
1001
ACAD
1000
DesignCenter Data
1002
{
1070
     1
1070
     4
1002
}
  0
BLOCK_RECORD
  5
16B3
330
1
100
AcDbSymbolTableRecord
100
AcDbBlockTableRecord
  2
A$C01F25748
340
0
  0
BLOCK_RECORD
  5
170D
330
1
100
AcDbSymbolTableRecord
100
AcDbBlockTableRecord
  2
A$C222D2D49
340
0
  0
BLOCK_RECORD
  5
1733
330
1
100
AcDbSymbolTableRecord
100
AcDbBlockTableRecord
  2
A$C084A1F4E
340
0
  0
BLOCK_RECORD
  5
18CE
330
1
100
AcDbSymbolTableRecord
100
AcDbBlockTableRecord
  2
KKﾖｺ-1
340
0
310
2800000020000000200000000100080000000000000400000000000000000000000000000000000000000000000080000080000000808000800000008000800080800000C0C0C000C0DCC000F0CAA6000020400000206000002080000020A0000020C0000020E00000400000004020000040400000406000004080000040A0
310
000040C0000040E00000600000006020000060400000606000006080000060A0000060C0000060E00000800000008020000080400000806000008080000080A0000080C0000080E00000A0000000A0200000A0400000A0600000A0800000A0A00000A0C00000A0E00000C0000000C0200000C0400000C0600000C0800000C0
310
A00000C0C00000C0E00000E0000000E0200000E0400000E0600000E0800000E0A00000E0C00000E0E00040000000400020004000400040006000400080004000A0004000C0004000E00040200000402020004020400040206000402080004020A0004020C0004020E000404000004040200040404000404060004040800040
310
40A0004040C0004040E00040600000406020004060400040606000406080004060A0004060C0004060E00040800000408020004080400040806000408080004080A0004080C0004080E00040A0000040A0200040A0400040A0600040A0800040A0A00040A0C00040A0E00040C0000040C0200040C0400040C0600040C08000
310
40C0A00040C0C00040C0E00040E0000040E0200040E0400040E0600040E0800040E0A00040E0C00040E0E00080000000800020008000400080006000800080008000A0008000C0008000E00080200000802020008020400080206000802080008020A0008020C0008020E00080400000804020008040400080406000804080
310
008040A0008040C0008040E00080600000806020008060400080606000806080008060A0008060C0008060E00080800000808020008080400080806000808080008080A0008080C0008080E00080A0000080A0200080A0400080A0600080A0800080A0A00080A0C00080A0E00080C0000080C0200080C0400080C0600080C0
310
800080C0A00080C0C00080C0E00080E0000080E0200080E0400080E0600080E0800080E0A00080E0C00080E0E000C0000000C0002000C0004000C0006000C0008000C000A000C000C000C000E000C0200000C0202000C0204000C0206000C0208000C020A000C020C000C020E000C0400000C0402000C0404000C0406000C0
310
408000C040A000C040C000C040E000C0600000C0602000C0604000C0606000C0608000C060A000C060C000C060E000C0800000C0802000C0804000C0806000C0808000C080A000C080C000C080E000C0A00000C0A02000C0A04000C0A06000C0A08000C0A0A000C0A0C000C0A0E000C0C00000C0C02000C0C04000C0C06000
310
C0C08000C0C0A000F0FBFF00A4A0A000808080000000FF0000FF000000FFFF00FF000000FF00FF00FFFF0000FFFFFF00000000000000000000000000000000000000000000000000000000000000000000000000000000000000000000FFFFFFFFFFFF0000000000000000000000000000000000000000000000000000FFFF
310
FFFFFFFF0000000000000000000000000000000000000000000000000000FFFFFFFFFFFF0000000000000000000000000000000000000000000000000000FFFFFFFFFFFF0000000000000000000000000000000000000000000000FFFFFFFFFFFFFFFFFFFFFFFF00000000000000000000000000000000000000FF00000000
310
0000000000000000FF000000000000000000000000000000000000FF000000000000000000000000FF000000000000000000000000000000000000FF000000000000000000000000FF000000000000000000000000000000000000FF000000000000000000000000FF000000000000000000000000000000000000FF000000
310
000000000000000000FF000000000000000000000000000000000000FF000000000000000000000000FF000000000000000000000000000000000000FFFFFFFFFFFFFFFFFFFFFFFFFFFF000000000000000000000000000000000000FF000000000000000000000000FF000000000000000000000000000000000000FF0000
310
00000000000000000000FF000000000000000000000000000000000000FF000000000000000000000000FF000000000000000000000000000000000000FF000000000000000000000000FF000000000000000000000000000000000000FF000000000000000000000000FF000000000000000000000000000000000000FF00
310
0000000000000000000000FF000000000000000000000000000000000000FF000000000000000000000000FF000000000000000000000000000000000000FF000000000000000000000000FF000000000000000000000000000000000000FF000000000000000000000000FF000000000000000000000000000000000000FF
310
000000000000000000000000FF000000000000000000000000000000000000FF000000000000000000000000FF000000000000000000000000000000000000FF000000000000000000000000FF000000000000000000000000000000000000FF000000000000000000000000FF000000000000000000000000000000000000
310
FF000000000000000000000000FF00000000000000000000000000000000FFFFFFFFFFFFFFFFFFFFFFFFFFFFFFFFFFFF00000000000000000000000000FFFFFFFFFFFFFFFFFFFFFFFFFFFFFFFFFFFFFFFF000000000000000000000000FFFFFFFFFFFFFFFFFFFFFFFFFFFFFFFFFFFFFFFF000000000000000000000000FFFF
310
FFFFFFFFFFFFFFFFFFFFFFFFFFFFFFFFFFFF0000000000000000000000000000000000000000000000000000000000000000000000000000
1001
ACAD
1000
DesignCenter Data
1002
{
1070
     1
1070
     4
1002
}
  0
BLOCK_RECORD
  5
1933
102
{ACAD_XDICTIONARY
360
1934
102
}
330
1
100
AcDbSymbolTableRecord
100
AcDbBlockTableRecord
  2
A$C28C52140
340
0
  0
BLOCK_RECORD
  5
193E
102
{ACAD_XDICTIONARY
360
193F
102
}
330
1
100
AcDbSymbolTableRecord
100
AcDbBlockTableRecord
  2
A$C327F515F
340
0
  0
BLOCK_RECORD
  5
1953
102
{ACAD_XDICTIONARY
360
1954
102
}
330
1
100
AcDbSymbolTableRecord
100
AcDbBlockTableRecord
  2
A$C74D86253
340
0
  0
BLOCK_RECORD
  5
2D1A
330
1
100
AcDbSymbolTableRecord
100
AcDbBlockTableRecord
  2
_Open30
340
0
  0
BLOCK_RECORD
  5
2D20
330
1
100
AcDbSymbolTableRecord
100
AcDbBlockTableRecord
  2
_None
340
0
  0
BLOCK_RECORD
  5
5977
330
1
100
AcDbSymbolTableRecord
100
AcDbBlockTableRecord
  2
*D13
340
0
  0
BLOCK_RECORD
  5
5983
330
1
100
AcDbSymbolTableRecord
100
AcDbBlockTableRecord
  2
*D14
340
0
  0
BLOCK_RECORD
  5
598F
330
1
100
AcDbSymbolTableRecord
100
AcDbBlockTableRecord
  2
*D15
340
0
  0
BLOCK_RECORD
  5
599B
330
1
100
AcDbSymbolTableRecord
100
AcDbBlockTableRecord
  2
*D16
340
0
  0
BLOCK_RECORD
  5
59A7
330
1
100
AcDbSymbolTableRecord
100
AcDbBlockTableRecord
  2
*D17
340
0
  0
BLOCK_RECORD
  5
59B3
330
1
100
AcDbSymbolTableRecord
100
AcDbBlockTableRecord
  2
*D18
340
0
  0
BLOCK_RECORD
  5
59BF
330
1
100
AcDbSymbolTableRecord
100
AcDbBlockTableRecord
  2
*D19
340
0
  0
BLOCK_RECORD
  5
59CB
330
1
100
AcDbSymbolTableRecord
100
AcDbBlockTableRecord
  2
*D20
340
0
  0
BLOCK_RECORD
  5
59D7
330
1
100
AcDbSymbolTableRecord
100
AcDbBlockTableRecord
  2
*D21
340
0
  0
BLOCK_RECORD
  5
59E3
330
1
100
AcDbSymbolTableRecord
100
AcDbBlockTableRecord
  2
*D22
340
0
  0
BLOCK_RECORD
  5
59EF
330
1
100
AcDbSymbolTableRecord
100
AcDbBlockTableRecord
  2
*D23
340
0
  0
BLOCK_RECORD
  5
5A07
330
1
100
AcDbSymbolTableRecord
100
AcDbBlockTableRecord
  2
*D25
340
0
  0
BLOCK_RECORD
  5
5A1F
330
1
100
AcDbSymbolTableRecord
100
AcDbBlockTableRecord
  2
*D27
340
0
  0
BLOCK_RECORD
  5
5A2B
330
1
100
AcDbSymbolTableRecord
100
AcDbBlockTableRecord
  2
*D28
340
0
  0
BLOCK_RECORD
  5
5A37
330
1
100
AcDbSymbolTableRecord
100
AcDbBlockTableRecord
  2
*D29
340
0
  0
BLOCK_RECORD
  5
5A43
330
1
100
AcDbSymbolTableRecord
100
AcDbBlockTableRecord
  2
*D30
340
0
  0
BLOCK_RECORD
  5
5A4F
330
1
100
AcDbSymbolTableRecord
100
AcDbBlockTableRecord
  2
*D31
340
0
  0
BLOCK_RECORD
  5
5A5B
330
1
100
AcDbSymbolTableRecord
100
AcDbBlockTableRecord
  2
*D32
340
0
  0
BLOCK_RECORD
  5
5A67
330
1
100
AcDbSymbolTableRecord
100
AcDbBlockTableRecord
  2
*D33
340
0
  0
BLOCK_RECORD
  5
5A73
330
1
100
AcDbSymbolTableRecord
100
AcDbBlockTableRecord
  2
*D34
340
0
  0
BLOCK_RECORD
  5
5A7F
330
1
100
AcDbSymbolTableRecord
100
AcDbBlockTableRecord
  2
*D35
340
0
  0
BLOCK_RECORD
  5
5A8B
330
1
100
AcDbSymbolTableRecord
100
AcDbBlockTableRecord
  2
*D36
340
0
  0
BLOCK_RECORD
  5
5A97
330
1
100
AcDbSymbolTableRecord
100
AcDbBlockTableRecord
  2
*D37
340
0
  0
BLOCK_RECORD
  5
5AA3
330
1
100
AcDbSymbolTableRecord
100
AcDbBlockTableRecord
  2
*D38
340
0
  0
BLOCK_RECORD
  5
5AAF
330
1
100
AcDbSymbolTableRecord
100
AcDbBlockTableRecord
  2
*D39
340
0
  0
BLOCK_RECORD
  5
5ABB
330
1
100
AcDbSymbolTableRecord
100
AcDbBlockTableRecord
  2
*D40
340
0
  0
BLOCK_RECORD
  5
5AC7
330
1
100
AcDbSymbolTableRecord
100
AcDbBlockTableRecord
  2
*D41
340
0
  0
BLOCK_RECORD
  5
5AD3
330
1
100
AcDbSymbolTableRecord
100
AcDbBlockTableRecord
  2
*D42
340
0
  0
BLOCK_RECORD
  5
5ADF
330
1
100
AcDbSymbolTableRecord
100
AcDbBlockTableRecord
  2
*D43
340
0
  0
BLOCK_RECORD
  5
5AEB
330
1
100
AcDbSymbolTableRecord
100
AcDbBlockTableRecord
  2
*D44
340
0
  0
BLOCK_RECORD
  5
5AF7
330
1
100
AcDbSymbolTableRecord
100
AcDbBlockTableRecord
  2
*D45
340
0
  0
BLOCK_RECORD
  5
5B03
330
1
100
AcDbSymbolTableRecord
100
AcDbBlockTableRecord
  2
*D46
340
0
  0
BLOCK_RECORD
  5
5B0F
330
1
100
AcDbSymbolTableRecord
100
AcDbBlockTableRecord
  2
*D47
340
0
  0
BLOCK_RECORD
  5
5B1B
330
1
100
AcDbSymbolTableRecord
100
AcDbBlockTableRecord
  2
*D48
340
0
  0
BLOCK_RECORD
  5
5B27
330
1
100
AcDbSymbolTableRecord
100
AcDbBlockTableRecord
  2
*D49
340
0
  0
BLOCK_RECORD
  5
5B33
330
1
100
AcDbSymbolTableRecord
100
AcDbBlockTableRecord
  2
*D50
340
0
  0
BLOCK_RECORD
  5
5B3F
330
1
100
AcDbSymbolTableRecord
100
AcDbBlockTableRecord
  2
*D51
340
0
  0
BLOCK_RECORD
  5
5B57
330
1
100
AcDbSymbolTableRecord
100
AcDbBlockTableRecord
  2
*D53
340
0
  0
ENDTAB
  0
ENDSEC
  0
SECTION
  2
BLOCKS
  0
BLOCK
  5
20
330
1F
100
AcDbEntity
  8
0
100
AcDbBlockBegin
  2
*Model_Space
 70
     0
 10
0.0
 20
0.0
 30
0.0
  3
*Model_Space
  1

  0
ENDBLK
  5
21
330
1F
100
AcDbEntity
  8
0
100
AcDbBlockEnd
  0
BLOCK
  5
1C
330
1B
100
AcDbEntity
 67
     1
  8
0
100
AcDbBlockBegin
  2
*Paper_Space
 70
     0
 10
0.0
 20
0.0
 30
0.0
  3
*Paper_Space
  1

  0
ENDBLK
  5
1D
330
1B
100
AcDbEntity
 67
     1
  8
0
100
AcDbBlockEnd
  0
BLOCK
  5
24
330
23
100
AcDbEntity
  8
0
100
AcDbBlockBegin
  2
*Paper_Space0
 70
     0
 10
0.0
 20
0.0
 30
0.0
  3
*Paper_Space0
  1

  0
ENDBLK
  5
25
330
23
100
AcDbEntity
  8
0
100
AcDbBlockEnd
  0
BLOCK
  5
48
330
46
100
AcDbEntity
  8
0
100
AcDbBlockBegin
  2
_DotSmall
 70
     0
 10
0.0
 20
0.0
 30
0.0
  3
_DotSmall
  1

  0
LWPOLYLINE
  5
47
330
46
100
AcDbEntity
  8
0
  6
ByBlock
 62
     0
100
AcDbPolyline
 90
        2
 70
     1
 43
0.5
 10
-0.0625
 20
0.0
 42
1.0
 10
0.0625
 20
0.0
 42
1.0
  0
ENDBLK
  5
49
330
46
100
AcDbEntity
  8
0
100
AcDbBlockEnd
  0
BLOCK
  5
40A
330
409
100
AcDbEntity
  8
0
100
AcDbBlockBegin
  2
ARRI
 70
     0
 10
0.0
 20
0.0
 30
0.0
  3
ARRI
  1

  0
LINE
  5
40B
330
409
100
AcDbEntity
  8
0
  6
ByBlock
 62
     0
100
AcDbLine
 10
-0.9999999999995168
 20
-0.2125565616699987
 30
0.0
 11
0.0000000000005826
 21
0.0000000000000142
 31
0.0
  0
LINE
  5
40C
330
409
100
AcDbEntity
  8
0
  6
ByBlock
 62
     0
100
AcDbLine
 10
0.0000000000005826
 20
0.0000000000000142
 30
0.0
 11
-0.9999999999995168
 21
0.2125565616699276
 31
0.0
  0
LINE
  5
40D
330
409
100
AcDbEntity
  8
0
  6
ByBlock
 62
     0
100
AcDbLine
 10
0.0000000000004832
 20
0.0
 30
0.0
 11
-0.9999999999995168
 21
0.0000000000000284
 31
0.0
  0
ENDBLK
  5
40E
330
409
100
AcDbEntity
  8
0
100
AcDbBlockEnd
  0
BLOCK
  5
16A9
330
16A8
100
AcDbEntity
  8
0
100
AcDbBlockBegin
  2
二葉ﾛｺﾞ
 70
     0
 10
0.0
 20
0.0
 30
0.0
  3
二葉ﾛｺﾞ
  1

  0
HATCH
  5
16AA
330
16A8
100
AcDbEntity
  8
0
  6
ByBlock
 62
     0
370
     0
100
AcDbHatch
 10
0.0
 20
0.0
 30
0.0
210
0.0
220
0.0
230
1.0
  2
SOLID
 70
     1
 71
     0
 91
        2
 92
       16
 93
        3
 72
     1
 10
76.73769930424715
 20
-36.71304457298436
 11
79.78414802696352
 21
-29.1412168510102
 72
     1
 10
79.78414802696534
 20
-29.14121685100997
 11
66.50084414551566
 21
-28.19627637481938
 72
     1
 10
66.50084414551748
 20
-28.19627637481915
 11
76.73769930424715
 21
-36.71304457298379
 97
        0
 92
        1
 93
        8
 72
     1
 10
84.6811051822242
 20
-43.32270634133806
 11
82.15388156491099
 21
-49.6075448210006
 72
     1
 10
82.15388156491099
 20
-49.60754482100004
 11
59.39410431416582
 21
-29.26425597551384
 72
     1
 10
59.39410431417127
 20
-29.2642559755144
 11
62.12557287816162
 21
-22.47249630289525
 72
     1
 10
62.12557287815798
 20
-22.47249630289502
 11
92.63189340767349
 21
-23.55277981603967
 72
     1
 10
92.63189340767349
 20
-23.55277981604013
 11
90.10466979036028
 21
-29.83761829570267
 72
     1
 10
90.10466979035482
 20
-29.83761829570301
 11
84.56544840518654
 21
-29.45619700974067
 72
     1
 10
84.56544840519018
 20
-29.45619700973987
 11
80.41902990940617
 21
-39.76441486068234
 72
     1
 10
80.41902990940434
 20
-39.76441486068291
 11
84.6811051822242
 21
-43.32270634133749
 97
        0
 75
     0
 76
     1
 98
        1
 10
-710.8849522954551
 20
-714.907159621347
450
        0
451
        0
460
0.0
461
0.0
452
        1
462
1.0
453
        2
463
0.0
 63
     5
421
      255
463
1.0
 63
    51
421
 16777113
470
LINEAR
  0
HATCH
  5
16AB
330
16A8
100
AcDbEntity
  8
0
  6
ByBlock
 62
     0
370
     0
100
AcDbHatch
 10
0.0
 20
0.0
 30
0.0
210
0.0
220
0.0
230
1.0
  2
SOLID
 70
     1
 71
     0
 91
        3
 92
        1
 93
        1
 72
     4
 94
        3
 73
     0
 74
     0
 95
       29
 96
       25
 40
0.0
 40
0.0
 40
0.0
 40
0.0
 40
1.0
 40
1.0
 40
1.0
 40
2.0
 40
2.0
 40
2.0
 40
3.0
 40
3.0
 40
3.0
 40
4.0
 40
4.0
 40
4.0
 40
5.0
 40
5.0
 40
5.0
 40
6.0
 40
6.0
 40
6.0
 40
7.0
 40
7.0
 40
7.0
 40
8.0
 40
8.0
 40
8.0
 40
8.0
 10
64.57897302076526
 20
-69.57925551048436
 10
64.57897302076526
 20
-69.57925551048436
 10
52.10280579606297
 20
-79.93422822873879
 10
52.10280579606297
 20
-79.93422822873879
 10
52.10280579606297
 20
-79.93422822873879
 10
33.77243702746091
 20
-57.84132303280569
 10
33.77243702746091
 20
-57.84132303280569
 10
33.77243702746091
 20
-57.84132303280569
 10
45.66047723703195
 20
-47.97850681256806
 10
45.66047723703195
 20
-47.97850681256806
 10
49.97668972463362
 20
-44.39806828950224
 10
54.5660490686314
 20
-44.565401498828
 10
57.30982154507183
 20
-47.87269316549429
 10
59.98469211178417
 20
-51.09631822749872
 10
58.48607557533068
 20
-53.85485539887724
 10
57.76752708822641
 20
-55.20828576842075
 10
59.02990850563583
 20
-54.68167831554456
 10
59.66971195305632
 20
-54.48235493384709
 10
60.7327699887719
 20
-54.45282554396658
 10
62.78752336798607
 20
-54.35931580934379
 10
64.88411004953741
 20
-55.17383481356012
 10
66.53529510037697
 20
-57.16460784803349
 10
69.67525355771977
 20
-60.94929131777576
 10
68.86811690097056
 20
-66.02342481231914
 10
64.57897302076526
 20
-69.57925551048436
 97
        0
 92
       16
 93
        1
 72
     4
 94
        3
 73
     0
 74
     0
 95
       20
 96
       16
 40
0.0
 40
0.0
 40
0.0
 40
0.0
 40
1.0
 40
1.0
 40
1.0
 40
2.0
 40
2.0
 40
2.0
 40
3.0
 40
3.0
 40
3.0
 40
4.0
 40
4.0
 40
4.0
 40
5.0
 40
5.0
 40
5.0
 40
5.0
 10
54.74568619040656
 20
-61.26919304148657
 10
54.74568619040656
 20
-61.26919304148657
 10
49.0538962908522
 20
-65.98897385745863
 10
49.0538962908522
 20
-65.98897385745863
 10
49.0538962908522
 20
-65.98897385745863
 10
53.96069657607404
 20
-71.90469496360936
 10
53.96069657607404
 20
-71.90469496360936
 10
53.96069657607404
 20
-71.90469496360936
 10
59.6549472581155
 20
-67.18245336514724
 10
59.6549472581155
 20
-67.18245336514724
 10
61.44639691089469
 20
-65.69367995864945
 10
62.56605294387918
 20
-63.39038754793512
 10
60.70570138137918
 20
-61.14861469947323
 10
58.65833034963362
 20
-58.68291064441291
 10
56.14833220975197
 20
-60.10524292367847
 10
54.74568619040656
 20
-61.26919304148657
 97
        0
 92
       16
 93
        1
 72
     4
 94
        3
 73
     0
 74
     0
 95
       20
 96
       16
 40
0.0
 40
0.0
 40
0.0
 40
0.0
 40
1.0
 40
1.0
 40
1.0
 40
2.0
 40
2.0
 40
2.0
 40
3.0
 40
3.0
 40
3.0
 40
4.0
 40
4.0
 40
4.0
 40
5.0
 40
5.0
 40
5.0
 40
5.0
 10
52.53344273182847
 20
-53.0674050020524
 10
51.74353155250719
 20
-52.11262139590167
 10
49.99637598455411
 20
-50.86500467343069
 10
47.72507374621091
 20
-52.74996406083142
 10
47.72507374621091
 20
-52.74996406083142
 10
42.00621523926383
 20
-57.49435270170522
 10
42.00621523926383
 20
-57.49435270170522
 10
42.00621523926383
 20
-57.49435270170522
 10
46.44792763385703
 20
-62.84901540011708
 10
46.44792763385703
 20
-62.84901540011708
 10
46.44792763385703
 20
-62.84901540011708
 10
52.16924692329303
 20
-58.1046267592443
 10
52.16924692329303
 20
-58.1046267592443
 10
54.24368656243132
 20
-56.38207901618864
 10
53.53498120528638
 20
-54.27318842219086
 10
52.53344273182847
 20
-53.0674050020524
 97
        0
 75
     0
 76
     1
 98
        1
 10
-710.8849522954551
 20
-714.907159621347
450
        0
451
        0
460
0.0
461
0.0
452
        0
462
0.0
453
        2
463
0.0
 63
     5
421
      255
463
1.0
 63
    51
421
 16777113
470

  0
HATCH
  5
16AC
330
16A8
100
AcDbEntity
  8
0
  6
ByBlock
 62
     0
370
     0
100
AcDbHatch
 10
0.0
 20
0.0
 30
0.0
210
0.0
220
0.0
230
1.0
  2
SOLID
 70
     1
 71
     0
 91
        2
 92
        1
 93
        8
 72
     1
 10
29.27658741808591
 20
-89.607564197241
 11
26.4663738144136
 21
-84.81642068905648
 72
     1
 10
26.46637381441542
 20
-84.8164206890557
 11
15.61678381565434
 21
-87.21322283439292
 72
     1
 10
15.61678381565434
 20
-87.21322283439281
 11
15.08279401530671
 21
-92.73767952462106
 72
     1
 10
15.08279401530854
 20
-92.73767952462151
 11
8.465749899487491
 21
-94.19938432372862
 72
     1
 10
8.465749899482034
 20
-94.19938432372873
 11
12.41776657855007
 21
-63.92929891326241
 72
     1
 10
12.41776657855371
 20
-63.92929891326218
 11
19.5688004947242
 21
-62.35193733712117
 72
     1
 10
19.5688004947242
 20
-62.35193733712151
 11
35.89363153391059
 21
-88.14585939813332
 72
     1
 10
35.89363153391242
 20
-88.14585939813275
 11
29.27658741809137
 21
-89.60756419723987
 97
        0
 92
       16
 93
        3
 72
     1
 10
16.05726388137918
 20
-82.45160871608936
 11
24.02773836674715
 21
-80.69214923568257
 72
     1
 10
24.02773836674533
 20
-80.6921492356829
 11
17.30980216882744
 21
-69.19291265954223
 72
     1
 10
17.3098021688329
 20
-69.19291265954234
 11
16.05726388138282
 21
-82.45160871608993
 97
        0
 75
     0
 76
     1
 98
        1
 10
-710.8849522954551
 20
-714.907159621347
450
        0
451
        0
460
0.0
461
0.0
452
        0
462
0.0
453
        2
463
0.0
 63
     5
421
      255
463
1.0
 63
    51
421
 16777113
470

  0
HATCH
  5
16AD
330
16A8
100
AcDbEntity
  8
0
  6
ByBlock
 62
     0
370
     0
100
AcDbHatch
 10
0.0
 20
0.0
 30
0.0
210
0.0
220
0.0
230
1.0
  2
SOLID
 70
     1
 71
     0
 91
        1
 92
        3
 72
     0
 73
     1
 93
        8
 10
-27.98459073481536
 20
-65.15722937581142
 10
-18.55610262407572
 20
-67.39408065929456
 10
-23.94767705984123
 20
-90.11202460770642
 10
-17.53118671696029
 20
-91.63524896906585
 10
-12.14084267243743
 20
-68.91730502065297
 10
-2.712354561701431
 20
-71.15169552164502
 10
-1.477041751681099
 20
-65.93975820765741
 10
-26.74927792479503
 20
-59.94529206182358
 97
        0
 75
     2
 76
     1
 98
        1
 10
0.5032729572103563
 20
0.4066288986183509
450
        0
451
        0
460
0.0
461
0.0
452
        0
462
0.0
453
        0
470

  0
HATCH
  5
16AE
330
16A8
100
AcDbEntity
  8
0
  6
ByBlock
 62
     0
370
     0
100
AcDbHatch
 10
0.0
 20
0.0
 30
0.0
210
0.0
220
0.0
230
1.0
  2
SOLID
 70
     1
 71
     0
 91
        1
 92
        1
 93
        1
 72
     4
 94
        3
 73
     0
 74
     0
 95
       35
 96
       31
 40
0.0
 40
0.0
 40
0.0
 40
0.0
 40
1.0
 40
1.0
 40
1.0
 40
2.0
 40
2.0
 40
2.0
 40
3.0
 40
3.0
 40
3.0
 40
4.0
 40
4.0
 40
4.0
 40
5.0
 40
5.0
 40
5.0
 40
6.0
 40
6.0
 40
6.0
 40
7.0
 40
7.0
 40
7.0
 40
8.0
 40
8.0
 40
8.0
 40
9.0
 40
9.0
 40
9.0
 40
10.0
 40
10.0
 40
10.0
 40
10.0
 10
-47.53304683600435
 20
-67.45560022154575
 10
-49.14485936701203
 20
-69.33809882645642
 10
-52.52351372588782
 20
-71.09509752437372
 10
-56.78189782497248
 20
-67.44575709158585
 10
-59.10610688684937
 20
-65.45252327462151
 10
-61.03412996782572
 20
-61.87946709902667
 10
-58.07011745852651
 20
-58.42206770046437
 10
-58.07011745852651
 20
-58.42206770046437
 10
-46.33464576333972
 20
-44.73273470815297
 10
-46.33464576333972
 20
-44.73273470815297
 10
-46.33464576333972
 20
-44.73273470815297
 10
-51.31280874076947
 20
-40.46573787035595
 10
-51.31280874076947
 20
-40.46573787035595
 10
-51.31280874076947
 20
-40.46573787035595
 10
-62.78743749200839
 20
-53.85239461638718
 10
-62.78743749200839
 20
-53.85239461638718
 10
-68.92832019600246
 20
-61.01573244500776
 10
-64.98491625565112
 20
-67.60816873593069
 10
-60.17285609629652
 20
-71.73490097179456
 10
-54.11687038821401
 20
-76.92715202586157
 10
-47.48998314242817
 20
-77.42669087134823
 10
-42.32110952201765
 20
-71.39777377065297
 10
-42.32110952201765
 20
-71.39777377065297
 10
-30.84771116202137
 20
-58.00865624213168
 10
-30.84771116202137
 20
-58.00865624213168
 10
-30.84771116202137
 20
-58.00865624213168
 10
-35.79757514081939
 20
-53.7638064467443
 10
-35.79757514081939
 20
-53.7638064467443
 10
-35.79757514081939
 20
-53.7638064467443
 10
-47.53304683600435
 20
-67.45560022154575
 10
-47.53304683600435
 20
-67.45560022154575
 97
        0
 75
     2
 76
     1
 98
        1
 10
0.5032729572103563
 20
0.4066288986183509
450
        0
451
        0
460
0.0
461
0.0
452
        0
462
0.0
453
        0
470

  0
HATCH
  5
16AF
330
16A8
100
AcDbEntity
  8
0
  6
ByBlock
 62
     0
370
     0
100
AcDbHatch
 10
0.0
 20
0.0
 30
0.0
210
0.0
220
0.0
230
1.0
  2
SOLID
 70
     1
 71
     0
 91
        1
 92
        3
 72
     0
 73
     1
 93
       10
 10
-65.75760195753173
 20
-23.80377963002798
 10
-59.46538113040151
 20
-37.10923055388719
 10
-54.62502197241701
 20
-34.82070283811367
 10
-63.71884366450467
 20
-15.58722689565297
 10
-89.67025580488188
 20
-27.85914917367847
 10
-86.86742454868181
 20
-33.78717419228019
 10
-76.69085856095444
 20
-28.97388364168512
 10
-71.27098512655539
 20
-40.43620848047431
 10
-66.59549839540523
 20
-38.22642580438389
 10
-72.01414143855981
 20
-26.7641009655938
 97
        0
 75
     2
 76
     1
 98
        1
 10
0.5032729572103563
 20
0.4066288986183509
450
        0
451
        0
460
0.0
461
0.0
452
        0
462
0.0
453
        0
470

  0
HATCH
  5
16B0
330
16A8
100
AcDbEntity
  8
0
  6
ByBlock
 62
     0
370
     0
100
AcDbHatch
 10
0.0
 20
0.0
 30
0.0
210
0.0
220
0.0
230
1.0
  2
SOLID
 70
     1
 71
     0
 91
        1
 92
        1
 93
        1
 72
     4
 94
        3
 73
     0
 74
     0
 95
       41
 96
       37
 40
0.0
 40
0.0
 40
0.0
 40
0.0
 40
1.0
 40
1.0
 40
1.0
 40
2.0
 40
2.0
 40
2.0
 40
3.0
 40
3.0
 40
3.0
 40
4.0
 40
4.0
 40
4.0
 40
5.0
 40
5.0
 40
5.0
 40
6.0
 40
6.0
 40
6.0
 40
7.0
 40
7.0
 40
7.0
 40
8.0
 40
8.0
 40
8.0
 40
9.0
 40
9.0
 40
9.0
 40
10.0
 40
10.0
 40
10.0
 40
11.0
 40
11.0
 40
11.0
 40
12.0
 40
12.0
 40
12.0
 40
12.0
 10
92.32675637890134
 20
2.068887470666368
 10
92.54330523802854
 20
7.006447537010217
 10
89.35905269586147
 20
26.5672075506518
 10
84.30214467875158
 20
36.93694496384592
 10
76.89026781863322
 20
52.12858566635055
 10
62.69155285087435
 20
70.84283650340399
 10
52.19385474819318
 20
75.56753888435719
 10
48.08926955474089
 20
77.41312575191637
 10
46.59803536575418
 20
75.9440386053393
 10
45.61618315221676
 20
74.22395164477348
 10
19.70168274918797
 20
28.8926470037768
 10
7.653691677754977
 20
10.01967569611281
 10
4.907458418832902
 20
6.840344718929713
 10
2.550028793333694
 20
4.111336937431929
 10
0.0105012635740423
 20
3.701616652833763
 10
-2.743114342827539
 20
6.584423339962086
 10
-6.052866791986161
 20
10.05043547723892
 10
-41.08456632075467
 20
76.38697945355364
 10
-41.08456632075467
 20
76.38697945355364
 10
-42.52904564242817
 20
78.57584547847887
 10
-44.38693642243925
 20
79.73118285757152
 10
-47.64993400429012
 20
78.32730644698108
 10
-57.16701028466559
 20
74.23256438348892
 10
-70.9449314466201
 20
59.53431057024443
 10
-78.35311713300507
 20
47.83328982991747
 10
-80.90248779272588
 20
43.80621928490177
 10
-91.01876460944367
 20
21.83266203973892
 10
-90.9178725273523
 20
8.621951241747751
 10
-90.89326470245032
 20
5.213767492987813
 10
-90.38757390073625
 20
1.616103492491106
 10
-82.51183954123916
 20
-0.4386498867243063
 10
-82.51183954123916
 20
-0.4386498867243063
 10
87.31168166411771
 20
-2.195648584640593
 10
87.31168166411771
 20
-2.195648584640593
 10
89.73309163435443
 20
-1.89297233836146
 10
92.17418786451526
 20
-1.453722663881649
 10
92.32675637890134
 20
2.068887470666368
 97
        0
 75
     2
 76
     1
 98
        1
 10
0.5032729572103563
 20
0.4066288986183509
450
        0
451
        0
460
0.0
461
0.0
452
        0
462
0.0
453
        0
470

  0
CIRCLE
  5
16B1
330
16A8
100
AcDbEntity
  8
0
  6
ByBlock
 62
     0
370
    -2
100
AcDbCircle
 10
0.0
 20
0.0
 30
0.0
 40
103.5714285714286
  0
ENDBLK
  5
16B2
330
16A8
100
AcDbEntity
  8
0
100
AcDbBlockEnd
  0
BLOCK
  5
16B4
330
16B3
100
AcDbEntity
  8
0
100
AcDbBlockBegin
  2
A$C01F25748
 70
     0
 10
0.0
 20
0.0
 30
0.0
  3
A$C01F25748
  1

  0
LINE
  5
16B5
330
16B3
100
AcDbEntity
  8
0
  6
ByBlock
 62
     0
100
AcDbLine
 10
-67.4690150000024
 20
-8.166060000006837
 30
0.0
 11
-69.50327000000107
 21
-9.877133000001776
 31
0.0
  0
LINE
  5
16B6
330
16B3
100
AcDbEntity
  8
0
  6
ByBlock
 62
     0
100
AcDbLine
 10
-65.43328999999357
 20
-6.417839000012463
 30
0.0
 11
-67.4690150000024
 21
-8.166060000006837
 31
0.0
  0
LINE
  5
16B7
330
16B3
100
AcDbEntity
  8
0
  6
ByBlock
 62
     0
100
AcDbLine
 10
-63.42643600000156
 20
-4.621989999999641
 30
0.0
 11
-65.43328999999357
 21
-6.417839000012463
 31
0.0
  0
LINE
  5
16B8
330
16B3
100
AcDbEntity
  8
0
  6
ByBlock
 62
     0
100
AcDbLine
 10
-61.47879800000374
 20
-2.76802900000257
 30
0.0
 11
-63.42643600000156
 21
-4.621989999999641
 31
0.0
  0
LINE
  5
16B9
330
16B3
100
AcDbEntity
  8
0
  6
ByBlock
 62
     0
100
AcDbLine
 10
-59.62071700000524
 20
-0.8454750000018975
 30
0.0
 11
-61.47879800000374
 21
-2.76802900000257
 31
0.0
  0
LINE
  5
16BA
330
16B3
100
AcDbEntity
  8
0
  6
ByBlock
 62
     0
100
AcDbLine
 10
-57.88253600000462
 20
1.156153999992966
 30
0.0
 11
-59.62071700000524
 21
-0.8454750000018975
 31
0.0
  0
LINE
  5
16BB
330
16B3
100
AcDbEntity
  8
0
  6
ByBlock
 62
     0
100
AcDbLine
 10
-56.29459800000041
 20
3.247339999998075
 30
0.0
 11
-57.88253600000462
 21
1.156153999992966
 31
0.0
  0
LINE
  5
16BC
330
16B3
100
AcDbEntity
  8
0
  6
ByBlock
 62
     0
100
AcDbLine
 10
-54.88724500000535
 20
5.438565999989805
 30
0.0
 11
-56.29459800000041
 21
3.247339999998075
 31
0.0
  0
LINE
  5
16BD
330
16B3
100
AcDbEntity
  8
0
  6
ByBlock
 62
     0
100
AcDbLine
 10
-53.68136900000536
 20
7.736262999995233
 30
0.0
 11
-54.88724500000535
 21
5.438565999989805
 31
0.0
  0
LINE
  5
16BE
330
16B3
100
AcDbEntity
  8
0
  6
ByBlock
 62
     0
100
AcDbLine
 10
-52.66005399999994
 20
10.13066699999763
 30
0.0
 11
-53.68136900000536
 21
7.736262999995233
 31
0.0
  0
LINE
  5
16BF
330
16B3
100
AcDbEntity
  8
0
  6
ByBlock
 62
     0
100
AcDbLine
 10
-51.7969360000061
 20
12.60796099999788
 30
0.0
 11
-52.66005399999994
 21
10.13066699999763
 31
0.0
  0
LINE
  5
16C0
330
16B3
100
AcDbEntity
  8
0
  6
ByBlock
 62
     0
100
AcDbLine
 10
-51.06564700000308
 20
15.15433099999063
 30
0.0
 11
-51.7969360000061
 21
12.60796099999788
 31
0.0
  0
LINE
  5
16C1
330
16B3
100
AcDbEntity
  8
0
  6
ByBlock
 62
     0
100
AcDbLine
 10
-50.43982300000061
 20
17.75596099999529
 30
0.0
 11
-51.06564700000308
 21
15.15433099999063
 31
0.0
  0
LINE
  5
16C2
330
16B3
100
AcDbEntity
  8
0
  6
ByBlock
 62
     0
100
AcDbLine
 10
-49.89309600001433
 20
20.39903699999559
 30
0.0
 11
-50.43982300000061
 21
17.75596099999529
 31
0.0
  0
LINE
  5
16C3
330
16B3
100
AcDbEntity
  8
0
  6
ByBlock
 62
     0
100
AcDbLine
 10
-49.39910200000304
 20
23.06974300000002
 30
0.0
 11
-49.89309600001433
 21
20.39903699999559
 31
0.0
  0
LINE
  5
16C4
330
16B3
100
AcDbEntity
  8
0
  6
ByBlock
 62
     0
100
AcDbLine
 10
-48.93147399999725
 20
25.75426499999594
 30
0.0
 11
-49.39910200000304
 21
23.06974300000002
 31
0.0
  0
LINE
  5
16C5
330
16B3
100
AcDbEntity
  8
0
  6
ByBlock
 62
     0
100
AcDbLine
 10
-62.88067999999475
 20
-14.73050400000284
 30
0.0
 11
-66.03916900000331
 21
-15.87713300000177
 31
0.0
  0
LINE
  5
16C6
330
16B3
100
AcDbEntity
  8
0
  6
ByBlock
 62
     0
100
AcDbLine
 10
-59.98856800000067
 20
-13.71028600000864
 30
0.0
 11
-62.88067999999475
 21
-14.73050400000284
 31
0.0
  0
LINE
  5
16C7
330
16B3
100
AcDbEntity
  8
0
  6
ByBlock
 62
     0
100
AcDbLine
 10
-57.31350300000485
 20
-12.82779300000402
 30
0.0
 11
-59.98856800000067
 21
-13.71028600000864
 31
0.0
  0
LINE
  5
16C8
330
16B3
100
AcDbEntity
  8
0
  6
ByBlock
 62
     0
100
AcDbLine
 10
-54.80615600000601
 20
-12.09433700000227
 30
0.0
 11
-57.31350300000485
 21
-12.82779300000402
 31
0.0
  0
LINE
  5
16C9
330
16B3
100
AcDbEntity
  8
0
  6
ByBlock
 62
     0
100
AcDbLine
 10
-52.41719800000282
 20
-11.5212300000021
 30
0.0
 11
-54.80615600000601
 21
-12.09433700000227
 31
0.0
  0
LINE
  5
16CA
330
16B3
100
AcDbEntity
  8
0
  6
ByBlock
 62
     0
100
AcDbLine
 10
-50.09730100000161
 20
-11.11978500000259
 30
0.0
 11
-52.41719800000282
 21
-11.5212300000021
 31
0.0
  0
LINE
  5
16CB
330
16B3
100
AcDbEntity
  8
0
  6
ByBlock
 62
     0
100
AcDbLine
 10
-47.79713499999343
 20
-10.90131500000279
 30
0.0
 11
-50.09730100000161
 21
-11.11978500000259
 31
0.0
  0
LINE
  5
16CC
330
16B3
100
AcDbEntity
  8
0
  6
ByBlock
 62
     0
100
AcDbLine
 10
-45.46737199999916
 20
-10.87713300000177
 30
0.0
 11
-47.79713499999343
 21
-10.90131500000279
 31
0.0
  0
LINE
  5
16CD
330
16B3
100
AcDbEntity
  8
0
  6
ByBlock
 62
     0
100
AcDbLine
 10
-43.06854800000292
 20
-11.05238200000531
 30
0.0
 11
-45.46737199999916
 21
-10.87713300000177
 31
0.0
  0
LINE
  5
16CE
330
16B3
100
AcDbEntity
  8
0
  6
ByBlock
 62
     0
100
AcDbLine
 10
-40.60066400000505
 20
-11.40753100000438
 30
0.0
 11
-43.06854800000292
 21
-11.05238200000531
 31
0.0
  0
LINE
  5
16CF
330
16B3
100
AcDbEntity
  8
0
  6
ByBlock
 62
     0
100
AcDbLine
 10
-38.07358600000589
 20
-11.91688100000465
 30
0.0
 11
-40.60066400000505
 21
-11.40753100000438
 31
0.0
  0
LINE
  5
16D0
330
16B3
100
AcDbEntity
  8
0
  6
ByBlock
 62
     0
100
AcDbLine
 10
-35.49717800000508
 20
-12.55473100000381
 30
0.0
 11
-38.07358600000589
 21
-11.91688100000465
 31
0.0
  0
LINE
  5
16D1
330
16B3
100
AcDbEntity
  8
0
  6
ByBlock
 62
     0
100
AcDbLine
 10
-32.88130800000363
 20
-13.29538099999991
 30
0.0
 11
-35.49717800000508
 21
-12.55473100000381
 31
0.0
  0
LINE
  5
16D2
330
16B3
100
AcDbEntity
  8
0
  6
ByBlock
 62
     0
100
AcDbLine
 10
-30.23584000000119
 20
-14.11313200000222
 30
0.0
 11
-32.88130800000363
 21
-13.29538099999991
 31
0.0
  0
LINE
  5
16D3
330
16B3
100
AcDbEntity
  8
0
  6
ByBlock
 62
     0
100
AcDbLine
 10
-27.57064000000537
 20
-14.98228200000449
 30
0.0
 11
-30.23584000000119
 21
-14.11313200000222
 31
0.0
  0
LINE
  5
16D4
330
16B3
100
AcDbEntity
  8
0
  6
ByBlock
 62
     0
100
AcDbLine
 10
-24.89557500000228
 20
-15.87713300000177
 30
0.0
 11
-27.57064000000537
 21
-14.98228200000449
 31
0.0
  0
LINE
  5
16D5
330
16B3
100
AcDbEntity
  8
0
  6
ByBlock
 62
     0
100
AcDbLine
 10
-23.46572900000319
 20
-8.166060000006837
 30
0.0
 11
-21.43147400000453
 21
-9.877133000001776
 31
0.0
  0
LINE
  5
16D6
330
16B3
100
AcDbEntity
  8
0
  6
ByBlock
 62
     0
100
AcDbLine
 10
-25.50145399999747
 20
-6.417839000012463
 30
0.0
 11
-23.46572900000319
 21
-8.166060000006837
 31
0.0
  0
LINE
  5
16D7
330
16B3
100
AcDbEntity
  8
0
  6
ByBlock
 62
     0
100
AcDbLine
 10
-27.50830800000404
 20
-4.621989999999641
 30
0.0
 11
-25.50145399999747
 21
-6.417839000012463
 31
0.0
  0
LINE
  5
16D8
330
16B3
100
AcDbEntity
  8
0
  6
ByBlock
 62
     0
100
AcDbLine
 10
-29.45594600000186
 20
-2.76802900000257
 30
0.0
 11
-27.50830800000404
 21
-4.621989999999641
 31
0.0
  0
LINE
  5
16D9
330
16B3
100
AcDbEntity
  8
0
  6
ByBlock
 62
     0
100
AcDbLine
 10
-31.31402700000035
 20
-0.8454750000018975
 30
0.0
 11
-29.45594600000186
 21
-2.76802900000257
 31
0.0
  0
LINE
  5
16DA
330
16B3
100
AcDbEntity
  8
0
  6
ByBlock
 62
     0
100
AcDbLine
 10
-33.05220800000097
 20
1.156153999992966
 30
0.0
 11
-31.31402700000035
 21
-0.8454750000018975
 31
0.0
  0
LINE
  5
16DB
330
16B3
100
AcDbEntity
  8
0
  6
ByBlock
 62
     0
100
AcDbLine
 10
-34.64014599999791
 20
3.247339999998075
 30
0.0
 11
-33.05220800000097
 21
1.156153999992966
 31
0.0
  0
LINE
  5
16DC
330
16B3
100
AcDbEntity
  8
0
  6
ByBlock
 62
     0
100
AcDbLine
 10
-36.04749900000025
 20
5.438565999989805
 30
0.0
 11
-34.64014599999791
 21
3.247339999998075
 31
0.0
  0
LINE
  5
16DD
330
16B3
100
AcDbEntity
  8
0
  6
ByBlock
 62
     0
100
AcDbLine
 10
-37.25337500000023
 20
7.736262999995233
 30
0.0
 11
-36.04749900000025
 21
5.438565999989805
 31
0.0
  0
LINE
  5
16DE
330
16B3
100
AcDbEntity
  8
0
  6
ByBlock
 62
     0
100
AcDbLine
 10
-38.27469000000565
 20
10.13066699999763
 30
0.0
 11
-37.25337500000023
 21
7.736262999995233
 31
0.0
  0
LINE
  5
16DF
330
16B3
100
AcDbEntity
  8
0
  6
ByBlock
 62
     0
100
AcDbLine
 10
-39.13780800000677
 20
12.60796099999788
 30
0.0
 11
-38.27469000000565
 21
10.13066699999763
 31
0.0
  0
LINE
  5
16E0
330
16B3
100
AcDbEntity
  8
0
  6
ByBlock
 62
     0
100
AcDbLine
 10
-39.86909600000217
 20
15.15433099999063
 30
0.0
 11
-39.13780800000677
 21
12.60796099999788
 31
0.0
  0
LINE
  5
16E1
330
16B3
100
AcDbEntity
  8
0
  6
ByBlock
 62
     0
100
AcDbLine
 10
-40.49492100000498
 20
17.75596099999529
 30
0.0
 11
-39.86909600000217
 21
15.15433099999063
 31
0.0
  0
LINE
  5
16E2
330
16B3
100
AcDbEntity
  8
0
  6
ByBlock
 62
     0
100
AcDbLine
 10
-41.04164699999819
 20
20.39903699999559
 30
0.0
 11
-40.49492100000498
 21
17.75596099999529
 31
0.0
  0
LINE
  5
16E3
330
16B3
100
AcDbEntity
  8
0
  6
ByBlock
 62
     0
100
AcDbLine
 10
-41.53564200000255
 20
23.06974300000002
 30
0.0
 11
-41.04164699999819
 21
20.39903699999559
 31
0.0
  0
LINE
  5
16E4
330
16B3
100
AcDbEntity
  8
0
  6
ByBlock
 62
     0
100
AcDbLine
 10
-42.00327000000107
 20
25.75426499999594
 30
0.0
 11
-41.53564200000255
 21
23.06974300000002
 31
0.0
  0
LINE
  5
16E5
330
16B3
100
AcDbEntity
  8
0
  6
ByBlock
 62
     0
100
AcDbLine
 10
-4.0
 20
27.0
 30
0.0
 11
-4.0
 21
-27.0
 31
0.0
  0
LINE
  5
16E6
330
16B3
100
AcDbEntity
  8
0
  6
ByBlock
 62
     0
100
AcDbLine
 10
-1.0
 20
30.0
 30
0.0
 11
0.0
 21
30.0
 31
0.0
  0
LINE
  5
16E7
330
16B3
100
AcDbEntity
  8
0
  6
ByBlock
 62
     0
100
AcDbLine
 10
-1.0
 20
-30.0
 30
0.0
 11
0.0
 21
-30.0
 31
0.0
  0
ARC
  5
16E8
330
16B3
100
AcDbEntity
  8
0
  6
ByBlock
 62
     0
100
AcDbCircle
 10
-1.0
 20
27.0
 30
0.0
 40
3.0
100
AcDbArc
 50
90.0
 51
180.0
  0
ARC
  5
16E9
330
16B3
100
AcDbEntity
  8
0
  6
ByBlock
 62
     0
100
AcDbCircle
 10
-1.0
 20
-27.0
 30
0.0
 40
3.0
100
AcDbArc
 50
180.0
 51
270.0
  0
LINE
  5
16EA
330
16B3
100
AcDbEntity
  8
0
  6
ByBlock
 62
     0
100
AcDbLine
 10
-4.0
 20
25.0
 30
0.0
 11
-5.635953000004519
 21
17.27248399999735
 31
0.0
  0
LINE
  5
16EB
330
16B3
100
AcDbEntity
  8
0
  6
ByBlock
 62
     0
100
AcDbLine
 10
-4.0
 20
-25.0
 30
0.0
 11
-5.635953000004519
 21
-17.27248400000462
 31
0.0
  0
LINE
  5
16EC
330
16B3
100
AcDbEntity
  8
0
  6
ByBlock
 62
     0
100
AcDbLine
 10
0.0
 20
30.0
 30
0.0
 11
0.0
 21
-30.0
 31
0.0
  0
LINE
  5
16ED
330
16B3
100
AcDbEntity
  8
0
  6
ByBlock
 62
     0
100
AcDbLine
 10
-59.0
 20
30.0
 30
0.0
 11
-31.0
 21
30.0
 31
0.0
  0
LINE
  5
16EE
330
16B3
100
AcDbEntity
  8
0
  6
ByBlock
 62
     0
100
AcDbLine
 10
-40.96355299999413
 20
20.0
 30
0.0
 11
-31.0
 21
20.0
 31
0.0
  0
LINE
  5
16EF
330
16B3
100
AcDbEntity
  8
0
  6
ByBlock
 62
     0
100
AcDbLine
 10
-59.0
 20
30.0
 30
0.0
 11
-59.0
 21
20.0
 31
0.0
  0
LINE
  5
16F0
330
16B3
100
AcDbEntity
  8
0
  6
ByBlock
 62
     0
100
AcDbLine
 10
-53.0
 20
37.0
 30
0.0
 11
-53.0
 21
30.0
 31
0.0
  0
LINE
  5
16F1
330
16B3
100
AcDbEntity
  8
0
  6
ByBlock
 62
     0
100
AcDbLine
 10
-59.0
 20
20.0
 30
0.0
 11
-50.35301700000127
 21
20.0
 31
0.0
  0
ARC
  5
16F2
330
16B3
100
AcDbEntity
  8
0
  6
ByBlock
 62
     0
100
AcDbCircle
 10
-45.46737199999916
 20
23.75426499999594
 30
0.0
 40
4.0
100
AcDbArc
 50
30.00000000006243
 51
149.9999999999375
  0
ARC
  5
16F3
330
16B3
100
AcDbEntity
  8
0
  6
ByBlock
 62
     0
100
AcDbCircle
 10
-66.03916900000331
 20
-11.87713300000178
 30
0.0
 40
4.0
100
AcDbArc
 50
149.9999999999375
 51
270.0
  0
CIRCLE
  5
16F4
330
16B3
100
AcDbEntity
  8
0
  6
ByBlock
 62
     0
100
AcDbCircle
 10
-45.46737199999916
 20
0.0
 30
0.0
 40
7.0
  0
LINE
  5
16F5
330
16B3
100
AcDbEntity
  8
0
  6
ByBlock
 62
     0
100
AcDbLine
 10
-57.0
 20
20.0
 30
0.0
 11
-58.3655809999982
 21
6.236548999997467
 31
0.0
  0
ARC
  5
16F6
330
16B3
100
AcDbEntity
  8
0
  6
ByBlock
 62
     0
100
AcDbCircle
 10
-43.43887199999881
 20
4.755551999995077
 30
0.0
 40
15.0
100
AcDbArc
 50
174.333774999938
 51
194.206139000111
  0
LINE
  5
16F7
330
16B3
100
AcDbEntity
  8
0
  6
ByBlock
 62
     0
100
AcDbLine
 10
-37.0
 20
37.0
 30
0.0
 11
-37.0
 21
30.0
 31
0.0
  0
LINE
  5
16F8
330
16B3
100
AcDbEntity
  8
0
  6
ByBlock
 62
     0
100
AcDbLine
 10
-31.0
 20
30.0
 30
0.0
 11
-31.0
 21
20.0
 31
0.0
  0
ARC
  5
16F9
330
16B3
100
AcDbEntity
  8
0
  6
ByBlock
 62
     0
100
AcDbCircle
 10
-24.89557500000228
 20
-11.87713300000178
 30
0.0
 40
4.0
100
AcDbArc
 50
270.0
 51
30.00000000006243
  0
LINE
  5
16FA
330
16B3
100
AcDbEntity
  8
0
  6
ByBlock
 62
     0
100
AcDbLine
 10
-33.0
 20
20.0
 30
0.0
 11
-32.87959599999886
 21
18.7864690000024
 31
0.0
  0
ARC
  5
16FB
330
16B3
100
AcDbEntity
  8
0
  6
ByBlock
 62
     0
100
AcDbCircle
 10
-24.91868400000385
 20
19.57633399999759
 30
0.0
 40
8.0
100
AcDbArc
 50
185.666225000062
 51
273.9451859999231
  0
LINE
  5
16FC
330
16B3
100
AcDbEntity
  8
0
  6
ByBlock
 62
     0
100
AcDbLine
 10
-12.44958300000144
 20
12.41727000000173
 30
0.0
 11
-24.36826800000563
 21
11.59529199999815
 31
0.0
  0
LINE
  5
16FD
330
16B3
100
AcDbEntity
  8
0
  6
ByBlock
 62
     0
100
AcDbLine
 10
-12.44958300000144
 20
-12.41727000000173
 30
0.0
 11
-20.89579900000535
 21
-11.83477300000231
 31
0.0
  0
ARC
  5
16FE
330
16B3
100
AcDbEntity
  8
0
  6
ByBlock
 62
     0
100
AcDbCircle
 10
-13.0
 20
20.39831299999787
 30
0.0
 40
8.0
100
AcDbArc
 50
273.9451859999231
 51
337.0001559999723
  0
ARC
  5
16FF
330
16B3
100
AcDbEntity
  8
0
  6
ByBlock
 62
     0
100
AcDbCircle
 10
-13.0
 20
-20.39831300000515
 30
0.0
 40
8.0
100
AcDbArc
 50
22.99984400002772
 51
86.0548140000769
  0
ARC
  5
1700
330
16B3
100
AcDbEntity
  8
0
  6
ByBlock
 62
     0
100
AcDbCircle
 10
-73.0
 20
37.0
 30
0.0
 40
36.0
100
AcDbArc
 50
0.0
 51
90.0
  0
ARC
  5
1701
330
16B3
100
AcDbEntity
  8
0
  6
ByBlock
 62
     0
100
AcDbCircle
 10
-73.0
 20
37.0
 30
0.0
 40
20.0
100
AcDbArc
 50
0.0
 51
90.0
  0
LINE
  5
1702
330
16B3
100
AcDbEntity
  8
0
  6
ByBlock
 62
     0
100
AcDbLine
 10
-228.0
 20
32.0
 30
0.0
 11
-202.0
 21
32.0
 31
0.0
  0
LINE
  5
1703
330
16B3
100
AcDbEntity
  8
0
  6
ByBlock
 62
     0
100
AcDbLine
 10
-228.0
 20
15.0
 30
0.0
 11
-202.0
 21
15.0
 31
0.0
  0
LINE
  5
1704
330
16B3
100
AcDbEntity
  8
0
  6
ByBlock
 62
     0
100
AcDbLine
 10
-228.0
 20
32.0
 30
0.0
 11
-228.0
 21
15.0
 31
0.0
  0
LINE
  5
1705
330
16B3
100
AcDbEntity
  8
0
  6
ByBlock
 62
     0
100
AcDbLine
 10
-223.0
 20
37.00000499999806
 30
0.0
 11
-223.0
 21
32.0
 31
0.0
  0
LINE
  5
1706
330
16B3
100
AcDbEntity
  8
0
  6
ByBlock
 62
     0
100
AcDbLine
 10
-202.0
 20
32.0
 30
0.0
 11
-202.0
 21
15.0
 31
0.0
  0
LINE
  5
1707
330
16B3
100
AcDbEntity
  8
0
  6
ByBlock
 62
     0
100
AcDbLine
 10
-207.0
 20
37.0
 30
0.0
 11
-207.0
 21
32.0
 31
0.0
  0
ARC
  5
1708
330
16B3
100
AcDbEntity
  8
0
  6
ByBlock
 62
     0
100
AcDbCircle
 10
-187.0
 20
37.0
 30
0.0
 40
20.0
100
AcDbArc
 50
90.0
 51
180.0
  0
ARC
  5
1709
330
16B3
100
AcDbEntity
  8
0
  6
ByBlock
 62
     0
100
AcDbCircle
 10
-187.0
 20
37.0
 30
0.0
 40
36.0
100
AcDbArc
 50
90.0
 51
180.0
  0
LINE
  5
170A
330
16B3
100
AcDbEntity
  8
0
  6
ByBlock
 62
     0
100
AcDbLine
 10
-187.0000020000007
 20
73.0
 30
0.0
 11
-73.00000100000033
 21
73.0
 31
0.0
  0
LINE
  5
170B
330
16B3
100
AcDbEntity
  8
0
  6
ByBlock
 62
     0
100
AcDbLine
 10
-187.0
 20
57.0
 30
0.0
 11
-73.0
 21
57.0
 31
0.0
  0
ENDBLK
  5
170C
330
16B3
100
AcDbEntity
  8
0
100
AcDbBlockEnd
  0
BLOCK
  5
170E
330
170D
100
AcDbEntity
  8
0
100
AcDbBlockBegin
  2
A$C222D2D49
 70
     0
 10
0.0
 20
0.0
 30
0.0
  3
A$C222D2D49
  1

  0
LINE
  5
170F
330
170D
100
AcDbEntity
  8
0
  6
ByBlock
 62
     0
100
AcDbLine
 10
54.67029399999592
 20
-5.0
 30
0.0
 11
57.91608300000007
 21
-5.0
 31
0.0
  0
LINE
  5
1710
330
170D
100
AcDbEntity
  8
0
  6
ByBlock
 62
     0
100
AcDbLine
 10
54.67029399999592
 20
5.0
 30
0.0
 11
57.6196400000008
 21
5.0
 31
0.0
  0
LINE
  5
1711
330
170D
100
AcDbEntity
  8
0
  6
ByBlock
 62
     0
100
AcDbLine
 10
57.67029399999955
 20
5.0
 30
0.0
 11
57.67029399999955
 21
-5.0
 31
0.0
  0
LINE
  5
1712
330
170D
100
AcDbEntity
  8
0
  6
ByBlock
 62
     0
100
AcDbLine
 10
54.67029399999592
 20
5.0
 30
0.0
 11
54.67029399999592
 21
-5.0
 31
0.0
  0
LINE
  5
1713
330
170D
100
AcDbEntity
  8
0
  6
ByBlock
 62
     0
100
AcDbLine
 10
50.57938500000091
 20
-27.5
 30
0.0
 11
54.67029399999592
 21
-5.0
 31
0.0
  0
LINE
  5
1714
330
170D
100
AcDbEntity
  8
0
  6
ByBlock
 62
     0
100
AcDbLine
 10
50.57938500000091
 20
27.5
 30
0.0
 11
54.67029399999592
 21
5.0
 31
0.0
  0
ARC
  5
1715
330
170D
100
AcDbEntity
  8
0
  6
ByBlock
 62
     0
100
AcDbCircle
 10
0.0
 20
65.0
 30
0.0
 40
8.0
100
AcDbArc
 50
0.0
 51
180.0
  0
LINE
  5
1716
330
170D
100
AcDbEntity
  8
0
  6
ByBlock
 62
     0
100
AcDbLine
 10
42.57938499998999
 20
27.5
 30
0.0
 11
42.57938499998999
 21
-27.5
 31
0.0
  0
ARC
  5
1717
330
170D
100
AcDbEntity
  8
0
  6
ByBlock
 62
     0
100
AcDbCircle
 10
0.0
 20
0.0
 30
0.0
 40
30.0
100
AcDbArc
 50
117.8181390000246
 51
334.3207110000331
  0
ARC
  5
1718
330
170D
100
AcDbEntity
  8
0
  6
ByBlock
 62
     0
100
AcDbCircle
 10
0.0
 20
0.0
 30
0.0
 40
14.0
100
AcDbArc
 50
180.0
 51
0.0
  0
LINE
  5
1719
330
170D
100
AcDbEntity
  8
0
  6
ByBlock
 62
     0
100
AcDbLine
 10
-10.0
 20
15.0
 30
0.0
 11
10.0
 21
15.0
 31
0.0
  0
LINE
  5
171A
330
170D
100
AcDbEntity
  8
0
  6
ByBlock
 62
     0
100
AcDbLine
 10
-10.0
 20
31.80816299999788
 30
0.0
 11
10.0
 21
31.80816299999788
 31
0.0
  0
LINE
  5
171B
330
170D
100
AcDbEntity
  8
0
  6
ByBlock
 62
     0
100
AcDbLine
 10
-14.0
 20
0.0
 30
0.0
 11
-12.0
 21
20.0
 31
0.0
  0
LINE
  5
171C
330
170D
100
AcDbEntity
  8
0
  6
ByBlock
 62
     0
100
AcDbLine
 10
-14.0
 20
30.0
 30
0.0
 11
-10.0
 21
30.0
 31
0.0
  0
LINE
  5
171D
330
170D
100
AcDbEntity
  8
0
  6
ByBlock
 62
     0
100
AcDbLine
 10
-14.0
 20
20.0
 30
0.0
 11
-10.0
 21
20.0
 31
0.0
  0
LINE
  5
171E
330
170D
100
AcDbEntity
  8
0
  6
ByBlock
 62
     0
100
AcDbLine
 10
-10.0
 20
31.80816299999788
 30
0.0
 11
-10.0
 21
15.0
 31
0.0
  0
LINE
  5
171F
330
170D
100
AcDbEntity
  8
0
  6
ByBlock
 62
     0
100
AcDbLine
 10
-14.0
 20
30.0
 30
0.0
 11
-14.0
 21
20.0
 31
0.0
  0
LINE
  5
1720
330
170D
100
AcDbEntity
  8
0
  6
ByBlock
 62
     0
100
AcDbLine
 10
22.57938500000091
 20
13.0
 30
0.0
 11
32.57938500000091
 21
13.0
 31
0.0
  0
LINE
  5
1721
330
170D
100
AcDbEntity
  8
0
  6
ByBlock
 62
     0
100
AcDbLine
 10
22.57938500000091
 20
-13.0
 30
0.0
 11
32.57938500000091
 21
-13.0
 31
0.0
  0
LINE
  5
1722
330
170D
100
AcDbEntity
  8
0
  6
ByBlock
 62
     0
100
AcDbLine
 10
22.57938500000091
 20
13.0
 30
0.0
 11
22.57938500000091
 21
-13.0
 31
0.0
  0
LINE
  5
1723
330
170D
100
AcDbEntity
  8
0
  6
ByBlock
 62
     0
100
AcDbLine
 10
32.57938500000091
 20
13.0
 30
0.0
 11
32.57938500000091
 21
-13.0
 31
0.0
  0
LINE
  5
1724
330
170D
100
AcDbEntity
  8
0
  6
ByBlock
 62
     0
100
AcDbLine
 10
14.0
 20
0.0
 30
0.0
 11
12.0
 21
20.0
 31
0.0
  0
LINE
  5
1725
330
170D
100
AcDbEntity
  8
0
  6
ByBlock
 62
     0
100
AcDbLine
 10
10.0
 20
30.0
 30
0.0
 11
14.0
 21
30.0
 31
0.0
  0
LINE
  5
1726
330
170D
100
AcDbEntity
  8
0
  6
ByBlock
 62
     0
100
AcDbLine
 10
10.0
 20
20.0
 30
0.0
 11
14.0
 21
20.0
 31
0.0
  0
LINE
  5
1727
330
170D
100
AcDbEntity
  8
0
  6
ByBlock
 62
     0
100
AcDbLine
 10
10.0
 20
31.80816299999788
 30
0.0
 11
10.0
 21
15.0
 31
0.0
  0
LINE
  5
1728
330
170D
100
AcDbEntity
  8
0
  6
ByBlock
 62
     0
100
AcDbLine
 10
14.0
 20
30.0
 30
0.0
 11
14.0
 21
20.0
 31
0.0
  0
ARC
  5
1729
330
170D
100
AcDbEntity
  8
0
  6
ByBlock
 62
     0
100
AcDbCircle
 10
0.0
 20
0.0
 30
0.0
 40
30.0
100
AcDbArc
 50
25.6792889999668
 51
62.18186099997538
  0
LINE
  5
172A
330
170D
100
AcDbEntity
  8
0
  6
ByBlock
 62
     0
100
AcDbLine
 10
9.797958999995898
 20
-10.0
 30
0.0
 11
22.57938500000091
 21
-10.0
 31
0.0
  0
LINE
  5
172B
330
170D
100
AcDbEntity
  8
0
  6
ByBlock
 62
     0
100
AcDbLine
 10
13.00000000000364
 20
10.0
 30
0.0
 11
22.57938500000091
 21
10.0
 31
0.0
  0
LINE
  5
172C
330
170D
100
AcDbEntity
  8
0
  6
ByBlock
 62
     0
100
AcDbLine
 10
32.57938500000091
 20
-5.0
 30
0.0
 11
42.57938499998999
 21
-5.0
 31
0.0
  0
LINE
  5
172D
330
170D
100
AcDbEntity
  8
0
  6
ByBlock
 62
     0
100
AcDbLine
 10
32.57938500000091
 20
5.0
 30
0.0
 11
42.57938499998999
 21
5.0
 31
0.0
  0
LINE
  5
172E
330
170D
100
AcDbEntity
  8
0
  6
ByBlock
 62
     0
100
AcDbLine
 10
-8.000000000003637
 20
65.50001199998951
 30
0.0
 11
-8.000000000003637
 21
31.80816299999788
 31
0.0
  0
LINE
  5
172F
330
170D
100
AcDbEntity
  8
0
  6
ByBlock
 62
     0
100
AcDbLine
 10
8.0
 20
65.50000899999577
 30
0.0
 11
8.0
 21
31.80816299999788
 31
0.0
  0
LINE
  5
1730
330
170D
100
AcDbEntity
  8
0
  6
ByBlock
 62
     0
100
AcDbLine
 10
42.57938499998999
 20
-27.5
 30
0.0
 11
50.57938500000091
 21
-27.5
 31
0.0
  0
LINE
  5
1731
330
170D
100
AcDbEntity
  8
0
  6
ByBlock
 62
     0
100
AcDbLine
 10
42.57938499998999
 20
27.5
 30
0.0
 11
50.57938500000091
 21
27.5
 31
0.0
  0
ENDBLK
  5
1732
330
170D
100
AcDbEntity
  8
0
100
AcDbBlockEnd
  0
BLOCK
  5
1734
330
1733
100
AcDbEntity
  8
0
100
AcDbBlockBegin
  2
A$C084A1F4E
 70
     0
 10
0.0
 20
0.0
 30
0.0
  3
A$C084A1F4E
  1

  0
LINE
  5
1735
330
1733
100
AcDbEntity
  8
0
  6
ByBlock
 62
     0
100
AcDbLine
 10
-30.0
 20
0.0
 30
0.0
 11
30.0
 21
0.0
 31
0.0
  0
LINE
  5
1736
330
1733
100
AcDbEntity
  8
0
  6
ByBlock
 62
     0
100
AcDbLine
 10
54.67029399999592
 20
-49.99999999998909
 30
0.0
 11
57.91608300000007
 21
-49.99999999998909
 31
0.0
  0
LINE
  5
1737
330
1733
100
AcDbEntity
  8
0
  6
ByBlock
 62
     0
100
AcDbLine
 10
54.67029399999592
 20
-39.99999999998909
 30
0.0
 11
57.6196400000008
 21
-39.99999999998909
 31
0.0
  0
LINE
  5
1738
330
1733
100
AcDbEntity
  8
0
  6
ByBlock
 62
     0
100
AcDbLine
 10
57.67029399999955
 20
-39.99999999998909
 30
0.0
 11
57.67029399999955
 21
-49.99999999998909
 31
0.0
  0
LINE
  5
1739
330
1733
100
AcDbEntity
  8
0
  6
ByBlock
 62
     0
100
AcDbLine
 10
54.67029399999592
 20
-39.99999999998909
 30
0.0
 11
54.67029399999592
 21
-49.99999999998909
 31
0.0
  0
LINE
  5
173A
330
1733
100
AcDbEntity
  8
0
  6
ByBlock
 62
     0
100
AcDbLine
 10
50.57938500000091
 20
-72.49999999998909
 30
0.0
 11
54.67029399999592
 21
-49.99999999998909
 31
0.0
  0
LINE
  5
173B
330
1733
100
AcDbEntity
  8
0
  6
ByBlock
 62
     0
100
AcDbLine
 10
50.57938500000091
 20
-17.49999999998908
 30
0.0
 11
54.67029399999592
 21
-39.99999999998909
 31
0.0
  0
LINE
  5
173C
330
1733
100
AcDbEntity
  8
0
  6
ByBlock
 62
     0
100
AcDbLine
 10
42.57938499998999
 20
-17.49999999998908
 30
0.0
 11
42.57938499998999
 21
-72.49999999998909
 31
0.0
  0
ARC
  5
173D
330
1733
100
AcDbEntity
  8
0
  6
ByBlock
 62
     0
100
AcDbCircle
 10
-27.0
 20
-0.999999999989086
 30
0.0
 40
3.0
100
AcDbArc
 50
180.0
 51
270.0
  0
ARC
  5
173E
330
1733
100
AcDbEntity
  8
0
  6
ByBlock
 62
     0
100
AcDbCircle
 10
-27.0
 20
-0.999999999989086
 30
0.0
 40
3.0
100
AcDbArc
 50
180.0
 51
270.0
  0
LINE
  5
173F
330
1733
100
AcDbEntity
  8
0
  6
ByBlock
 62
     0
100
AcDbLine
 10
-30.0
 20
0.0
 30
0.0
 11
-30.0
 21
-0.999999999989086
 31
0.0
  0
ARC
  5
1740
330
1733
100
AcDbEntity
  8
0
  6
ByBlock
 62
     0
100
AcDbCircle
 10
0.0
 20
-45.0
 30
0.0
 40
7.5
100
AcDbArc
 50
0.0
 51
180.0
  0
ARC
  5
1741
330
1733
100
AcDbEntity
  8
0
  6
ByBlock
 62
     0
100
AcDbCircle
 10
0.0
 20
-45.0
 30
0.0
 40
14.0
100
AcDbArc
 50
302.3923649999805
 51
237.6076350000195
  0
LINE
  5
1742
330
1733
100
AcDbEntity
  8
0
  6
ByBlock
 62
     0
100
AcDbLine
 10
-27.0
 20
-3.999999999989086
 30
0.0
 11
27.0
 21
-3.999999999989086
 31
0.0
  0
LINE
  5
1743
330
1733
100
AcDbEntity
  8
0
  6
ByBlock
 62
     0
100
AcDbLine
 10
-12.41727000000173
 20
-16.99999999998908
 30
0.0
 11
-12.41727000000173
 21
-12.44958399999086
 31
0.0
  0
LINE
  5
1744
330
1733
100
AcDbEntity
  8
0
  6
ByBlock
 62
     0
100
AcDbLine
 10
-12.41727000000173
 20
-38.53382599998804
 30
0.0
 11
-12.41727000000173
 21
-16.99999999998908
 31
0.0
  0
LINE
  5
1745
330
1733
100
AcDbEntity
  8
0
  6
ByBlock
 62
     0
100
AcDbLine
 10
-25.0
 20
-3.999999999989086
 30
0.0
 11
-17.27248300000065
 21
-5.635952999989967
 31
0.0
  0
ARC
  5
1746
330
1733
100
AcDbEntity
  8
0
  6
ByBlock
 62
     0
100
AcDbCircle
 10
-20.39831200000117
 20
-12.99999999998908
 30
0.0
 40
8.0
100
AcDbArc
 50
3.945185999923108
 51
67.00015599997229
  0
ARC
  5
1747
330
1733
100
AcDbEntity
  8
0
  6
ByBlock
 62
     0
100
AcDbCircle
 10
27.0
 20
-0.999999999989086
 30
0.0
 40
3.0
100
AcDbArc
 50
270.0
 51
0.0
  0
LINE
  5
1748
330
1733
100
AcDbEntity
  8
0
  6
ByBlock
 62
     0
100
AcDbLine
 10
30.0
 20
0.0
 30
0.0
 11
30.0
 21
-0.999999999989086
 31
0.0
  0
LINE
  5
1749
330
1733
100
AcDbEntity
  8
0
  6
ByBlock
 62
     0
100
AcDbLine
 10
22.57938500000091
 20
-31.99999999998909
 30
0.0
 11
32.57938500000091
 21
-31.99999999998909
 31
0.0
  0
LINE
  5
174A
330
1733
100
AcDbEntity
  8
0
  6
ByBlock
 62
     0
100
AcDbLine
 10
22.57938500000091
 20
-57.99999999998909
 30
0.0
 11
32.57938500000091
 21
-57.99999999998909
 31
0.0
  0
LINE
  5
174B
330
1733
100
AcDbEntity
  8
0
  6
ByBlock
 62
     0
100
AcDbLine
 10
22.57938500000091
 20
-31.99999999998909
 30
0.0
 11
22.57938500000091
 21
-57.99999999998909
 31
0.0
  0
LINE
  5
174C
330
1733
100
AcDbEntity
  8
0
  6
ByBlock
 62
     0
100
AcDbLine
 10
32.57938500000091
 20
-31.99999999998909
 30
0.0
 11
32.57938500000091
 21
-57.99999999998909
 31
0.0
  0
LINE
  5
174D
330
1733
100
AcDbEntity
  8
0
  6
ByBlock
 62
     0
100
AcDbLine
 10
12.41727099999843
 20
-16.99999999998908
 30
0.0
 11
12.41727099999843
 21
-12.44958399999086
 31
0.0
  0
LINE
  5
174E
330
1733
100
AcDbEntity
  8
0
  6
ByBlock
 62
     0
100
AcDbLine
 10
12.41727099999843
 20
-38.53382599998804
 30
0.0
 11
12.41727099999843
 21
-16.99999999998908
 31
0.0
  0
ARC
  5
174F
330
1733
100
AcDbEntity
  8
0
  6
ByBlock
 62
     0
100
AcDbCircle
 10
20.39831299999787
 20
-12.99999999998908
 30
0.0
 40
8.0
100
AcDbArc
 50
112.9998440000277
 51
176.0548140000769
  0
LINE
  5
1750
330
1733
100
AcDbEntity
  8
0
  6
ByBlock
 62
     0
100
AcDbLine
 10
25.0
 20
-3.999999999989086
 30
0.0
 11
17.27248400000098
 21
-5.635952999989967
 31
0.0
  0
LINE
  5
1751
330
1733
100
AcDbEntity
  8
0
  6
ByBlock
 62
     0
100
AcDbLine
 10
9.797958999995898
 20
-54.99999999998909
 30
0.0
 11
22.57938500000091
 21
-54.99999999998909
 31
0.0
  0
LINE
  5
1752
330
1733
100
AcDbEntity
  8
0
  6
ByBlock
 62
     0
100
AcDbLine
 10
14.0
 20
-34.99999999998909
 30
0.0
 11
22.57938500000091
 21
-34.99999999998909
 31
0.0
  0
LINE
  5
1753
330
1733
100
AcDbEntity
  8
0
  6
ByBlock
 62
     0
100
AcDbLine
 10
32.57938500000091
 20
-39.99999999998909
 30
0.0
 11
42.57938499998999
 21
-39.99999999998909
 31
0.0
  0
LINE
  5
1754
330
1733
100
AcDbEntity
  8
0
  6
ByBlock
 62
     0
100
AcDbLine
 10
32.57938500000091
 20
-49.99999999998909
 30
0.0
 11
42.57938499998999
 21
-49.99999999998909
 31
0.0
  0
LINE
  5
1755
330
1733
100
AcDbEntity
  8
0
  6
ByBlock
 62
     0
100
AcDbLine
 10
32.57938500000091
 20
-39.99999999998909
 30
0.0
 11
42.57938499998999
 21
-39.99999999998909
 31
0.0
  0
ARC
  5
1756
330
1733
100
AcDbEntity
  8
0
  6
ByBlock
 62
     0
100
AcDbCircle
 10
0.0
 20
-214.9999999999891
 30
0.0
 40
12.5
100
AcDbArc
 50
126.8698980000267
 51
53.13010199997332
  0
ARC
  5
1757
330
1733
100
AcDbEntity
  8
0
  6
ByBlock
 62
     0
100
AcDbCircle
 10
0.0
 20
-214.9999999999891
 30
0.0
 40
7.5
100
AcDbArc
 50
180.0
 51
270.0
  0
ARC
  5
1758
330
1733
100
AcDbEntity
  8
0
  6
ByBlock
 62
     0
100
AcDbCircle
 10
0.0
 20
-214.9999999999891
 30
0.0
 40
7.5
100
AcDbArc
 50
270.0
 51
0.0
  0
LINE
  5
1759
330
1733
100
AcDbEntity
  8
0
  6
ByBlock
 62
     0
100
AcDbLine
 10
7.5
 20
-214.9999999999891
 30
0.0
 11
7.5
 21
-45.00001299998984
 31
0.0
  0
LINE
  5
175A
330
1733
100
AcDbEntity
  8
0
  6
ByBlock
 62
     0
100
AcDbLine
 10
-7.5
 20
-214.9999999999891
 30
0.0
 11
-7.5
 21
-45.00001299998984
 31
0.0
  0
LINE
  5
175B
330
1733
100
AcDbEntity
  8
0
  6
ByBlock
 62
     0
100
AcDbLine
 10
42.57938499998999
 20
-72.49999999998909
 30
0.0
 11
50.57938500000091
 21
-72.49999999998909
 31
0.0
  0
LINE
  5
175C
330
1733
100
AcDbEntity
  8
0
  6
ByBlock
 62
     0
100
AcDbLine
 10
42.57938499998999
 20
-17.49999999998908
 30
0.0
 11
50.57938500000091
 21
-17.49999999998908
 31
0.0
  0
ENDBLK
  5
175D
330
1733
100
AcDbEntity
  8
0
100
AcDbBlockEnd
  0
BLOCK
  5
18CF
330
18CE
100
AcDbEntity
  8
0
100
AcDbBlockBegin
  2
KKﾖｺ-1
 70
     0
 10
0.0
 20
0.0
 30
0.0
  3
KKﾖｺ-1
  1

  0
LINE
  5
18D0
330
18CE
100
AcDbEntity
  8
0
  6
ByBlock
 62
     0
370
    -2
100
AcDbLine
 10
65.00000143051147
 20
-66.49999237060547
 30
0.0
 11
67.42515325546264
 21
-32.66912841796875
 31
0.0
  0
LINE
  5
18D1
330
18CE
100
AcDbEntity
  8
0
  6
ByBlock
 62
     0
370
    -2
100
AcDbLine
 10
-65.00000143051147
 20
-66.49999237060547
 30
0.0
 11
-67.42515325546264
 21
-32.66912841796875
 31
0.0
  0
LINE
  5
18D2
330
18CE
100
AcDbEntity
  8
0
  6
ByBlock
 62
     0
370
    -2
100
AcDbLine
 10
-50.90035009384155
 20
-237.6999931335449
 30
0.0
 11
50.90035009384155
 21
-237.6999931335449
 31
0.0
  0
LINE
  5
18D3
330
18CE
100
AcDbEntity
  8
0
  6
ByBlock
 62
     0
370
    -2
100
AcDbLine
 10
62.38139486312866
 20
-172.4999923706054
 30
0.0
 11
-62.38139486312866
 21
-172.4999923706054
 31
0.0
  0
ARC
  5
18D4
330
18CE
100
AcDbEntity
  8
0
  6
ByBlock
 62
     0
370
    -2
100
AcDbCircle
 10
16.8244786564619
 20
-270.1876119360131
 30
0.0
 40
4.812441589241079
100
AcDbArc
 50
189.71855552904
 51
269.7110772980496
  0
ARC
  5
18D5
330
18CE
100
AcDbEntity
  8
0
  6
ByBlock
 62
     0
370
    -2
100
AcDbCircle
 10
2.000556149520889
 20
-266.0531682885539
 30
0.0
 40
8.960754003296118
100
AcDbArc
 50
273.1951456869765
 51
326.4919218808119
  0
LINE
  5
18D6
330
18CE
100
AcDbEntity
  8
0
  6
ByBlock
 62
     0
370
    -2
100
AcDbLine
 10
27.69999923706019
 20
-274.5721069335937
 30
0.0
 11
27.69999923706019
 21
-246.6999946594238
 31
0.0
  0
ARC
  5
18D7
330
18CE
100
AcDbEntity
  8
0
  6
ByBlock
 62
     0
370
    -2
100
AcDbCircle
 10
20.33609237670862
 20
-268.0920463562006
 30
0.0
 40
6.923518180847167
100
AcDbArc
 50
273.843713035154
 51
335.1648125560959
  0
ARC
  5
18D8
330
18CE
100
AcDbEntity
  8
0
  6
ByBlock
 62
     0
370
    -2
100
AcDbCircle
 10
-16.82447961013895
 20
-270.1876119360086
 30
0.0
 40
4.81244158924543
100
AcDbArc
 50
270.288922701794
 51
350.2814444709086
  0
ARC
  5
18D9
330
18CE
100
AcDbEntity
  8
0
  6
ByBlock
 62
     0
370
    -2
100
AcDbCircle
 10
-20.33609333038294
 20
-268.0920463562006
 30
0.0
 40
6.923518180847167
100
AcDbArc
 50
204.8351874439041
 51
266.1562869649517
  0
LINE
  5
18DA
330
18CE
100
AcDbEntity
  8
0
  6
ByBlock
 62
     0
370
    -2
100
AcDbLine
 10
-27.7000001907345
 20
-274.5721069335937
 30
0.0
 11
-27.7000001907345
 21
-246.6999946594238
 31
0.0
  0
ARC
  5
18DB
330
18CE
100
AcDbEntity
  8
0
  6
ByBlock
 62
     0
370
    -2
100
AcDbCircle
 10
-2.000557103195205
 20
-266.0531682885539
 30
0.0
 40
8.960754003296106
100
AcDbArc
 50
213.5080781191881
 51
266.8048543130236
  0
LINE
  5
18DC
330
18CE
100
AcDbEntity
  8
0
  6
ByBlock
 62
     0
370
    -2
100
AcDbLine
 10
-24.89999999999964
 20
-275.999990081787
 30
0.0
 11
24.89999999999964
 21
-275.999990081787
 31
0.0
  0
ARC
  5
18DD
330
18CE
100
AcDbEntity
  8
0
  6
ByBlock
 62
     0
370
    -2
100
AcDbCircle
 10
-26.7000001907345
 20
-274.5721069335932
 30
0.0
 40
1.0
100
AcDbArc
 50
180.0
 51
243.2562693884127
  0
ARC
  5
18DE
330
18CE
100
AcDbEntity
  8
0
  6
ByBlock
 62
     0
370
    -2
100
AcDbCircle
 10
-24.90000095367395
 20
-270.9999900817866
 30
0.0
 40
5.0
100
AcDbArc
 50
243.2563084255938
 51
270.0
  0
LINE
  5
18DF
330
18CE
100
AcDbEntity
  8
0
  6
ByBlock
 62
     0
370
    -2
100
AcDbLine
 10
-16.27057590484582
 20
-274.999990081787
 30
0.0
 11
-20.80021228790247
 21
-274.999990081787
 31
0.0
  0
LINE
  5
18E0
330
18CE
100
AcDbEntity
  8
0
  6
ByBlock
 62
     0
370
    -2
100
AcDbLine
 10
-2.500087311738752
 20
-274.9999900817865
 30
0.0
 11
2.5
 21
-274.999990081787
 31
0.0
  0
LINE
  5
18E1
330
18CE
100
AcDbEntity
  8
0
  6
ByBlock
 62
     0
370
    -2
100
AcDbLine
 10
16.27057495117151
 20
-274.999990081787
 30
0.0
 11
20.80021133422815
 21
-274.999990081787
 31
0.0
  0
ARC
  5
18E2
330
18CE
100
AcDbEntity
  8
0
  6
ByBlock
 62
     0
370
    -2
100
AcDbCircle
 10
24.89999999999964
 20
-270.9999900817866
 30
0.0
 40
5.0
100
AcDbArc
 50
270.0
 51
296.7436915744062
  0
ARC
  5
18E3
330
18CE
100
AcDbEntity
  8
0
  6
ByBlock
 62
     0
370
    -2
100
AcDbCircle
 10
26.69999923706019
 20
-274.5721069335932
 30
0.0
 40
1.0
100
AcDbArc
 50
296.7437306115873
 51
0.0
  0
LINE
  5
18E4
330
18CE
100
AcDbEntity
  8
0
  6
ByBlock
 62
     0
370
    -2
100
AcDbLine
 10
-59.87427282333374
 20
-173.9738159179687
 30
0.0
 11
-58.89913320541381
 21
-229.8396129608154
 31
0.0
  0
LINE
  5
18E5
330
18CE
100
AcDbEntity
  8
0
  6
ByBlock
 62
     0
370
    -2
100
AcDbLine
 10
-23.70000066757166
 20
-244.5999927520752
 30
0.0
 11
23.70000066757166
 21
-244.5999927520752
 31
0.0
  0
LINE
  5
18E6
330
18CE
100
AcDbEntity
  8
0
  6
ByBlock
 62
     0
370
    -2
100
AcDbLine
 10
21.70000066757166
 20
-242.5999927520752
 30
0.0
 11
-21.70000066757166
 21
-242.5999927520752
 31
0.0
  0
LINE
  5
18E7
330
18CE
100
AcDbEntity
  8
0
  6
ByBlock
 62
     0
370
    -2
100
AcDbLine
 10
-27.69999923706019
 20
-246.6999946594238
 30
0.0
 11
27.69999923706019
 21
-246.6999946594238
 31
0.0
  0
ARC
  5
18E8
330
18CE
100
AcDbEntity
  8
0
  6
ByBlock
 62
     0
370
    -2
100
AcDbCircle
 10
-25.20000066757166
 20
-240.6999931335449
 30
0.0
 40
3.0
100
AcDbArc
 50
0.0
 51
90.0
  0
LINE
  5
18E9
330
18CE
100
AcDbEntity
  8
0
  6
ByBlock
 62
     0
370
    -2
100
AcDbLine
 10
-21.70000066757166
 20
-242.5999927520752
 30
0.0
 11
-23.70000066757166
 21
-244.5999927520752
 31
0.0
  0
LINE
  5
18EA
330
18CE
100
AcDbEntity
  8
0
  6
ByBlock
 62
     0
370
    -2
100
AcDbLine
 10
-26.6193231582638
 20
-270.999990081787
 30
0.0
 11
-26.6193231582638
 21
-246.6999946594238
 31
0.0
  0
LINE
  5
18EB
330
18CE
100
AcDbEntity
  8
0
  6
ByBlock
 62
     0
370
    -2
100
AcDbLine
 10
-23.70000066757166
 20
-244.5999927520752
 30
0.0
 11
-23.70000066757166
 21
-246.6999946594238
 31
0.0
  0
LINE
  5
18EC
330
18CE
100
AcDbEntity
  8
0
  6
ByBlock
 62
     0
370
    -2
100
AcDbLine
 10
-22.20000066757166
 20
-240.6999931335449
 30
0.0
 11
-22.20000066757166
 21
-246.6999946594238
 31
0.0
  0
ARC
  5
18ED
330
18CE
100
AcDbEntity
  8
0
  6
ByBlock
 62
     0
370
    -2
100
AcDbCircle
 10
-50.90035009384155
 20
-229.6999931335449
 30
0.0
 40
8.0
100
AcDbArc
 50
181.0000039292404
 51
270.0
  0
ARC
  5
18EE
330
18CE
100
AcDbEntity
  8
0
  6
ByBlock
 62
     0
370
    -2
100
AcDbCircle
 10
25.20000066757166
 20
-240.6999931335449
 30
0.0
 40
3.0
100
AcDbArc
 50
90.0
 51
180.0
  0
LINE
  5
18EF
330
18CE
100
AcDbEntity
  8
0
  6
ByBlock
 62
     0
370
    -2
100
AcDbLine
 10
21.70000066757166
 20
-242.5999927520752
 30
0.0
 11
23.70000066757166
 21
-244.5999927520752
 31
0.0
  0
LINE
  5
18F0
330
18CE
100
AcDbEntity
  8
0
  6
ByBlock
 62
     0
370
    -2
100
AcDbLine
 10
9.472105026245117
 20
-270.999990081787
 30
0.0
 11
9.472105026245117
 21
-246.6999946594238
 31
0.0
  0
LINE
  5
18F1
330
18CE
100
AcDbEntity
  8
0
  6
ByBlock
 62
     0
370
    -2
100
AcDbLine
 10
26.61932220458948
 20
-270.999990081787
 30
0.0
 11
26.61932220458948
 21
-246.6999946594238
 31
0.0
  0
LINE
  5
18F2
330
18CE
100
AcDbEntity
  8
0
  6
ByBlock
 62
     0
370
    -2
100
AcDbLine
 10
12.08110046386719
 20
-270.999990081787
 30
0.0
 11
12.08110046386719
 21
-246.6999946594238
 31
0.0
  0
LINE
  5
18F3
330
18CE
100
AcDbEntity
  8
0
  6
ByBlock
 62
     0
370
    -2
100
AcDbLine
 10
-12.0811014175415
 20
-270.999990081787
 30
0.0
 11
-12.0811014175415
 21
-246.6999946594238
 31
0.0
  0
LINE
  5
18F4
330
18CE
100
AcDbEntity
  8
0
  6
ByBlock
 62
     0
370
    -2
100
AcDbLine
 10
-9.472105979919433
 20
-270.999990081787
 30
0.0
 11
-9.472105979919433
 21
-246.6999946594238
 31
0.0
  0
LINE
  5
18F5
330
18CE
100
AcDbEntity
  8
0
  6
ByBlock
 62
     0
370
    -2
100
AcDbLine
 10
23.70000066757166
 20
-244.5999927520752
 30
0.0
 11
23.70000066757166
 21
-246.6999946594238
 31
0.0
  0
LINE
  5
18F6
330
18CE
100
AcDbEntity
  8
0
  6
ByBlock
 62
     0
370
    -2
100
AcDbLine
 10
22.20000066757166
 20
-240.6999931335449
 30
0.0
 11
22.20000066757166
 21
-246.6999946594238
 31
0.0
  0
ARC
  5
18F7
330
18CE
100
AcDbEntity
  8
0
  6
ByBlock
 62
     0
370
    -2
100
AcDbCircle
 10
-62.38139486312866
 20
-171.4999923706054
 30
0.0
 40
1.0
100
AcDbArc
 50
184.8584258962909
 51
270.0
  0
ARC
  5
18F8
330
18CE
100
AcDbEntity
  8
0
  6
ByBlock
 62
     0
370
    -2
100
AcDbCircle
 10
-61.37404775619507
 20
-173.9999923706055
 30
0.0
 40
1.5
100
AcDbArc
 50
0.9999153607075808
 51
90.0
  0
LINE
  5
18F9
330
18CE
100
AcDbEntity
  8
0
  6
ByBlock
 62
     0
370
    -2
100
AcDbLine
 10
-63.37780141830444
 20
-171.5846862792969
 30
0.0
 11
-65.00000143051147
 21
-66.49999237060547
 31
0.0
  0
LINE
  5
18FA
330
18CE
100
AcDbEntity
  8
0
  6
ByBlock
 62
     0
370
    -2
100
AcDbLine
 10
59.87427282333374
 20
-173.9738159179687
 30
0.0
 11
58.89913320541381
 21
-229.8396129608154
 31
0.0
  0
ARC
  5
18FB
330
18CE
100
AcDbEntity
  8
0
  6
ByBlock
 62
     0
370
    -2
100
AcDbCircle
 10
50.90035009384155
 20
-229.6999931335449
 30
0.0
 40
8.0
100
AcDbArc
 50
270.0
 51
358.9999960707595
  0
ARC
  5
18FC
330
18CE
100
AcDbEntity
  8
0
  6
ByBlock
 62
     0
370
    -2
100
AcDbCircle
 10
62.38139486312866
 20
-171.4999923706054
 30
0.0
 40
1.0
100
AcDbArc
 50
270.0
 51
355.1415741037091
  0
ARC
  5
18FD
330
18CE
100
AcDbEntity
  8
0
  6
ByBlock
 62
     0
370
    -2
100
AcDbCircle
 10
61.37404775619507
 20
-173.9999923706055
 30
0.0
 40
1.5
100
AcDbArc
 50
90.0
 51
179.0000846392924
  0
LINE
  5
18FE
330
18CE
100
AcDbEntity
  8
0
  6
ByBlock
 62
     0
370
    -2
100
AcDbLine
 10
63.37780141830444
 20
-171.5846862792969
 30
0.0
 11
65.00000143051147
 21
-66.49999237060547
 31
0.0
  0
LINE
  5
18FF
330
18CE
100
AcDbEntity
  8
0
  6
ByBlock
 62
     0
370
    -2
100
AcDbLine
 10
93.00000143051148
 20
0.0
 30
0.0
 11
-93.00000143051148
 21
0.0
 31
0.0
  0
LINE
  5
1900
330
18CE
100
AcDbEntity
  8
0
  6
ByBlock
 62
     0
370
    -2
100
AcDbLine
 10
3.400000095367431
 20
-5.138107299804687
 30
0.0
 11
84.75000143051147
 21
-5.138107299804687
 31
0.0
  0
LINE
  5
1901
330
18CE
100
AcDbEntity
  8
0
  6
ByBlock
 62
     0
370
    -2
100
AcDbLine
 10
-81.50000143051148
 20
-21.34999084472656
 30
0.0
 11
81.50000143051148
 21
-21.34999084472656
 31
0.0
  0
LINE
  5
1902
330
18CE
100
AcDbEntity
  8
0
  6
ByBlock
 62
     0
370
    -2
100
AcDbLine
 10
92.00000143051147
 20
-4.499992370605468
 30
0.0
 11
-92.04366445541381
 21
-4.499992370605468
 31
0.0
  0
LINE
  5
1903
330
18CE
100
AcDbEntity
  8
0
  6
ByBlock
 62
     0
370
    -2
100
AcDbLine
 10
83.00000022297718
 20
-18.99999237060547
 30
0.0
 11
-83.00000143051148
 21
-18.99999237060547
 31
0.0
  0
LINE
  5
1904
330
18CE
100
AcDbEntity
  8
0
  6
ByBlock
 62
     0
370
    -2
100
AcDbLine
 10
79.19999837875366
 20
-23.64999389648438
 30
0.0
 11
-79.19999837875366
 21
-23.64999389648438
 31
0.0
  0
LINE
  5
1905
330
18CE
100
AcDbEntity
  8
0
  6
ByBlock
 62
     0
370
    -2
100
AcDbLine
 10
79.19999837875366
 20
-24.64999389648438
 30
0.0
 11
-79.19999837875366
 21
-24.64999389648438
 31
0.0
  0
ARC
  5
1906
330
18CE
100
AcDbEntity
  8
0
  6
ByBlock
 62
     0
370
    -2
100
AcDbCircle
 10
-75.42512655258178
 20
-32.64844512939453
 30
0.0
 40
8.0
100
AcDbArc
 50
359.8518666929026
 51
91.96901175356792
  0
LINE
  5
1907
330
18CE
100
AcDbEntity
  8
0
  6
ByBlock
 62
     0
370
    -2
100
AcDbLine
 10
-3.400000095367431
 20
-5.138107299804687
 30
0.0
 11
-84.75000143051147
 21
-5.138107299804687
 31
0.0
  0
LINE
  5
1908
330
18CE
100
AcDbEntity
  8
0
  6
ByBlock
 62
     0
370
    -2
100
AcDbLine
 10
-84.75000143051147
 20
-5.138107299804687
 30
0.0
 11
-92.04365682601929
 21
-4.499992370605468
 31
0.0
  0
LINE
  5
1909
330
18CE
100
AcDbEntity
  8
0
  6
ByBlock
 62
     0
370
    -2
100
AcDbLine
 10
-93.00000143051148
 20
-3.499992370605468
 30
0.0
 11
-93.00000143051148
 21
0.0
 31
0.0
  0
ARC
  5
190A
330
18CE
100
AcDbEntity
  8
0
  6
ByBlock
 62
     0
370
    -2
100
AcDbCircle
 10
-92.00000143051147
 20
-3.499992370605468
 30
0.0
 40
1.0
100
AcDbArc
 50
180.0
 51
270.0
  0
LINE
  5
190B
330
18CE
100
AcDbEntity
  8
0
  6
ByBlock
 62
     0
370
    -2
100
AcDbLine
 10
-79.19999837875366
 20
-24.64999389648438
 30
0.0
 11
-78.76767873764038
 21
-24.64999389648438
 31
0.0
  0
LINE
  5
190C
330
18CE
100
AcDbEntity
  8
0
  6
ByBlock
 62
     0
370
    -2
100
AcDbLine
 10
-81.50000143051148
 20
-21.34999084472656
 30
0.0
 11
-79.19999837875366
 21
-23.64999389648438
 31
0.0
  0
LINE
  5
190D
330
18CE
100
AcDbEntity
  8
0
  6
ByBlock
 62
     0
370
    -2
100
AcDbLine
 10
-81.50000143051148
 20
-18.99999237060547
 30
0.0
 11
-81.50000143051148
 21
-21.34999084472656
 31
0.0
  0
LINE
  5
190E
330
18CE
100
AcDbEntity
  8
0
  6
ByBlock
 62
     0
370
    -2
100
AcDbLine
 10
-79.19999837875366
 20
-18.99999237060547
 30
0.0
 11
-79.19999837875366
 21
-24.64999389648438
 31
0.0
  0
ARC
  5
190F
330
18CE
100
AcDbEntity
  8
0
  6
ByBlock
 62
     0
370
    -2
100
AcDbCircle
 10
-90.25000143051148
 20
-14.49999237060547
 30
0.0
 40
2.0
100
AcDbArc
 50
180.0
 51
270.0
  0
LINE
  5
1910
330
18CE
100
AcDbEntity
  8
0
  6
ByBlock
 62
     0
370
    -2
100
AcDbLine
 10
-84.24047994613648
 20
-16.49999237060547
 30
0.0
 11
-90.25000143051148
 21
-16.49999237060547
 31
0.0
  0
ARC
  5
1911
330
18CE
100
AcDbEntity
  8
0
  6
ByBlock
 62
     0
370
    -2
100
AcDbCircle
 10
-74.75000143051147
 20
-13.34866333007812
 30
0.0
 40
10.0
100
AcDbArc
 50
180.0
 51
214.4115170023412
  0
LINE
  5
1912
330
18CE
100
AcDbEntity
  8
0
  6
ByBlock
 62
     0
370
    -2
100
AcDbLine
 10
-92.25000143051147
 20
-14.49999237060547
 30
0.0
 11
-92.25000143051147
 21
-4.499992370605468
 31
0.0
  0
LINE
  5
1913
330
18CE
100
AcDbEntity
  8
0
  6
ByBlock
 62
     0
370
    -2
100
AcDbLine
 10
-84.75000143051147
 20
-13.34866333007812
 30
0.0
 11
-84.75000143051147
 21
-5.138107299804687
 31
0.0
  0
ARC
  5
1914
330
18CE
100
AcDbEntity
  8
0
  6
ByBlock
 62
     0
370
    -2
100
AcDbCircle
 10
-59.49794149398804
 20
-15.49999237060547
 30
0.0
 40
1.0
100
AcDbArc
 50
270.0
 51
0.0
  0
LINE
  5
1915
330
18CE
100
AcDbEntity
  8
0
  6
ByBlock
 62
     0
370
    -2
100
AcDbLine
 10
-58.49794149398803
 20
-15.49999237060547
 30
0.0
 11
-58.49794149398803
 21
-5.138107299804687
 31
0.0
  0
ARC
  5
1916
330
18CE
100
AcDbEntity
  8
0
  6
ByBlock
 62
     0
370
    -2
100
AcDbCircle
 10
-65.25156545639038
 20
-14.49999237060547
 30
0.0
 40
2.0
100
AcDbArc
 50
180.0
 51
270.0
  0
LINE
  5
1917
330
18CE
100
AcDbEntity
  8
0
  6
ByBlock
 62
     0
370
    -2
100
AcDbLine
 10
-67.25156545639038
 20
-14.49999237060547
 30
0.0
 11
-67.25156545639038
 21
-5.138107299804687
 31
0.0
  0
LINE
  5
1918
330
18CE
100
AcDbEntity
  8
0
  6
ByBlock
 62
     0
370
    -2
100
AcDbLine
 10
-59.49794149398804
 20
-16.49999237060547
 30
0.0
 11
-65.25156545639038
 21
-16.49999237060547
 31
0.0
  0
LINE
  5
1919
330
18CE
100
AcDbEntity
  8
0
  6
ByBlock
 62
     0
370
    -2
100
AcDbLine
 10
3.400000095367431
 20
-5.138107299804687
 30
0.0
 11
-0.0000004768371582
 21
-4.499992370605468
 31
0.0
  0
LINE
  5
191A
330
18CE
100
AcDbEntity
  8
0
  6
ByBlock
 62
     0
370
    -2
100
AcDbLine
 10
-3.400000095367431
 20
-5.138107299804687
 30
0.0
 11
0.0000004768371582
 21
-4.499992370605468
 31
0.0
  0
ARC
  5
191B
330
18CE
100
AcDbEntity
  8
0
  6
ByBlock
 62
     0
370
    -2
100
AcDbCircle
 10
1.399999618530273
 20
-14.49999237060547
 30
0.0
 40
2.0
100
AcDbArc
 50
269.9999863396217
 51
0.0
  0
LINE
  5
191C
330
18CE
100
AcDbEntity
  8
0
  6
ByBlock
 62
     0
370
    -2
100
AcDbLine
 10
0.0
 20
-16.49999237060547
 30
0.0
 11
-1.399999618530273
 21
-16.49999237060547
 31
0.0
  0
ARC
  5
191D
330
18CE
100
AcDbEntity
  8
0
  6
ByBlock
 62
     0
370
    -2
100
AcDbCircle
 10
-1.399999618530273
 20
-14.49999237060547
 30
0.0
 40
2.0
100
AcDbArc
 50
180.0
 51
270.0000136603783
  0
LINE
  5
191E
330
18CE
100
AcDbEntity
  8
0
  6
ByBlock
 62
     0
370
    -2
100
AcDbLine
 10
3.400000095367431
 20
-14.49999237060547
 30
0.0
 11
3.400000095367431
 21
-5.138107299804687
 31
0.0
  0
LINE
  5
191F
330
18CE
100
AcDbEntity
  8
0
  6
ByBlock
 62
     0
370
    -2
100
AcDbLine
 10
-3.400000095367431
 20
-14.49999237060547
 30
0.0
 11
-3.400000095367431
 21
-5.138107299804687
 31
0.0
  0
LINE
  5
1920
330
18CE
100
AcDbEntity
  8
0
  6
ByBlock
 62
     0
370
    -2
100
AcDbLine
 10
84.75000143051147
 20
-5.138107299804687
 30
0.0
 11
92.04365682601929
 21
-4.499992370605468
 31
0.0
  0
LINE
  5
1921
330
18CE
100
AcDbEntity
  8
0
  6
ByBlock
 62
     0
370
    -2
100
AcDbLine
 10
93.00000143051148
 20
-3.499992370605468
 30
0.0
 11
93.00000143051148
 21
0.0
 31
0.0
  0
ARC
  5
1922
330
18CE
100
AcDbEntity
  8
0
  6
ByBlock
 62
     0
370
    -2
100
AcDbCircle
 10
92.00000143051147
 20
-3.499992370605468
 30
0.0
 40
1.0
100
AcDbArc
 50
270.0
 51
0.0
  0
ARC
  5
1923
330
18CE
100
AcDbEntity
  8
0
  6
ByBlock
 62
     0
370
    -2
100
AcDbCircle
 10
75.42512655258178
 20
-32.64844512939453
 30
0.0
 40
8.0
100
AcDbArc
 50
88.03098824643207
 51
180.1481333070974
  0
ARC
  5
1924
330
18CE
100
AcDbEntity
  8
0
  6
ByBlock
 62
     0
370
    -2
100
AcDbCircle
 10
59.49794149398804
 20
-15.49999237060547
 30
0.0
 40
1.0
100
AcDbArc
 50
180.0
 51
270.0
  0
ARC
  5
1925
330
18CE
100
AcDbEntity
  8
0
  6
ByBlock
 62
     0
370
    -2
100
AcDbCircle
 10
65.25156545639038
 20
-14.49999237060547
 30
0.0
 40
2.0
100
AcDbArc
 50
270.0
 51
0.0
  0
LINE
  5
1926
330
18CE
100
AcDbEntity
  8
0
  6
ByBlock
 62
     0
370
    -2
100
AcDbLine
 10
59.49794149398804
 20
-16.49999237060547
 30
0.0
 11
65.25156545639038
 21
-16.49999237060547
 31
0.0
  0
LINE
  5
1927
330
18CE
100
AcDbEntity
  8
0
  6
ByBlock
 62
     0
370
    -2
100
AcDbLine
 10
79.19999837875366
 20
-24.64999389648438
 30
0.0
 11
78.76767873764038
 21
-24.64999389648438
 31
0.0
  0
LINE
  5
1928
330
18CE
100
AcDbEntity
  8
0
  6
ByBlock
 62
     0
370
    -2
100
AcDbLine
 10
81.50000143051148
 20
-21.34999084472656
 30
0.0
 11
79.19999837875366
 21
-23.64999389648438
 31
0.0
  0
LINE
  5
1929
330
18CE
100
AcDbEntity
  8
0
  6
ByBlock
 62
     0
370
    -2
100
AcDbLine
 10
81.50000143051148
 20
-18.99999237060547
 30
0.0
 11
81.50000143051148
 21
-21.34999084472656
 31
0.0
  0
LINE
  5
192A
330
18CE
100
AcDbEntity
  8
0
  6
ByBlock
 62
     0
370
    -2
100
AcDbLine
 10
79.19999837875366
 20
-18.99999237060547
 30
0.0
 11
79.19999837875366
 21
-24.64999389648438
 31
0.0
  0
ARC
  5
192B
330
18CE
100
AcDbEntity
  8
0
  6
ByBlock
 62
     0
370
    -2
100
AcDbCircle
 10
90.25000143051148
 20
-14.49999237060547
 30
0.0
 40
2.0
100
AcDbArc
 50
270.0
 51
0.0
  0
LINE
  5
192C
330
18CE
100
AcDbEntity
  8
0
  6
ByBlock
 62
     0
370
    -2
100
AcDbLine
 10
84.24047994613648
 20
-16.49999237060547
 30
0.0
 11
90.25000143051148
 21
-16.49999237060547
 31
0.0
  0
ARC
  5
192D
330
18CE
100
AcDbEntity
  8
0
  6
ByBlock
 62
     0
370
    -2
100
AcDbCircle
 10
74.75000143051147
 20
-13.34866333007812
 30
0.0
 40
10.0
100
AcDbArc
 50
325.5884829976588
 51
0.0
  0
LINE
  5
192E
330
18CE
100
AcDbEntity
  8
0
  6
ByBlock
 62
     0
370
    -2
100
AcDbLine
 10
67.25156545639038
 20
-14.49999237060547
 30
0.0
 11
67.25156545639038
 21
-5.138107299804687
 31
0.0
  0
LINE
  5
192F
330
18CE
100
AcDbEntity
  8
0
  6
ByBlock
 62
     0
370
    -2
100
AcDbLine
 10
58.49794149398803
 20
-15.49999237060547
 30
0.0
 11
58.49794149398803
 21
-5.138107299804687
 31
0.0
  0
LINE
  5
1930
330
18CE
100
AcDbEntity
  8
0
  6
ByBlock
 62
     0
370
    -2
100
AcDbLine
 10
92.25000143051147
 20
-14.49999237060547
 30
0.0
 11
92.25000143051147
 21
-4.499992370605468
 31
0.0
  0
LINE
  5
1931
330
18CE
100
AcDbEntity
  8
0
  6
ByBlock
 62
     0
370
    -2
100
AcDbLine
 10
84.75000143051147
 20
-13.34866333007812
 30
0.0
 11
84.75000143051147
 21
-5.138107299804687
 31
0.0
  0
ENDBLK
  5
1932
330
18CE
100
AcDbEntity
  8
0
100
AcDbBlockEnd
  0
BLOCK
  5
1936
330
1933
100
AcDbEntity
  8
0
100
AcDbBlockBegin
  2
A$C28C52140
 70
     0
 10
0.0
 20
0.0
 30
0.0
  3
A$C28C52140
  1

  0
LINE
  5
1937
330
1933
100
AcDbEntity
  8
0
  6
ByBlock
 62
     0
370
    -2
100
AcDbLine
 10
3.000000000100044
 20
-13.29999999999972
 30
0.0
 11
3.000000000100044
 21
-27.29999999999973
 31
0.0
  0
LINE
  5
1938
330
1933
100
AcDbEntity
  8
0
  6
ByBlock
 62
     0
370
    -2
100
AcDbLine
 10
0.0000000000991349
 20
-13.30000000000018
 30
0.0
 11
3.000000000098225
 21
-13.30000000000018
 31
0.0
  0
LINE
  5
1939
330
1933
100
AcDbEntity
  8
0
  6
ByBlock
 62
     0
370
    -2
100
AcDbLine
 10
0.0000000001000444
 20
-27.29999999999928
 30
0.0
 11
25.00000000009823
 21
-27.29999999999973
 31
0.0
  0
ARC
  5
193A
330
1933
100
AcDbEntity
  8
0
  6
ByBlock
 62
     0
370
    -2
100
AcDbCircle
 10
25.00000000009823
 20
-25.80000000000018
 30
0.0
 40
1.5
100
AcDbArc
 50
270.0
 51
63.79410029201874
  0
LINE
  5
193B
330
1933
100
AcDbEntity
  8
0
  6
ByBlock
 62
     0
370
    -2
100
AcDbLine
 10
3.000000000099134
 20
-13.30000000000018
 30
0.0
 11
25.66239736091393
 21
-24.45418064496562
 31
0.0
  0
LINE
  5
193C
330
1933
100
AcDbEntity
  8
0
  6
ByBlock
 62
     0
370
    -2
100
AcDbLine
 10
0.0
 20
-13.29999999999927
 30
0.0
 11
0.0
 21
-27.29999999999928
 31
0.0
  0
ENDBLK
  5
193D
330
1933
100
AcDbEntity
  8
0
100
AcDbBlockEnd
  0
BLOCK
  5
1941
330
193E
100
AcDbEntity
  8
0
100
AcDbBlockBegin
  2
A$C327F515F
 70
     0
 10
0.0
 20
0.0
 30
0.0
  3
A$C327F515F
  1

  0
LINE
  5
1942
330
193E
100
AcDbEntity
  8
0
  6
ByBlock
 62
     0
370
    -2
100
AcDbLine
 10
11.20000000009986
 20
0.0000000000004547
 30
0.0
 11
11.20000000009986
 21
-14.99999999999909
 31
0.0
  0
LINE
  5
1943
330
193E
100
AcDbEntity
  8
0
  6
ByBlock
 62
     0
370
    -2
100
AcDbLine
 10
14.20000000009895
 20
-16.54545454545268
 30
0.0
 11
14.20000000009895
 21
-20.99999999999909
 31
0.0
  0
LINE
  5
1944
330
193E
100
AcDbEntity
  8
0
  6
ByBlock
 62
     0
370
    -2
100
AcDbLine
 10
12.70000000009895
 20
-29.49999999999909
 30
0.0
 11
10.50000000010004
 21
-25.49999999999909
 31
0.0
  0
LINE
  5
1945
330
193E
100
AcDbEntity
  8
0
  6
ByBlock
 62
     0
370
    -2
100
AcDbLine
 10
2.200000000099862
 20
-18.49999999999909
 30
0.0
 11
2.200000000098953
 21
-21.5
 31
0.0
  0
LINE
  5
1946
330
193E
100
AcDbEntity
  8
0
  6
ByBlock
 62
     0
370
    -2
100
AcDbLine
 10
51.20000000010077
 20
0.0000000000009095
 30
0.0
 11
51.20000000010077
 21
-29.99999999999909
 31
0.0
  0
LINE
  5
1947
330
193E
100
AcDbEntity
  8
0
  6
ByBlock
 62
     0
370
    -2
100
AcDbLine
 10
27.70000000009896
 20
-23.49999999999909
 30
0.0
 11
27.70000000009896
 21
-29.99999999999909
 31
0.0
  0
LINE
  5
1948
330
193E
100
AcDbEntity
  8
0
  6
ByBlock
 62
     0
370
    -2
100
AcDbLine
 10
11.20000000009895
 20
-2.99999999999909
 30
0.0
 11
51.20000000010077
 21
-2.999999999998181
 31
0.0
  0
LINE
  5
1949
330
193E
100
AcDbEntity
  8
0
  6
ByBlock
 62
     0
370
    -2
100
AcDbLine
 10
27.70000000009896
 20
-29.99999999999909
 30
0.0
 11
51.20000000010077
 21
-29.99999999999909
 31
0.0
  0
LINE
  5
194A
330
193E
100
AcDbEntity
  8
0
  6
ByBlock
 62
     0
370
    -2
100
AcDbLine
 10
27.70000000009896
 20
-23.49999999999909
 30
0.0
 11
11.20000000009986
 21
-14.99999999999909
 31
0.0
  0
LINE
  5
194B
330
193E
100
AcDbEntity
  8
0
  6
ByBlock
 62
     0
370
    -2
100
AcDbLine
 10
11.20000000009986
 20
-11.49999999999909
 30
0.0
 11
2.200000000099862
 21
-18.49999999999909
 31
0.0
  0
LINE
  5
194C
330
193E
100
AcDbEntity
  8
0
  6
ByBlock
 62
     0
370
    -2
100
AcDbLine
 10
2.200000000099862
 20
-21.49999999999909
 30
0.0
 11
6.100000000100408
 21
-26.69230769230717
 31
0.0
  0
LINE
  5
194D
330
193E
100
AcDbEntity
  8
0
  6
ByBlock
 62
     0
370
    -2
100
AcDbLine
 10
14.20000000009895
 20
-20.99999999999909
 30
0.0
 11
10.50000000010004
 21
-20.99999999999909
 31
0.0
  0
LINE
  5
194E
330
193E
100
AcDbEntity
  8
0
  6
ByBlock
 62
     0
370
    -2
100
AcDbLine
 10
6.100000000100408
 20
-26.69230769230717
 30
0.0
 11
11.20000000009895
 21
-29.99999999999909
 31
0.0
  0
LINE
  5
194F
330
193E
100
AcDbEntity
  8
0
  6
ByBlock
 62
     0
370
    -2
100
AcDbLine
 10
11.20000000009895
 20
-29.99999999999909
 30
0.0
 11
12.70000000009895
 21
-29.49999999999909
 31
0.0
  0
LINE
  5
1950
330
193E
100
AcDbEntity
  8
0
  6
ByBlock
 62
     0
370
    -2
100
AcDbLine
 10
10.50000000010004
 20
-25.49999999999909
 30
0.0
 11
10.50000000010004
 21
-20.99999999999909
 31
0.0
  0
LINE
  5
1951
330
193E
100
AcDbEntity
  8
0
  6
ByBlock
 62
     0
370
    -2
100
AcDbLine
 10
11.20000000009895
 20
-0.0000000000009095
 30
0.0
 11
51.20000000010077
 21
0.0
 31
0.0
  0
ENDBLK
  5
1952
330
193E
100
AcDbEntity
  8
0
100
AcDbBlockEnd
  0
BLOCK
  5
1956
330
1953
100
AcDbEntity
  8
0
100
AcDbBlockBegin
  2
A$C74D86253
 70
     0
 10
0.0
 20
0.0
 30
0.0
  3
A$C74D86253
  1

  0
LINE
  5
1957
330
1953
100
AcDbEntity
  8
0
  6
ByBlock
 62
     0
370
    -2
100
AcDbLine
 10
5.0
 20
-5.500000000000454
 30
0.0
 11
-4.999999999999545
 21
-5.5
 31
0.0
  0
LINE
  5
1958
330
1953
100
AcDbEntity
  8
0
  6
ByBlock
 62
     0
370
    -2
100
AcDbLine
 10
5.0
 20
-9.300000000000636
 30
0.0
 11
-4.999999999999545
 21
-9.300000000000181
 31
0.0
  0
LINE
  5
1959
330
1953
100
AcDbEntity
  8
0
  6
ByBlock
 62
     0
370
    -2
100
AcDbLine
 10
23.20000000000027
 20
0.0
 30
0.0
 11
23.19999999999936
 21
-2.999999999998181
 31
0.0
  0
LINE
  5
195A
330
1953
100
AcDbEntity
  8
0
  6
ByBlock
 62
     0
370
    -2
100
AcDbLine
 10
-23.19999999999982
 20
0.0000000000004547
 30
0.0
 11
-23.19999999999982
 21
-2.99999999999909
 31
0.0
  0
LINE
  5
195B
330
1953
100
AcDbEntity
  8
0
  6
ByBlock
 62
     0
370
    -2
100
AcDbLine
 10
23.19999999999982
 20
-2.999999999998635
 30
0.0
 11
14.0
 21
-2.999999999998635
 31
0.0
  0
LINE
  5
195C
330
1953
100
AcDbEntity
  8
0
  6
ByBlock
 62
     0
370
    -2
100
AcDbLine
 10
-14.0
 20
-2.999999999998635
 30
0.0
 11
-23.20000000000027
 21
-2.999999999998635
 31
0.0
  0
LINE
  5
195D
330
1953
100
AcDbEntity
  8
0
  6
ByBlock
 62
     0
370
    -2
100
AcDbLine
 10
15.40000000000009
 20
-29.99999999999864
 30
0.0
 11
-15.40000000000054
 21
-29.99999999999909
 31
0.0
  0
LINE
  5
195E
330
1953
100
AcDbEntity
  8
0
  6
ByBlock
 62
     0
370
    -2
100
AcDbLine
 10
14.0
 20
0.0
 30
0.0
 11
14.0
 21
-23.49999999999955
 31
0.0
  0
LINE
  5
195F
330
1953
100
AcDbEntity
  8
0
  6
ByBlock
 62
     0
370
    -2
100
AcDbLine
 10
-13.99999999999954
 20
0.0
 30
0.0
 11
-13.99999999999954
 21
-23.49999999999955
 31
0.0
  0
LINE
  5
1960
330
1953
100
AcDbEntity
  8
0
  6
ByBlock
 62
     0
370
    -2
100
AcDbLine
 10
5.0
 20
-5.5
 30
0.0
 11
5.0
 21
-30.0
 31
0.0
  0
LINE
  5
1961
330
1953
100
AcDbEntity
  8
0
  6
ByBlock
 62
     0
370
    -2
100
AcDbLine
 10
-4.999999999999545
 20
-5.5
 30
0.0
 11
-5.0
 21
-30.0
 31
0.0
  0
LINE
  5
1962
330
1953
100
AcDbEntity
  8
0
  6
ByBlock
 62
     0
370
    -2
100
AcDbLine
 10
14.0
 20
-23.49999999999955
 30
0.0
 11
5.0
 21
-23.5
 31
0.0
  0
LINE
  5
1963
330
1953
100
AcDbEntity
  8
0
  6
ByBlock
 62
     0
370
    -2
100
AcDbLine
 10
-5.0
 20
-23.5
 30
0.0
 11
-13.99999999999954
 21
-23.49999999999955
 31
0.0
  0
LINE
  5
1964
330
1953
100
AcDbEntity
  8
0
  6
ByBlock
 62
     0
370
    -2
100
AcDbLine
 10
15.40000000000054
 20
-2.99999999999909
 30
0.0
 11
15.40000000000009
 21
-29.99999999999909
 31
0.0
  0
LINE
  5
1965
330
1953
100
AcDbEntity
  8
0
  6
ByBlock
 62
     0
370
    -2
100
AcDbLine
 10
-15.40000000000054
 20
-2.99999999999909
 30
0.0
 11
-15.40000000000009
 21
-29.99999999999909
 31
0.0
  0
LINE
  5
1966
330
1953
100
AcDbEntity
  8
0
  6
ByBlock
 62
     0
370
    -2
100
AcDbLine
 10
14.0
 20
-14.99999999999954
 30
0.0
 11
5.0
 21
-14.99999999999954
 31
0.0
  0
LINE
  5
1967
330
1953
100
AcDbEntity
  8
0
  6
ByBlock
 62
     0
370
    -2
100
AcDbLine
 10
-5.0
 20
-14.99999999999954
 30
0.0
 11
-13.99999999999954
 21
-14.99999999999954
 31
0.0
  0
LINE
  5
1968
330
1953
100
AcDbEntity
  8
0
  6
ByBlock
 62
     0
370
    -2
100
AcDbLine
 10
23.5
 20
-13.30000000000109
 30
0.0
 11
-23.5
 21
-13.30000000000064
 31
0.0
  0
LINE
  5
1969
330
1953
100
AcDbEntity
  8
0
  6
ByBlock
 62
     0
370
    -2
100
AcDbLine
 10
23.5
 20
-27.29999999999973
 30
0.0
 11
5.0
 21
-27.29999999999973
 31
0.0
  0
LINE
  5
196A
330
1953
100
AcDbEntity
  8
0
  6
ByBlock
 62
     0
370
    -2
100
AcDbLine
 10
-5.0
 20
-27.29999999999973
 30
0.0
 11
-23.5
 21
-27.29999999999973
 31
0.0
  0
LINE
  5
196B
330
1953
100
AcDbEntity
  8
0
  6
ByBlock
 62
     0
370
    -2
100
AcDbLine
 10
9.0
 20
-23.79999999999973
 30
0.0
 11
5.0
 21
-23.79999999999973
 31
0.0
  0
LINE
  5
196C
330
1953
100
AcDbEntity
  8
0
  6
ByBlock
 62
     0
370
    -2
100
AcDbLine
 10
-5.0
 20
-23.79999999999882
 30
0.0
 11
-9.0
 21
-23.79999999999927
 31
0.0
  0
LINE
  5
196D
330
1953
100
AcDbEntity
  8
0
  6
ByBlock
 62
     0
370
    -2
100
AcDbLine
 10
9.0
 20
-20.29999999999973
 30
0.0
 11
-9.0
 21
-20.29999999999927
 31
0.0
  0
LINE
  5
196E
330
1953
100
AcDbEntity
  8
0
  6
ByBlock
 62
     0
370
    -2
100
AcDbLine
 10
-23.5
 20
-13.30000000000064
 30
0.0
 11
-23.5
 21
-27.29999999999973
 31
0.0
  0
LINE
  5
196F
330
1953
100
AcDbEntity
  8
0
  6
ByBlock
 62
     0
370
    -2
100
AcDbLine
 10
23.5
 20
-13.30000000000109
 30
0.0
 11
23.5
 21
-27.29999999999973
 31
0.0
  0
LINE
  5
1970
330
1953
100
AcDbEntity
  8
0
  6
ByBlock
 62
     0
370
    -2
100
AcDbLine
 10
9.0
 20
-20.29999999999973
 30
0.0
 11
9.0
 21
-27.29999999999973
 31
0.0
  0
LINE
  5
1971
330
1953
100
AcDbEntity
  8
0
  6
ByBlock
 62
     0
370
    -2
100
AcDbLine
 10
-9.0
 20
-20.29999999999973
 30
0.0
 11
-9.0
 21
-27.29999999999973
 31
0.0
  0
ENDBLK
  5
1972
330
1953
100
AcDbEntity
  8
0
100
AcDbBlockEnd
  0
BLOCK
  5
2D1B
330
2D1A
100
AcDbEntity
  8
0
100
AcDbBlockBegin
  2
_Open30
 70
     0
 10
0.0
 20
0.0
 30
0.0
  3
_Open30
  1

  0
LINE
  5
2D1C
330
2D1A
100
AcDbEntity
  8
0
  6
ByBlock
 62
     0
370
    -2
100
AcDbLine
 10
-1.0
 20
0.26794919
 30
0.0
 11
0.0
 21
0.0
 31
0.0
  0
LINE
  5
2D1D
330
2D1A
100
AcDbEntity
  8
0
  6
ByBlock
 62
     0
370
    -2
100
AcDbLine
 10
0.0
 20
0.0
 30
0.0
 11
-1.0
 21
-0.26794919
 31
0.0
  0
LINE
  5
2D1E
330
2D1A
100
AcDbEntity
  8
0
  6
ByBlock
 62
     0
370
    -2
100
AcDbLine
 10
0.0
 20
0.0
 30
0.0
 11
-1.0
 21
0.0
 31
0.0
  0
ENDBLK
  5
2D1F
330
2D1A
100
AcDbEntity
  8
0
100
AcDbBlockEnd
  0
BLOCK
  5
2D21
330
2D20
100
AcDbEntity
  8
0
100
AcDbBlockBegin
  2
_None
 70
     0
 10
0.0
 20
0.0
 30
0.0
  3
_None
  1

  0
ENDBLK
  5
2D22
330
2D20
100
AcDbEntity
  8
0
100
AcDbBlockEnd
  0
BLOCK
  5
5981
330
5977
100
AcDbEntity
  8
0
100
AcDbBlockBegin
  2
*D13
 70
     1
 10
0.0
 20
0.0
 30
0.0
  3
*D13
  1

  0
LINE
  5
6867
330
5977
100
AcDbEntity
  8
sunpo
 62
     3
370
     9
100
AcDbLine
 10
372.6323113816993
 20
232.2408485882429
 30
0.0
 11
392.6209635679929
 21
232.2408485882429
 31
0.0
  0
LINE
  5
6868
330
5977
100
AcDbEntity
  8
sunpo
 62
     3
370
     9
100
AcDbLine
 10
372.6323113816993
 20
212.2408485882429
 30
0.0
 11
392.6209635679929
 21
212.2408485882429
 31
0.0
  0
LINE
  5
6869
330
5977
100
AcDbEntity
  8
sunpo
 62
     3
370
     9
100
AcDbLine
 10
390.6209635679929
 20
232.2408485882429
 30
0.0
 11
390.6209635679929
 21
212.2408485882429
 31
0.0
  0
MTEXT
  5
686A
330
5977
100
AcDbEntity
  8
sunpo
 62
     2
100
AcDbMText
 10
404.1769419883289
 20
223.2252287326303
 30
0.0
 40
5.0
 41
0.0
 71
     5
 72
     1
  1
200
  7
Std
 11
0.0000000000000001
 21
1.0
 31
0.0
 73
     1
 44
1.0
  0
INSERT
  5
686B
330
5977
100
AcDbEntity
  8
sunpo
 62
     3
370
     9
100
AcDbBlockReference
  2
_DotSmall
 10
390.6209635679929
 20
232.2408485882429
 30
0.0
 41
6.0
 42
6.0
 43
6.0
 50
90.0
  0
INSERT
  5
686C
330
5977
100
AcDbEntity
  8
sunpo
 62
     3
370
     9
100
AcDbBlockReference
  2
_DotSmall
 10
390.6209635679929
 20
212.2408485882429
 30
0.0
 41
6.0
 42
6.0
 43
6.0
 50
270.0
  0
POINT
  5
686D
330
5977
100
AcDbEntity
  8
Defpoints
 62
     0
100
AcDbPoint
 10
368.6323113816993
 20
232.2408485882429
 30
0.0
  0
POINT
  5
686E
330
5977
100
AcDbEntity
  8
Defpoints
 62
     0
100
AcDbPoint
 10
368.6323113816993
 20
212.2408485882429
 30
0.0
  0
POINT
  5
686F
330
5977
100
AcDbEntity
  8
Defpoints
 62
     0
100
AcDbPoint
 10
390.6209635679929
 20
212.2408485882429
 30
0.0
  0
ENDBLK
  5
5982
330
5977
100
AcDbEntity
  8
0
100
AcDbBlockEnd
  0
BLOCK
  5
598D
330
5983
100
AcDbEntity
  8
0
100
AcDbBlockBegin
  2
*D14
 70
     1
 10
0.0
 20
0.0
 30
0.0
  3
*D14
  1

  0
LINE
  5
697F
330
5983
100
AcDbEntity
  8
sunpo
 62
     3
370
     9
100
AcDbLine
 10
545.8319113815615
 20
344.140848587611
 30
0.0
 11
545.8319113815795
 21
354.6404268431426
 31
0.0
  0
LINE
  5
6980
330
5983
100
AcDbEntity
  8
sunpo
 62
     3
370
     9
100
AcDbLine
 10
185.8319113818872
 20
344.1408485882368
 30
0.0
 11
185.8319113819051
 21
354.6404268437565
 31
0.0
  0
LINE
  5
6981
330
5983
100
AcDbEntity
  8
sunpo
 62
     3
370
     9
100
AcDbLine
 10
545.831911381576
 20
352.6404268431426
 30
0.0
 11
185.8319113819016
 21
352.6404268437565
 31
0.0
  0
INSERT
  5
6982
330
5983
100
AcDbEntity
  8
sunpo
 62
     3
370
     9
100
AcDbBlockReference
  2
_DotSmall
 10
545.831911381576
 20
352.6404268431426
 30
0.0
 41
6.0
 42
6.0
 43
6.0
 50
359.9999999999023
  0
INSERT
  5
6983
330
5983
100
AcDbEntity
  8
sunpo
 62
     3
370
     9
100
AcDbBlockReference
  2
_DotSmall
 10
185.8319113819016
 20
352.6404268437565
 30
0.0
 41
6.0
 42
6.0
 43
6.0
 50
179.9999999999023
  0
MTEXT
  5
6984
330
5983
100
AcDbEntity
  8
sunpo
 62
     2
100
AcDbMText
 10
365.8319113817448
 20
356.1404268434496
 30
0.0
 40
5.0
 41
0.0
 71
     5
 72
     1
  1
W
  7
Std
 11
1.0
 21
-0.0000000000017053
 31
0.0
 73
     1
 44
1.0
  0
POINT
  5
6985
330
5983
100
AcDbEntity
  8
Defpoints
 62
     0
100
AcDbPoint
 10
545.8319113815547
 20
340.1408485876111
 30
0.0
  0
POINT
  5
6986
330
5983
100
AcDbEntity
  8
Defpoints
 62
     0
100
AcDbPoint
 10
185.8319113818803
 20
340.1408485882368
 30
0.0
  0
POINT
  5
6987
330
5983
100
AcDbEntity
  8
Defpoints
 62
     0
100
AcDbPoint
 10
185.8319113819016
 20
352.6404268437565
 30
0.0
  0
ENDBLK
  5
598E
330
5983
100
AcDbEntity
  8
0
100
AcDbBlockEnd
  0
BLOCK
  5
5999
330
598F
100
AcDbEntity
  8
0
100
AcDbBlockBegin
  2
*D15
 70
     1
 10
0.0
 20
0.0
 30
0.0
  3
*D15
  1

  0
LINE
  5
6855
330
598F
100
AcDbEntity
  8
sunpo
 62
     3
370
     9
100
AcDbLine
 10
461.3719113815895
 20
223.7408485882429
 30
0.0
 11
471.8714896371206
 21
223.7408485882429
 31
0.0
  0
LINE
  5
6856
330
598F
100
AcDbEntity
  8
sunpo
 62
     3
370
     9
100
AcDbLine
 10
461.3719113815895
 20
213.7408485882429
 30
0.0
 11
471.8714896371206
 21
213.7408485882429
 31
0.0
  0
LINE
  5
6857
330
598F
100
AcDbEntity
  8
sunpo
 62
     3
370
     9
100
AcDbLine
 10
469.8714896371207
 20
223.7408485882429
 30
0.0
 11
469.8714896371207
 21
213.7408485882429
 31
0.0
  0
MTEXT
  5
6858
330
598F
100
AcDbEntity
  8
sunpo
 62
     2
100
AcDbMText
 10
484.0322182836389
 20
219.818611062255
 30
0.0
 40
5.0
 41
0.0
 71
     5
 72
     1
  1
100
  7
Std
 11
0.0000000000000001
 21
1.0
 31
0.0
 73
     1
 44
1.0
  0
INSERT
  5
6859
330
598F
100
AcDbEntity
  8
sunpo
 62
     3
370
     9
100
AcDbBlockReference
  2
_DotSmall
 10
469.8714896371207
 20
223.7408485882429
 30
0.0
 41
6.0
 42
6.0
 43
6.0
 50
90.0
  0
INSERT
  5
685A
330
598F
100
AcDbEntity
  8
sunpo
 62
     3
370
     9
100
AcDbBlockReference
  2
_DotSmall
 10
469.8714896371207
 20
213.7408485882429
 30
0.0
 41
6.0
 42
6.0
 43
6.0
 50
270.0
  0
POINT
  5
685B
330
598F
100
AcDbEntity
  8
Defpoints
 62
     0
100
AcDbPoint
 10
457.3719113815895
 20
223.7408485882429
 30
0.0
  0
POINT
  5
685C
330
598F
100
AcDbEntity
  8
Defpoints
 62
     0
100
AcDbPoint
 10
457.3719113815895
 20
213.7408485882429
 30
0.0
  0
POINT
  5
685D
330
598F
100
AcDbEntity
  8
Defpoints
 62
     0
100
AcDbPoint
 10
469.8714896371207
 20
213.7408485882429
 30
0.0
  0
ENDBLK
  5
599A
330
598F
100
AcDbEntity
  8
0
100
AcDbBlockEnd
  0
BLOCK
  5
59A5
330
599B
100
AcDbEntity
  8
0
100
AcDbBlockBegin
  2
*D16
 70
     1
 10
0.0
 20
0.0
 30
0.0
  3
*D16
  1

  0
LINE
  5
684C
330
599B
100
AcDbEntity
  8
sunpo
 62
     3
370
     9
100
AcDbLine
 10
461.3719113815895
 20
320.0408485882547
 30
0.0
 11
471.8714896371206
 21
320.0408485882547
 31
0.0
  0
LINE
  5
684D
330
599B
100
AcDbEntity
  8
sunpo
 62
     3
370
     9
100
AcDbLine
 10
461.3719113815895
 20
330.0408485882547
 30
0.0
 11
471.8714896371206
 21
330.0408485882547
 31
0.0
  0
LINE
  5
684E
330
599B
100
AcDbEntity
  8
sunpo
 62
     3
370
     9
100
AcDbLine
 10
469.8714896371207
 20
320.0408485882547
 30
0.0
 11
469.8714896371207
 21
330.0408485882547
 31
0.0
  0
MTEXT
  5
684F
330
599B
100
AcDbEntity
  8
sunpo
 62
     2
100
AcDbMText
 10
484.9056377913134
 20
324.0840551710931
 30
0.0
 40
5.0
 41
0.0
 71
     5
 72
     1
  1
100
  7
Std
 11
0.0000000000000001
 21
1.0
 31
0.0
 73
     1
 44
1.0
  0
INSERT
  5
6850
330
599B
100
AcDbEntity
  8
sunpo
 62
     3
370
     9
100
AcDbBlockReference
  2
_DotSmall
 10
469.8714896371207
 20
320.0408485882547
 30
0.0
 41
6.0
 42
6.0
 43
6.0
 50
270.0
  0
INSERT
  5
6851
330
599B
100
AcDbEntity
  8
sunpo
 62
     3
370
     9
100
AcDbBlockReference
  2
_DotSmall
 10
469.8714896371207
 20
330.0408485882547
 30
0.0
 41
6.0
 42
6.0
 43
6.0
 50
90.0
  0
POINT
  5
6852
330
599B
100
AcDbEntity
  8
Defpoints
 62
     0
100
AcDbPoint
 10
457.3719113815895
 20
320.0408485882547
 30
0.0
  0
POINT
  5
6853
330
599B
100
AcDbEntity
  8
Defpoints
 62
     0
100
AcDbPoint
 10
457.3719113815895
 20
330.0408485882547
 30
0.0
  0
POINT
  5
6854
330
599B
100
AcDbEntity
  8
Defpoints
 62
     0
100
AcDbPoint
 10
469.8714896371207
 20
330.0408485882547
 30
0.0
  0
ENDBLK
  5
59A6
330
599B
100
AcDbEntity
  8
0
100
AcDbBlockEnd
  0
BLOCK
  5
59B1
330
59A7
100
AcDbEntity
  8
0
100
AcDbBlockBegin
  2
*D17
 70
     1
 10
0.0
 20
0.0
 30
0.0
  3
*D17
  1

  0
LINE
  5
6843
330
59A7
100
AcDbEntity
  8
sunpo
 62
     3
370
     9
100
AcDbLine
 10
270.2919113815965
 20
223.7408485882429
 30
0.0
 11
259.7923331260767
 21
223.7408485882429
 31
0.0
  0
LINE
  5
6844
330
59A7
100
AcDbEntity
  8
sunpo
 62
     3
370
     9
100
AcDbLine
 10
270.2919113815965
 20
213.7408485882429
 30
0.0
 11
259.7923331260767
 21
213.7408485882429
 31
0.0
  0
LINE
  5
6845
330
59A7
100
AcDbEntity
  8
sunpo
 62
     3
370
     9
100
AcDbLine
 10
261.7923331260767
 20
223.7408485882429
 30
0.0
 11
261.7923331260767
 21
213.7408485882429
 31
0.0
  0
MTEXT
  5
6846
330
59A7
100
AcDbEntity
  8
sunpo
 62
     2
100
AcDbMText
 10
247.6092289970461
 20
219.7020317375436
 30
0.0
 40
5.0
 41
0.0
 71
     5
 72
     1
  1
100
  7
Std
 11
0.0000000000000001
 21
1.0
 31
0.0
 73
     1
 44
1.0
  0
INSERT
  5
6847
330
59A7
100
AcDbEntity
  8
sunpo
 62
     3
370
     9
100
AcDbBlockReference
  2
_DotSmall
 10
261.7923331260767
 20
223.7408485882429
 30
0.0
 41
6.0
 42
6.0
 43
6.0
 50
90.0
  0
INSERT
  5
6848
330
59A7
100
AcDbEntity
  8
sunpo
 62
     3
370
     9
100
AcDbBlockReference
  2
_DotSmall
 10
261.7923331260767
 20
213.7408485882429
 30
0.0
 41
6.0
 42
6.0
 43
6.0
 50
270.0
  0
POINT
  5
6849
330
59A7
100
AcDbEntity
  8
Defpoints
 62
     0
100
AcDbPoint
 10
274.2919113815965
 20
223.7408485882429
 30
0.0
  0
POINT
  5
684A
330
59A7
100
AcDbEntity
  8
Defpoints
 62
     0
100
AcDbPoint
 10
274.2919113815965
 20
213.7408485882429
 30
0.0
  0
POINT
  5
684B
330
59A7
100
AcDbEntity
  8
Defpoints
 62
     0
100
AcDbPoint
 10
261.7923331260767
 20
213.7408485882429
 30
0.0
  0
ENDBLK
  5
59B2
330
59A7
100
AcDbEntity
  8
0
100
AcDbBlockEnd
  0
BLOCK
  5
59BD
330
59B3
100
AcDbEntity
  8
0
100
AcDbBlockBegin
  2
*D18
 70
     1
 10
0.0
 20
0.0
 30
0.0
  3
*D18
  1

  0
LINE
  5
683A
330
59B3
100
AcDbEntity
  8
sunpo
 62
     3
370
     9
100
AcDbLine
 10
270.2919113815965
 20
320.0408485882547
 30
0.0
 11
259.7923331260767
 21
320.0408485882547
 31
0.0
  0
LINE
  5
683B
330
59B3
100
AcDbEntity
  8
sunpo
 62
     3
370
     9
100
AcDbLine
 10
270.2919113815965
 20
330.0408485882547
 30
0.0
 11
259.7923331260767
 21
330.0408485882547
 31
0.0
  0
LINE
  5
683C
330
59B3
100
AcDbEntity
  8
sunpo
 62
     3
370
     9
100
AcDbLine
 10
261.7923331260767
 20
320.0408485882547
 30
0.0
 11
261.7923331260767
 21
330.0408485882547
 31
0.0
  0
MTEXT
  5
683D
330
59B3
100
AcDbEntity
  8
sunpo
 62
     2
100
AcDbMText
 10
244.5050000748565
 20
323.8051229324697
 30
0.0
 40
5.0
 41
0.0
 71
     5
 72
     1
  1
100
  7
Std
 11
0.0000000000000001
 21
1.0
 31
0.0
 73
     1
 44
1.0
  0
INSERT
  5
683E
330
59B3
100
AcDbEntity
  8
sunpo
 62
     3
370
     9
100
AcDbBlockReference
  2
_DotSmall
 10
261.7923331260767
 20
320.0408485882547
 30
0.0
 41
6.0
 42
6.0
 43
6.0
 50
270.0
  0
INSERT
  5
683F
330
59B3
100
AcDbEntity
  8
sunpo
 62
     3
370
     9
100
AcDbBlockReference
  2
_DotSmall
 10
261.7923331260767
 20
330.0408485882547
 30
0.0
 41
6.0
 42
6.0
 43
6.0
 50
90.0
  0
POINT
  5
6840
330
59B3
100
AcDbEntity
  8
Defpoints
 62
     0
100
AcDbPoint
 10
274.2919113815965
 20
320.0408485882547
 30
0.0
  0
POINT
  5
6841
330
59B3
100
AcDbEntity
  8
Defpoints
 62
     0
100
AcDbPoint
 10
274.2919113815965
 20
330.0408485882547
 30
0.0
  0
POINT
  5
6842
330
59B3
100
AcDbEntity
  8
Defpoints
 62
     0
100
AcDbPoint
 10
261.7923331260767
 20
330.0408485882547
 30
0.0
  0
ENDBLK
  5
59BE
330
59B3
100
AcDbEntity
  8
0
100
AcDbBlockEnd
  0
BLOCK
  5
59C9
330
59BF
100
AcDbEntity
  8
0
100
AcDbBlockBegin
  2
*D19
 70
     1
 10
0.0
 20
0.0
 30
0.0
  3
*D19
  1

  0
LINE
  5
6976
330
59BF
100
AcDbEntity
  8
sunpo
 62
     3
370
     9
100
AcDbLine
 10
549.831911382379
 20
208.7408485882313
 30
0.0
 11
565.3319613822008
 21
208.7408485882313
 31
0.0
  0
LINE
  5
6977
330
59BF
100
AcDbEntity
  8
sunpo
 62
     3
370
     9
100
AcDbLine
 10
549.831911382379
 20
212.2408485882429
 30
0.0
 11
565.3319613822008
 21
212.2408485882429
 31
0.0
  0
LINE
  5
6978
330
59BF
100
AcDbEntity
  8
sunpo
 62
     3
370
     9
100
AcDbLine
 10
563.3319613822009
 20
208.7408485882313
 30
0.0
 11
563.3319613822009
 21
212.2408485882429
 31
0.0
  0
MTEXT
  5
6979
330
59BF
100
AcDbEntity
  8
sunpo
 62
     2
100
AcDbMText
 10
570.2300715890046
 20
210.4031205367326
 30
0.0
 40
5.0
 41
0.0
 71
     5
 72
     1
  1
35
  7
Std
 11
0.0000000000000001
 21
1.0
 31
0.0
 73
     1
 44
1.0
  0
INSERT
  5
697A
330
59BF
100
AcDbEntity
  8
sunpo
 62
     3
370
     9
100
AcDbBlockReference
  2
_DotSmall
 10
563.3319613822009
 20
208.7408485882313
 30
0.0
 41
6.0
 42
6.0
 43
6.0
 50
270.0
  0
INSERT
  5
697B
330
59BF
100
AcDbEntity
  8
sunpo
 62
     3
370
     9
100
AcDbBlockReference
  2
_DotSmall
 10
563.3319613822009
 20
212.2408485882429
 30
0.0
 41
6.0
 42
6.0
 43
6.0
 50
90.0
  0
POINT
  5
697C
330
59BF
100
AcDbEntity
  8
Defpoints
 62
     0
100
AcDbPoint
 10
545.831911382379
 20
208.7408485882313
 30
0.0
  0
POINT
  5
697D
330
59BF
100
AcDbEntity
  8
Defpoints
 62
     0
100
AcDbPoint
 10
545.831911382379
 20
212.2408485882429
 30
0.0
  0
POINT
  5
697E
330
59BF
100
AcDbEntity
  8
Defpoints
 62
     0
100
AcDbPoint
 10
563.3319613822009
 20
212.2408485882429
 30
0.0
  0
ENDBLK
  5
59CA
330
59BF
100
AcDbEntity
  8
0
100
AcDbBlockEnd
  0
BLOCK
  5
59D5
330
59CB
100
AcDbEntity
  8
0
100
AcDbBlockBegin
  2
*D20
 70
     1
 10
0.0
 20
0.0
 30
0.0
  3
*D20
  1

  0
LINE
  5
6964
330
59CB
100
AcDbEntity
  8
sunpo
 62
     3
370
     9
100
AcDbLine
 10
549.831911382379
 20
335.7408485882663
 30
0.0
 11
565.3319613822008
 21
335.7408485882663
 31
0.0
  0
LINE
  5
6965
330
59CB
100
AcDbEntity
  8
sunpo
 62
     3
370
     9
100
AcDbLine
 10
549.831911382379
 20
332.2408485882547
 30
0.0
 11
565.3319613822008
 21
332.2408485882547
 31
0.0
  0
LINE
  5
6966
330
59CB
100
AcDbEntity
  8
sunpo
 62
     3
370
     9
100
AcDbLine
 10
563.3319613822009
 20
335.7408485882663
 30
0.0
 11
563.3319613822009
 21
332.2408485882547
 31
0.0
  0
MTEXT
  5
6967
330
59CB
100
AcDbEntity
  8
sunpo
 62
     2
100
AcDbMText
 10
570.5326820894829
 20
333.6340460401345
 30
0.0
 40
5.0
 41
0.0
 71
     5
 72
     1
  1
35
  7
Std
 11
0.0000000000000001
 21
1.0
 31
0.0
 73
     1
 44
1.0
  0
INSERT
  5
6968
330
59CB
100
AcDbEntity
  8
sunpo
 62
     3
370
     9
100
AcDbBlockReference
  2
_DotSmall
 10
563.3319613822009
 20
335.7408485882663
 30
0.0
 41
6.0
 42
6.0
 43
6.0
 50
90.0
  0
INSERT
  5
6969
330
59CB
100
AcDbEntity
  8
sunpo
 62
     3
370
     9
100
AcDbBlockReference
  2
_DotSmall
 10
563.3319613822009
 20
332.2408485882547
 30
0.0
 41
6.0
 42
6.0
 43
6.0
 50
270.0
  0
POINT
  5
696A
330
59CB
100
AcDbEntity
  8
Defpoints
 62
     0
100
AcDbPoint
 10
545.831911382379
 20
335.7408485882663
 30
0.0
  0
POINT
  5
696B
330
59CB
100
AcDbEntity
  8
Defpoints
 62
     0
100
AcDbPoint
 10
545.831911382379
 20
332.2408485882547
 30
0.0
  0
POINT
  5
696C
330
59CB
100
AcDbEntity
  8
Defpoints
 62
     0
100
AcDbPoint
 10
563.3319613822009
 20
332.2408485882547
 30
0.0
  0
ENDBLK
  5
59D6
330
59CB
100
AcDbEntity
  8
0
100
AcDbBlockEnd
  0
BLOCK
  5
59E1
330
59D7
100
AcDbEntity
  8
0
100
AcDbBlockBegin
  2
*D21
 70
     1
 10
0.0
 20
0.0
 30
0.0
  3
*D21
  1

  0
LINE
  5
6988
330
59D7
100
AcDbEntity
  8
sunpo
 62
     3
370
     9
100
AcDbLine
 10
549.8319113823677
 20
212.2408485882429
 30
0.0
 11
565.3319613822008
 21
212.2408485882429
 31
0.0
  0
LINE
  5
6989
330
59D7
100
AcDbEntity
  8
sunpo
 62
     3
370
     9
100
AcDbLine
 10
549.831911382379
 20
332.2408485882547
 30
0.0
 11
565.3319613822008
 21
332.2408485882547
 31
0.0
  0
LINE
  5
698A
330
59D7
100
AcDbEntity
  8
sunpo
 62
     3
370
     9
100
AcDbLine
 10
563.3319613822008
 20
212.2408485882429
 30
0.0
 11
563.3319613822009
 21
332.2408485882547
 31
0.0
  0
INSERT
  5
698B
330
59D7
100
AcDbEntity
  8
sunpo
 62
     3
370
     9
100
AcDbBlockReference
  2
_DotSmall
 10
563.3319613822008
 20
212.2408485882429
 30
0.0
 41
6.0
 42
6.0
 43
6.0
 50
270.0
  0
INSERT
  5
698C
330
59D7
100
AcDbEntity
  8
sunpo
 62
     3
370
     9
100
AcDbBlockReference
  2
_DotSmall
 10
563.3319613822009
 20
332.2408485882547
 30
0.0
 41
6.0
 42
6.0
 43
6.0
 50
90.0
  0
MTEXT
  5
698D
330
59D7
100
AcDbEntity
  8
sunpo
 62
     2
100
AcDbMText
 10
559.8319613822008
 20
272.2408485882489
 30
0.0
 40
5.0
 41
0.0
 71
     5
 72
     1
  1
H
  7
Std
 11
0.0000000000000001
 21
1.0
 31
0.0
 73
     1
 44
1.0
  0
POINT
  5
698E
330
59D7
100
AcDbEntity
  8
Defpoints
 62
     0
100
AcDbPoint
 10
545.8319113823677
 20
212.2408485882429
 30
0.0
  0
POINT
  5
698F
330
59D7
100
AcDbEntity
  8
Defpoints
 62
     0
100
AcDbPoint
 10
545.831911382379
 20
332.2408485882547
 30
0.0
  0
POINT
  5
6990
330
59D7
100
AcDbEntity
  8
Defpoints
 62
     0
100
AcDbPoint
 10
563.3319613822009
 20
332.2408485882547
 30
0.0
  0
ENDBLK
  5
59E2
330
59D7
100
AcDbEntity
  8
0
100
AcDbBlockEnd
  0
BLOCK
  5
59ED
330
59E3
100
AcDbEntity
  8
0
100
AcDbBlockBegin
  2
*D22
 70
     1
 10
0.0
 20
0.0
 30
0.0
  3
*D22
  1

  0
LINE
  5
6952
330
59E3
100
AcDbEntity
  8
sunpo
 62
     3
370
     9
100
AcDbLine
 10
549.3319113818871
 20
344.140848587605
 30
0.0
 11
549.3319113819051
 21
354.6404268431248
 31
0.0
  0
LINE
  5
6953
330
59E3
100
AcDbEntity
  8
sunpo
 62
     3
370
     9
100
AcDbLine
 10
545.8319113818753
 20
344.140848587611
 30
0.0
 11
545.8319113818933
 21
354.6404268431308
 31
0.0
  0
LINE
  5
6954
330
59E3
100
AcDbEntity
  8
sunpo
 62
     3
370
     9
100
AcDbLine
 10
549.3319113819016
 20
352.6404268431248
 30
0.0
 11
545.8319113818898
 21
352.6404268431308
 31
0.0
  0
MTEXT
  5
6955
330
59E3
100
AcDbEntity
  8
sunpo
 62
     2
100
AcDbMText
 10
547.6340157498157
 20
358.9330438235152
 30
0.0
 40
5.0
 41
0.0
 71
     5
 72
     1
  1
35
  7
Std
 11
1.0
 21
-0.0000000000017053
 31
0.0
 73
     1
 44
1.0
  0
INSERT
  5
6956
330
59E3
100
AcDbEntity
  8
sunpo
 62
     3
370
     9
100
AcDbBlockReference
  2
_DotSmall
 10
549.3319113819016
 20
352.6404268431248
 30
0.0
 41
6.0
 42
6.0
 43
6.0
 50
359.9999999999023
  0
INSERT
  5
6957
330
59E3
100
AcDbEntity
  8
sunpo
 62
     3
370
     9
100
AcDbBlockReference
  2
_DotSmall
 10
545.8319113818898
 20
352.6404268431308
 30
0.0
 41
6.0
 42
6.0
 43
6.0
 50
179.9999999999023
  0
POINT
  5
6958
330
59E3
100
AcDbEntity
  8
Defpoints
 62
     0
100
AcDbPoint
 10
549.3319113818803
 20
340.140848587605
 30
0.0
  0
POINT
  5
6959
330
59E3
100
AcDbEntity
  8
Defpoints
 62
     0
100
AcDbPoint
 10
545.8319113818685
 20
340.1408485876111
 30
0.0
  0
POINT
  5
695A
330
59E3
100
AcDbEntity
  8
Defpoints
 62
     0
100
AcDbPoint
 10
545.8319113818898
 20
352.6404268431308
 30
0.0
  0
ENDBLK
  5
59EE
330
59E3
100
AcDbEntity
  8
0
100
AcDbBlockEnd
  0
BLOCK
  5
59F9
330
59EF
100
AcDbEntity
  8
0
100
AcDbBlockBegin
  2
*D23
 70
     1
 10
0.0
 20
0.0
 30
0.0
  3
*D23
  1

  0
LINE
  5
6940
330
59EF
100
AcDbEntity
  8
sunpo
 62
     3
370
     9
100
AcDbLine
 10
182.3319113818685
 20
344.1408485882429
 30
0.0
 11
182.3319113818685
 21
354.6404268437565
 31
0.0
  0
LINE
  5
6941
330
59EF
100
AcDbEntity
  8
sunpo
 62
     3
370
     9
100
AcDbLine
 10
185.8319113818803
 20
344.1408485882368
 30
0.0
 11
185.8319113818803
 21
354.6404268437565
 31
0.0
  0
LINE
  5
6942
330
59EF
100
AcDbEntity
  8
sunpo
 62
     3
370
     9
100
AcDbLine
 10
182.3319113818685
 20
352.6404268437565
 30
0.0
 11
185.8319113818803
 21
352.6404268437565
 31
0.0
  0
MTEXT
  5
6943
330
59EF
100
AcDbEntity
  8
sunpo
 62
     2
100
AcDbMText
 10
184.3471681644528
 20
358.3878161091243
 30
0.0
 40
5.0
 41
0.0
 71
     5
 72
     1
  1
35
  7
Std
 73
     1
 44
1.0
  0
INSERT
  5
6944
330
59EF
100
AcDbEntity
  8
sunpo
 62
     3
370
     9
100
AcDbBlockReference
  2
_DotSmall
 10
182.3319113818685
 20
352.6404268437565
 30
0.0
 41
6.0
 42
6.0
 43
6.0
 50
180.0
  0
INSERT
  5
6945
330
59EF
100
AcDbEntity
  8
sunpo
 62
     3
370
     9
100
AcDbBlockReference
  2
_DotSmall
 10
185.8319113818803
 20
352.6404268437565
 30
0.0
 41
6.0
 42
6.0
 43
6.0
  0
POINT
  5
6946
330
59EF
100
AcDbEntity
  8
Defpoints
 62
     0
100
AcDbPoint
 10
182.3319113818685
 20
340.1408485882429
 30
0.0
  0
POINT
  5
6947
330
59EF
100
AcDbEntity
  8
Defpoints
 62
     0
100
AcDbPoint
 10
185.8319113818803
 20
340.1408485882368
 30
0.0
  0
POINT
  5
6948
330
59EF
100
AcDbEntity
  8
Defpoints
 62
     0
100
AcDbPoint
 10
185.8319113818803
 20
352.6404268437565
 30
0.0
  0
ENDBLK
  5
59FA
330
59EF
100
AcDbEntity
  8
0
100
AcDbBlockEnd
  0
BLOCK
  5
5A11
330
5A07
100
AcDbEntity
  8
0
100
AcDbBlockBegin
  2
*D25
 70
     1
 10
0.0
 20
0.0
 30
0.0
  3
*D25
  1

  0
LINE
  5
6891
330
5A07
100
AcDbEntity
  8
ADD_LINE
 62
     3
370
     9
100
AcDbLine
 10
555.3319113815291
 20
208.7408485882313
 30
0.0
 11
581.3319113815409
 21
208.7408485882313
 31
0.0
  0
LINE
  5
6892
330
5A07
100
AcDbEntity
  8
ADD_LINE
 62
     3
370
     9
100
AcDbLine
 10
555.3319113815409
 20
122.24074858825
 30
0.0
 11
581.3319113815409
 21
122.24074858825
 31
0.0
  0
LINE
  5
6893
330
5A07
100
AcDbEntity
  8
ADD_LINE
 62
     3
370
     9
100
AcDbLine
 10
579.3319113815409
 20
208.7408485882313
 30
0.0
 11
579.3319113815409
 21
122.24074858825
 31
0.0
  0
INSERT
  5
6894
330
5A07
100
AcDbEntity
  8
ADD_LINE
 62
     3
370
     9
100
AcDbBlockReference
  2
_DotSmall
 10
579.3319113815409
 20
208.7408485882313
 30
0.0
 41
6.0
 42
6.0
 43
6.0
 50
90.0
  0
INSERT
  5
6895
330
5A07
100
AcDbEntity
  8
ADD_LINE
 62
     3
370
     9
100
AcDbBlockReference
  2
_DotSmall
 10
579.3319113815409
 20
122.24074858825
 30
0.0
 41
6.0
 42
6.0
 43
6.0
 50
270.0
  0
MTEXT
  5
6896
330
5A07
100
AcDbEntity
  8
ADD_LINE
 62
     2
100
AcDbMText
 10
574.5223875720171
 20
165.4907985882407
 30
0.0
 40
5.0
 41
0.0
 71
     5
 72
     1
  1
(865)
  7
Std
 11
0.0000000000000001
 21
1.0
 31
0.0
 73
     1
 44
1.0
  0
POINT
  5
6897
330
5A07
100
AcDbEntity
  8
Defpoints
 62
     0
100
AcDbPoint
 10
551.3319113815291
 20
208.7408485882313
 30
0.0
  0
POINT
  5
6898
330
5A07
100
AcDbEntity
  8
Defpoints
 62
     0
100
AcDbPoint
 10
551.3319113815409
 20
122.24074858825
 30
0.0
  0
POINT
  5
6899
330
5A07
100
AcDbEntity
  8
Defpoints
 62
     0
100
AcDbPoint
 10
579.3319113815409
 20
122.24074858825
 30
0.0
  0
ENDBLK
  5
5A12
330
5A07
100
AcDbEntity
  8
0
100
AcDbBlockEnd
  0
BLOCK
  5
5A29
330
5A1F
100
AcDbEntity
  8
0
100
AcDbBlockBegin
  2
*D27
 70
     1
 10
0.0
 20
0.0
 30
0.0
  3
*D27
  1

  0
LINE
  5
67E0
330
5A1F
100
AcDbEntity
  8
sunpo
 62
     3
370
     9
100
AcDbLine
 10
994.7455575868202
 20
610.4645628081482
 30
0.0
 11
994.7455575868202
 21
602.4645628081482
 31
0.0
  0
LINE
  5
67E1
330
5A1F
100
AcDbEntity
  8
sunpo
 62
     3
370
     9
100
AcDbLine
 10
960.7455575868202
 20
610.4645628081482
 30
0.0
 11
960.7455575868202
 21
602.4645628081482
 31
0.0
  0
LINE
  5
67E2
330
5A1F
100
AcDbEntity
  8
sunpo
 62
     3
370
     9
100
AcDbLine
 10
994.7455575868202
 20
604.4645628081482
 30
0.0
 11
960.7455575868202
 21
604.4645628081482
 31
0.0
  0
INSERT
  5
67E3
330
5A1F
100
AcDbEntity
  8
sunpo
 62
     3
370
     9
100
AcDbBlockReference
  2
_DotSmall
 10
994.7455575868202
 20
604.4645628081482
 30
0.0
 41
7.0
 42
7.0
 43
7.0
  0
INSERT
  5
67E4
330
5A1F
100
AcDbEntity
  8
sunpo
 62
     3
370
     9
100
AcDbBlockReference
  2
_DotSmall
 10
960.7455575868202
 20
604.4645628081482
 30
0.0
 41
7.0
 42
7.0
 43
7.0
 50
180.0
  0
MTEXT
  5
67E5
330
5A1F
100
AcDbEntity
  8
sunpo
 62
     2
100
AcDbMText
 10
977.7455575868202
 20
608.6645628081482
 30
0.0
 40
6.0
 41
0.0
 71
     5
 72
     1
  1
34
  7
Std
 73
     1
 44
1.0
  0
POINT
  5
67E6
330
5A1F
100
AcDbEntity
  8
Defpoints
 62
     0
100
AcDbPoint
 10
994.7455575868202
 20
614.4645628081482
 30
0.0
  0
POINT
  5
67E7
330
5A1F
100
AcDbEntity
  8
Defpoints
 62
     0
100
AcDbPoint
 10
960.7455575868202
 20
614.4645628081482
 30
0.0
  0
POINT
  5
67E8
330
5A1F
100
AcDbEntity
  8
Defpoints
 62
     0
100
AcDbPoint
 10
960.7455575868202
 20
604.4645628081482
 30
0.0
  0
ENDBLK
  5
5A2A
330
5A1F
100
AcDbEntity
  8
0
100
AcDbBlockEnd
  0
BLOCK
  5
5A35
330
5A2B
100
AcDbEntity
  8
0
100
AcDbBlockBegin
  2
*D28
 70
     1
 10
0.0
 20
0.0
 30
0.0
  3
*D28
  1

  0
LINE
  5
6705
330
5A2B
100
AcDbEntity
  8
sunpo
 62
     3
370
     9
100
AcDbLine
 10
353.570056154547
 20
727.0884977633586
 30
0.0
 11
351.5700561545471
 21
727.0884977633586
 31
0.0
  0
LINE
  5
6706
330
5A2B
100
AcDbEntity
  8
sunpo
 62
     3
370
     9
100
AcDbLine
 10
345.570056154547
 20
595.0884977633586
 30
0.0
 11
347.570056154547
 21
595.0884977633586
 31
0.0
  0
LINE
  5
6707
330
5A2B
100
AcDbEntity
  8
sunpo
 62
     3
370
     9
100
AcDbLine
 10
349.5700561545471
 20
727.0884977633586
 30
0.0
 11
349.570056154547
 21
595.0884977633586
 31
0.0
  0
INSERT
  5
6708
330
5A2B
100
AcDbEntity
  8
sunpo
 62
     3
370
     9
100
AcDbBlockReference
  2
_DotSmall
 10
349.5700561545471
 20
727.0884977633586
 30
0.0
 41
7.0
 42
7.0
 43
7.0
 50
90.0
  0
INSERT
  5
6709
330
5A2B
100
AcDbEntity
  8
sunpo
 62
     3
370
     9
100
AcDbBlockReference
  2
_DotSmall
 10
349.570056154547
 20
595.0884977633586
 30
0.0
 41
7.0
 42
7.0
 43
7.0
 50
270.0
  0
MTEXT
  5
670A
330
5A2B
100
AcDbEntity
  8
sunpo
 62
     2
100
AcDbMText
 10
345.370056154547
 20
661.0884977633587
 30
0.0
 40
6.0
 41
0.0
 71
     5
 72
     1
  1
132
  7
Std
 11
0.0000000000000001
 21
1.0
 31
0.0
 73
     1
 44
1.0
  0
POINT
  5
670B
330
5A2B
100
AcDbEntity
  8
Defpoints
 62
     0
100
AcDbPoint
 10
349.570056154547
 20
727.0884977633586
 30
0.0
  0
POINT
  5
670C
330
5A2B
100
AcDbEntity
  8
Defpoints
 62
     0
100
AcDbPoint
 10
349.570056154547
 20
595.0884977633586
 30
0.0
  0
POINT
  5
670D
330
5A2B
100
AcDbEntity
  8
Defpoints
 62
     0
100
AcDbPoint
 10
349.570056154547
 20
595.0884977633586
 30
0.0
  0
ENDBLK
  5
5A36
330
5A2B
100
AcDbEntity
  8
0
100
AcDbBlockEnd
  0
BLOCK
  5
5A41
330
5A37
100
AcDbEntity
  8
0
100
AcDbBlockBegin
  2
*D29
 70
     1
 10
0.0
 20
0.0
 30
0.0
  3
*D29
  1

  0
LINE
  5
66FC
330
5A37
100
AcDbEntity
  8
sunpo
 62
     3
370
     9
100
AcDbLine
 10
345.570056154547
 20
595.0884977633468
 30
0.0
 11
347.570056154547
 21
595.0884977633468
 31
0.0
  0
LINE
  5
66FD
330
5A37
100
AcDbEntity
  8
sunpo
 62
     3
370
     9
100
AcDbLine
 10
345.570056154547
 20
511.0884977633584
 30
0.0
 11
347.570056154547
 21
511.0884977633584
 31
0.0
  0
LINE
  5
66FE
330
5A37
100
AcDbEntity
  8
sunpo
 62
     3
370
     9
100
AcDbLine
 10
349.570056154547
 20
595.0884977633468
 30
0.0
 11
349.570056154547
 21
511.0884977633584
 31
0.0
  0
INSERT
  5
66FF
330
5A37
100
AcDbEntity
  8
sunpo
 62
     3
370
     9
100
AcDbBlockReference
  2
_DotSmall
 10
349.570056154547
 20
595.0884977633468
 30
0.0
 41
7.0
 42
7.0
 43
7.0
 50
90.0
  0
INSERT
  5
6700
330
5A37
100
AcDbEntity
  8
sunpo
 62
     3
370
     9
100
AcDbBlockReference
  2
_DotSmall
 10
349.570056154547
 20
511.0884977633584
 30
0.0
 41
7.0
 42
7.0
 43
7.0
 50
270.0
  0
MTEXT
  5
6701
330
5A37
100
AcDbEntity
  8
sunpo
 62
     2
100
AcDbMText
 10
345.370056154547
 20
553.0884977633527
 30
0.0
 40
6.0
 41
0.0
 71
     5
 72
     1
  1
84
  7
Std
 11
0.0000000000000001
 21
1.0
 31
0.0
 73
     1
 44
1.0
  0
POINT
  5
6702
330
5A37
100
AcDbEntity
  8
Defpoints
 62
     0
100
AcDbPoint
 10
349.570056154547
 20
595.0884977633468
 30
0.0
  0
POINT
  5
6703
330
5A37
100
AcDbEntity
  8
Defpoints
 62
     0
100
AcDbPoint
 10
349.570056154547
 20
511.0884977633584
 30
0.0
  0
POINT
  5
6704
330
5A37
100
AcDbEntity
  8
Defpoints
 62
     0
100
AcDbPoint
 10
349.570056154547
 20
511.0884977633584
 30
0.0
  0
ENDBLK
  5
5A42
330
5A37
100
AcDbEntity
  8
0
100
AcDbBlockEnd
  0
BLOCK
  5
5A4D
330
5A43
100
AcDbEntity
  8
0
100
AcDbBlockBegin
  2
*D30
 70
     1
 10
0.0
 20
0.0
 30
0.0
  3
*D30
  1

  0
LINE
  5
67D7
330
5A43
100
AcDbEntity
  8
sunpo
 62
     3
370
     9
100
AcDbLine
 10
840.7455575868317
 20
245.2098606592822
 30
0.0
 11
779.2060439671859
 21
245.2098606592822
 31
0.0
  0
LINE
  5
67D8
330
5A43
100
AcDbEntity
  8
sunpo
 62
     3
370
     9
100
AcDbLine
 10
840.7455575868317
 20
210.2098606592822
 30
0.0
 11
779.2060439671859
 21
210.2098606592822
 31
0.0
  0
LINE
  5
67D9
330
5A43
100
AcDbEntity
  8
sunpo
 62
     3
370
     9
100
AcDbLine
 10
781.2060439671859
 20
245.2098606592822
 30
0.0
 11
781.2060439671859
 21
210.2098606592822
 31
0.0
  0
INSERT
  5
67DA
330
5A43
100
AcDbEntity
  8
sunpo
 62
     3
370
     9
100
AcDbBlockReference
  2
_DotSmall
 10
781.2060439671859
 20
245.2098606592822
 30
0.0
 41
7.0
 42
7.0
 43
7.0
 50
90.0
  0
INSERT
  5
67DB
330
5A43
100
AcDbEntity
  8
sunpo
 62
     3
370
     9
100
AcDbBlockReference
  2
_DotSmall
 10
781.2060439671859
 20
210.2098606592822
 30
0.0
 41
7.0
 42
7.0
 43
7.0
 50
270.0
  0
MTEXT
  5
67DC
330
5A43
100
AcDbEntity
  8
sunpo
 62
     2
100
AcDbMText
 10
777.0060439671858
 20
227.7098606592823
 30
0.0
 40
6.0
 41
0.0
 71
     5
 72
     1
  1
35
  7
Std
 11
0.0000000000000001
 21
1.0
 31
0.0
 73
     1
 44
1.0
  0
POINT
  5
67DD
330
5A43
100
AcDbEntity
  8
Defpoints
 62
     0
100
AcDbPoint
 10
844.7455575868316
 20
245.2098606592822
 30
0.0
  0
POINT
  5
67DE
330
5A43
100
AcDbEntity
  8
Defpoints
 62
     0
100
AcDbPoint
 10
844.7455575868316
 20
210.2098606592822
 30
0.0
  0
POINT
  5
67DF
330
5A43
100
AcDbEntity
  8
Defpoints
 62
     0
100
AcDbPoint
 10
781.2060439671859
 20
210.2098606592822
 30
0.0
  0
ENDBLK
  5
5A4E
330
5A43
100
AcDbEntity
  8
0
100
AcDbBlockEnd
  0
BLOCK
  5
5A59
330
5A4F
100
AcDbEntity
  8
0
100
AcDbBlockBegin
  2
*D31
 70
     1
 10
0.0
 20
0.0
 30
0.0
  3
*D31
  1

  0
LINE
  5
67CE
330
5A4F
100
AcDbEntity
  8
sunpo
 62
     3
370
     9
100
AcDbLine
 10
848.7455575868317
 20
233.2038507468494
 30
0.0
 11
798.0172276805915
 21
233.2038507468495
 31
0.0
  0
LINE
  5
67CF
330
5A4F
100
AcDbEntity
  8
sunpo
 62
     3
370
     9
100
AcDbLine
 10
848.7455575868317
 20
208.2038507468494
 30
0.0
 11
798.0172276805915
 21
208.2038507468495
 31
0.0
  0
LINE
  5
67D0
330
5A4F
100
AcDbEntity
  8
sunpo
 62
     3
370
     9
100
AcDbLine
 10
800.0172276805916
 20
233.2038507468495
 30
0.0
 11
800.0172276805916
 21
208.2038507468495
 31
0.0
  0
INSERT
  5
67D1
330
5A4F
100
AcDbEntity
  8
sunpo
 62
     3
370
     9
100
AcDbBlockReference
  2
_DotSmall
 10
800.0172276805916
 20
233.2038507468495
 30
0.0
 41
7.0
 42
7.0
 43
7.0
 50
90.0
  0
INSERT
  5
67D2
330
5A4F
100
AcDbEntity
  8
sunpo
 62
     3
370
     9
100
AcDbBlockReference
  2
_DotSmall
 10
800.0172276805916
 20
208.2038507468495
 30
0.0
 41
7.0
 42
7.0
 43
7.0
 50
270.0
  0
MTEXT
  5
67D3
330
5A4F
100
AcDbEntity
  8
sunpo
 62
     2
100
AcDbMText
 10
795.8172276805915
 20
220.7038507468495
 30
0.0
 40
6.0
 41
0.0
 71
     5
 72
     1
  1
25
  7
Std
 11
0.0000000000000001
 21
1.0
 31
0.0
 73
     1
 44
1.0
  0
POINT
  5
67D4
330
5A4F
100
AcDbEntity
  8
Defpoints
 62
     0
100
AcDbPoint
 10
852.7455575868316
 20
233.2038507468494
 30
0.0
  0
POINT
  5
67D5
330
5A4F
100
AcDbEntity
  8
Defpoints
 62
     0
100
AcDbPoint
 10
852.7455575868316
 20
208.2038507468494
 30
0.0
  0
POINT
  5
67D6
330
5A4F
100
AcDbEntity
  8
Defpoints
 62
     0
100
AcDbPoint
 10
800.0172276805916
 20
208.2038507468495
 30
0.0
  0
ENDBLK
  5
5A5A
330
5A4F
100
AcDbEntity
  8
0
100
AcDbBlockEnd
  0
BLOCK
  5
5A65
330
5A5B
100
AcDbEntity
  8
0
100
AcDbBlockBegin
  2
*D32
 70
     1
 10
0.0
 20
0.0
 30
0.0
  3
*D32
  1

  0
LINE
  5
67C5
330
5A5B
100
AcDbEntity
  8
sunpo
 62
     3
370
     9
100
AcDbLine
 10
876.7455575868316
 20
730.2123797339234
 30
0.0
 11
779.2060439671859
 21
730.2123797339234
 31
0.0
  0
LINE
  5
67C6
330
5A5B
100
AcDbEntity
  8
sunpo
 62
     3
370
     9
100
AcDbLine
 10
876.7455575868316
 20
695.2123797339234
 30
0.0
 11
779.2060439671859
 21
695.2123797339234
 31
0.0
  0
LINE
  5
67C7
330
5A5B
100
AcDbEntity
  8
sunpo
 62
     3
370
     9
100
AcDbLine
 10
781.2060439671859
 20
730.2123797339234
 30
0.0
 11
781.2060439671859
 21
695.2123797339234
 31
0.0
  0
INSERT
  5
67C8
330
5A5B
100
AcDbEntity
  8
sunpo
 62
     3
370
     9
100
AcDbBlockReference
  2
_DotSmall
 10
781.2060439671859
 20
730.2123797339234
 30
0.0
 41
7.0
 42
7.0
 43
7.0
 50
90.0
  0
INSERT
  5
67C9
330
5A5B
100
AcDbEntity
  8
sunpo
 62
     3
370
     9
100
AcDbBlockReference
  2
_DotSmall
 10
781.2060439671859
 20
695.2123797339234
 30
0.0
 41
7.0
 42
7.0
 43
7.0
 50
270.0
  0
MTEXT
  5
67CA
330
5A5B
100
AcDbEntity
  8
sunpo
 62
     2
100
AcDbMText
 10
777.0060439671857
 20
712.7123797339236
 30
0.0
 40
6.0
 41
0.0
 71
     5
 72
     1
  1
35
  7
Std
 11
0.0000000000000001
 21
1.0
 31
0.0
 73
     1
 44
1.0
  0
POINT
  5
67CB
330
5A5B
100
AcDbEntity
  8
Defpoints
 62
     0
100
AcDbPoint
 10
880.7455575868315
 20
730.2123797339234
 30
0.0
  0
POINT
  5
67CC
330
5A5B
100
AcDbEntity
  8
Defpoints
 62
     0
100
AcDbPoint
 10
880.7455575868315
 20
695.2123797339234
 30
0.0
  0
POINT
  5
67CD
330
5A5B
100
AcDbEntity
  8
Defpoints
 62
     0
100
AcDbPoint
 10
781.2060439671859
 20
695.2123797339234
 30
0.0
  0
ENDBLK
  5
5A66
330
5A5B
100
AcDbEntity
  8
0
100
AcDbBlockEnd
  0
BLOCK
  5
5A71
330
5A67
100
AcDbEntity
  8
0
100
AcDbBlockBegin
  2
*D33
 70
     1
 10
0.0
 20
0.0
 30
0.0
  3
*D33
  1

  0
LINE
  5
67BC
330
5A67
100
AcDbEntity
  8
sunpo
 62
     3
370
     9
100
AcDbLine
 10
876.7455575868316
 20
697.2123797339234
 30
0.0
 11
798.0172276805915
 21
697.2123797339234
 31
0.0
  0
LINE
  5
67BD
330
5A67
100
AcDbEntity
  8
sunpo
 62
     3
370
     9
100
AcDbLine
 10
876.7455575868316
 20
730.2123797339234
 30
0.0
 11
798.0172276805915
 21
730.2123797339234
 31
0.0
  0
LINE
  5
67BE
330
5A67
100
AcDbEntity
  8
sunpo
 62
     3
370
     9
100
AcDbLine
 10
800.0172276805916
 20
697.2123797339234
 30
0.0
 11
800.0172276805916
 21
730.2123797339234
 31
0.0
  0
INSERT
  5
67BF
330
5A67
100
AcDbEntity
  8
sunpo
 62
     3
370
     9
100
AcDbBlockReference
  2
_DotSmall
 10
800.0172276805916
 20
697.2123797339234
 30
0.0
 41
7.0
 42
7.0
 43
7.0
 50
270.0
  0
INSERT
  5
67C0
330
5A67
100
AcDbEntity
  8
sunpo
 62
     3
370
     9
100
AcDbBlockReference
  2
_DotSmall
 10
800.0172276805916
 20
730.2123797339234
 30
0.0
 41
7.0
 42
7.0
 43
7.0
 50
90.0
  0
MTEXT
  5
67C1
330
5A67
100
AcDbEntity
  8
sunpo
 62
     2
100
AcDbMText
 10
795.8172276805913
 20
713.7123797339236
 30
0.0
 40
6.0
 41
0.0
 71
     5
 72
     1
  1
33
  7
Std
 11
0.0000000000000001
 21
1.0
 31
0.0
 73
     1
 44
1.0
  0
POINT
  5
67C2
330
5A67
100
AcDbEntity
  8
Defpoints
 62
     0
100
AcDbPoint
 10
880.7455575868315
 20
697.2123797339234
 30
0.0
  0
POINT
  5
67C3
330
5A67
100
AcDbEntity
  8
Defpoints
 62
     0
100
AcDbPoint
 10
880.7455575868315
 20
730.2123797339234
 30
0.0
  0
POINT
  5
67C4
330
5A67
100
AcDbEntity
  8
Defpoints
 62
     0
100
AcDbPoint
 10
800.0172276805916
 20
730.2123797339234
 30
0.0
  0
ENDBLK
  5
5A72
330
5A67
100
AcDbEntity
  8
0
100
AcDbBlockEnd
  0
BLOCK
  5
5A7D
330
5A73
100
AcDbEntity
  8
0
100
AcDbBlockBegin
  2
*D34
 70
     1
 10
0.0
 20
0.0
 30
0.0
  3
*D34
  1

  0
LINE
  5
6992
330
5A73
100
AcDbEntity
  8
sunpo
 62
     3
370
     9
100
AcDbLine
 10
840.7455575868317
 20
245.2098606592822
 30
0.0
 11
779.2060439671858
 21
245.2098606592822
 31
0.0
  0
LINE
  5
6993
330
5A73
100
AcDbEntity
  8
sunpo
 62
     3
370
     9
100
AcDbLine
 10
876.7455575868316
 20
695.2123797339234
 30
0.0
 11
779.2060439671859
 21
695.2123797339234
 31
0.0
  0
LINE
  5
6994
330
5A73
100
AcDbEntity
  8
sunpo
 62
     3
370
     9
100
AcDbLine
 10
781.2060439671857
 20
245.2098606592822
 30
0.0
 11
781.2060439671859
 21
695.2123797339234
 31
0.0
  0
INSERT
  5
6995
330
5A73
100
AcDbEntity
  8
sunpo
 62
     3
370
     9
100
AcDbBlockReference
  2
_DotSmall
 10
781.2060439671857
 20
245.2098606592822
 30
0.0
 41
7.0
 42
7.0
 43
7.0
 50
270.0
  0
INSERT
  5
6996
330
5A73
100
AcDbEntity
  8
sunpo
 62
     3
370
     9
100
AcDbBlockReference
  2
_DotSmall
 10
781.2060439671859
 20
695.2123797339234
 30
0.0
 41
7.0
 42
7.0
 43
7.0
 50
90.0
  0
MTEXT
  5
6997
330
5A73
100
AcDbEntity
  8
sunpo
 62
     2
100
AcDbMText
 10
777.0060439671857
 20
470.211120196603
 30
0.0
 40
6.0
 41
0.0
 71
     5
 72
     1
  1
H
  7
Std
 11
0.0000000000000001
 21
1.0
 31
0.0
 73
     1
 44
1.0
  0
POINT
  5
6998
330
5A73
100
AcDbEntity
  8
Defpoints
 62
     0
100
AcDbPoint
 10
844.7455575868316
 20
245.2098606592822
 30
0.0
  0
POINT
  5
6999
330
5A73
100
AcDbEntity
  8
Defpoints
 62
     0
100
AcDbPoint
 10
880.7455575868315
 20
695.2123797339234
 30
0.0
  0
POINT
  5
699A
330
5A73
100
AcDbEntity
  8
Defpoints
 62
     0
100
AcDbPoint
 10
781.2060439671859
 20
695.2123797339234
 30
0.0
  0
ENDBLK
  5
5A7E
330
5A73
100
AcDbEntity
  8
0
100
AcDbBlockEnd
  0
BLOCK
  5
5A89
330
5A7F
100
AcDbEntity
  8
0
100
AcDbBlockBegin
  2
*D35
 70
     1
 10
0.0
 20
0.0
 30
0.0
  3
*D35
  1

  0
LINE
  5
67AA
330
5A7F
100
AcDbEntity
  8
sunpo
 62
     3
370
     9
100
AcDbLine
 10
957.7455575868317
 20
610.4645628081482
 30
0.0
 11
957.7455575868317
 21
578.4645628081482
 31
0.0
  0
LINE
  5
67AB
330
5A7F
100
AcDbEntity
  8
sunpo
 62
     3
370
     9
100
AcDbLine
 10
997.7455575868203
 20
610.4645628081482
 30
0.0
 11
997.7455575868203
 21
578.4645628081482
 31
0.0
  0
LINE
  5
67AC
330
5A7F
100
AcDbEntity
  8
sunpo
 62
     3
370
     9
100
AcDbLine
 10
957.7455575868317
 20
580.4645628081482
 30
0.0
 11
997.7455575868203
 21
580.4645628081482
 31
0.0
  0
INSERT
  5
67AD
330
5A7F
100
AcDbEntity
  8
sunpo
 62
     3
370
     9
100
AcDbBlockReference
  2
_DotSmall
 10
957.7455575868317
 20
580.4645628081482
 30
0.0
 41
7.0
 42
7.0
 43
7.0
 50
180.0
  0
INSERT
  5
67AE
330
5A7F
100
AcDbEntity
  8
sunpo
 62
     3
370
     9
100
AcDbBlockReference
  2
_DotSmall
 10
997.7455575868203
 20
580.4645628081482
 30
0.0
 41
7.0
 42
7.0
 43
7.0
  0
MTEXT
  5
67AF
330
5A7F
100
AcDbEntity
  8
sunpo
 62
     2
100
AcDbMText
 10
977.7455575868259
 20
584.6645628081482
 30
0.0
 40
6.0
 41
0.0
 71
     5
 72
     1
  1
40
  7
Std
 73
     1
 44
1.0
  0
POINT
  5
67B0
330
5A7F
100
AcDbEntity
  8
Defpoints
 62
     0
100
AcDbPoint
 10
957.7455575868317
 20
614.4645628081482
 30
0.0
  0
POINT
  5
67B1
330
5A7F
100
AcDbEntity
  8
Defpoints
 62
     0
100
AcDbPoint
 10
997.7455575868203
 20
614.4645628081482
 30
0.0
  0
POINT
  5
67B2
330
5A7F
100
AcDbEntity
  8
Defpoints
 62
     0
100
AcDbPoint
 10
997.7455575868203
 20
580.4645628081482
 30
0.0
  0
ENDBLK
  5
5A8A
330
5A7F
100
AcDbEntity
  8
0
100
AcDbBlockEnd
  0
BLOCK
  5
5A95
330
5A8B
100
AcDbEntity
  8
0
100
AcDbBlockBegin
  2
*D36
 70
     1
 10
0.0
 20
0.0
 30
0.0
  3
*D36
  1

  0
LINE
  5
67A1
330
5A8B
100
AcDbEntity
  8
sunpo
 62
     3
370
     9
100
AcDbLine
 10
957.7455575868317
 20
610.4645628081482
 30
0.0
 11
957.7455575868317
 21
578.4645628081482
 31
0.0
  0
LINE
  5
67A2
330
5A8B
100
AcDbEntity
  8
sunpo
 62
     3
370
     9
100
AcDbLine
 10
945.7455575868316
 20
610.4645628081482
 30
0.0
 11
945.7455575868316
 21
578.4645628081482
 31
0.0
  0
LINE
  5
67A3
330
5A8B
100
AcDbEntity
  8
sunpo
 62
     3
370
     9
100
AcDbLine
 10
957.7455575868317
 20
580.4645628081482
 30
0.0
 11
945.7455575868316
 21
580.4645628081482
 31
0.0
  0
MTEXT
  5
67A4
330
5A8B
100
AcDbEntity
  8
sunpo
 62
     2
100
AcDbMText
 10
952.655833108518
 20
574.5776904814593
 30
0.0
 40
6.0
 41
0.0
 71
     5
 72
     1
  1
12
  7
Std
 73
     1
 44
1.0
  0
INSERT
  5
67A5
330
5A8B
100
AcDbEntity
  8
sunpo
 62
     3
370
     9
100
AcDbBlockReference
  2
_DotSmall
 10
957.7455575868317
 20
580.4645628081482
 30
0.0
 41
7.0
 42
7.0
 43
7.0
  0
INSERT
  5
67A6
330
5A8B
100
AcDbEntity
  8
sunpo
 62
     3
370
     9
100
AcDbBlockReference
  2
_DotSmall
 10
945.7455575868316
 20
580.4645628081482
 30
0.0
 41
7.0
 42
7.0
 43
7.0
 50
180.0
  0
POINT
  5
67A7
330
5A8B
100
AcDbEntity
  8
Defpoints
 62
     0
100
AcDbPoint
 10
957.7455575868317
 20
614.4645628081482
 30
0.0
  0
POINT
  5
67A8
330
5A8B
100
AcDbEntity
  8
Defpoints
 62
     0
100
AcDbPoint
 10
945.7455575868316
 20
614.4645628081482
 30
0.0
  0
POINT
  5
67A9
330
5A8B
100
AcDbEntity
  8
Defpoints
 62
     0
100
AcDbPoint
 10
945.7455575868316
 20
580.4645628081482
 30
0.0
  0
ENDBLK
  5
5A96
330
5A8B
100
AcDbEntity
  8
0
100
AcDbBlockEnd
  0
BLOCK
  5
5AA1
330
5A97
100
AcDbEntity
  8
0
100
AcDbBlockBegin
  2
*D37
 70
     1
 10
0.0
 20
0.0
 30
0.0
  3
*D37
  1

  0
LINE
  5
6798
330
5A97
100
AcDbEntity
  8
sunpo
 62
     3
370
     9
100
AcDbLine
 10
945.7455575868316
 20
610.4645628081482
 30
0.0
 11
945.7455575868316
 21
578.4645628081482
 31
0.0
  0
LINE
  5
6799
330
5A97
100
AcDbEntity
  8
sunpo
 62
     3
370
     9
100
AcDbLine
 10
940.7455575868317
 20
610.574014548092
 30
0.0
 11
940.7455575868317
 21
578.4645628081482
 31
0.0
  0
LINE
  5
679A
330
5A97
100
AcDbEntity
  8
sunpo
 62
     3
370
     9
100
AcDbLine
 10
945.7455575868316
 20
580.4645628081482
 30
0.0
 11
940.7455575868317
 21
580.4645628081482
 31
0.0
  0
MTEXT
  5
679B
330
5A97
100
AcDbEntity
  8
sunpo
 62
     2
100
AcDbMText
 10
943.1200562808516
 20
585.7278856240518
 30
0.0
 40
6.0
 41
0.0
 71
     5
 72
     1
  1
5
  7
Std
 73
     1
 44
1.0
  0
INSERT
  5
679C
330
5A97
100
AcDbEntity
  8
sunpo
 62
     3
370
     9
100
AcDbBlockReference
  2
_DotSmall
 10
945.7455575868316
 20
580.4645628081482
 30
0.0
 41
7.0
 42
7.0
 43
7.0
  0
INSERT
  5
679D
330
5A97
100
AcDbEntity
  8
sunpo
 62
     3
370
     9
100
AcDbBlockReference
  2
_DotSmall
 10
940.7455575868317
 20
580.4645628081482
 30
0.0
 41
7.0
 42
7.0
 43
7.0
 50
180.0
  0
POINT
  5
679E
330
5A97
100
AcDbEntity
  8
Defpoints
 62
     0
100
AcDbPoint
 10
945.7455575868316
 20
614.4645628081482
 30
0.0
  0
POINT
  5
679F
330
5A97
100
AcDbEntity
  8
Defpoints
 62
     0
100
AcDbPoint
 10
940.7455575868317
 20
614.574014548092
 30
0.0
  0
POINT
  5
67A0
330
5A97
100
AcDbEntity
  8
Defpoints
 62
     0
100
AcDbPoint
 10
940.7455575868317
 20
580.4645628081482
 30
0.0
  0
ENDBLK
  5
5AA2
330
5A97
100
AcDbEntity
  8
0
100
AcDbBlockEnd
  0
BLOCK
  5
5AAD
330
5AA3
100
AcDbEntity
  8
0
100
AcDbBlockBegin
  2
*D38
 70
     1
 10
0.0
 20
0.0
 30
0.0
  3
*D38
  1

  0
LINE
  5
678F
330
5AA3
100
AcDbEntity
  8
sunpo
 62
     3
370
     9
100
AcDbLine
 10
1047.74555758682
 20
610.4645628081482
 30
0.0
 11
1047.74555758682
 21
602.4645628081482
 31
0.0
  0
LINE
  5
6790
330
5AA3
100
AcDbEntity
  8
sunpo
 62
     3
370
     9
100
AcDbLine
 10
1017.74555758682
 20
610.4645628081482
 30
0.0
 11
1017.74555758682
 21
602.4645628081482
 31
0.0
  0
LINE
  5
6791
330
5AA3
100
AcDbEntity
  8
sunpo
 62
     3
370
     9
100
AcDbLine
 10
1047.74555758682
 20
604.4645628081482
 30
0.0
 11
1017.74555758682
 21
604.4645628081482
 31
0.0
  0
INSERT
  5
6792
330
5AA3
100
AcDbEntity
  8
sunpo
 62
     3
370
     9
100
AcDbBlockReference
  2
_DotSmall
 10
1047.74555758682
 20
604.4645628081482
 30
0.0
 41
7.0
 42
7.0
 43
7.0
  0
INSERT
  5
6793
330
5AA3
100
AcDbEntity
  8
sunpo
 62
     3
370
     9
100
AcDbBlockReference
  2
_DotSmall
 10
1017.74555758682
 20
604.4645628081482
 30
0.0
 41
7.0
 42
7.0
 43
7.0
 50
180.0
  0
MTEXT
  5
6794
330
5AA3
100
AcDbEntity
  8
sunpo
 62
     2
100
AcDbMText
 10
1032.74555758682
 20
608.6645628081482
 30
0.0
 40
6.0
 41
0.0
 71
     5
 72
     1
  1
30
  7
Std
 73
     1
 44
1.0
  0
POINT
  5
6795
330
5AA3
100
AcDbEntity
  8
Defpoints
 62
     0
100
AcDbPoint
 10
1047.74555758682
 20
614.4645628081482
 30
0.0
  0
POINT
  5
6796
330
5AA3
100
AcDbEntity
  8
Defpoints
 62
     0
100
AcDbPoint
 10
1017.74555758682
 20
614.4645628081482
 30
0.0
  0
POINT
  5
6797
330
5AA3
100
AcDbEntity
  8
Defpoints
 62
     0
100
AcDbPoint
 10
1017.74555758682
 20
604.4645628081482
 30
0.0
  0
ENDBLK
  5
5AAE
330
5AA3
100
AcDbEntity
  8
0
100
AcDbBlockEnd
  0
BLOCK
  5
5AB9
330
5AAF
100
AcDbEntity
  8
0
100
AcDbBlockBegin
  2
*D39
 70
     1
 10
0.0
 20
0.0
 30
0.0
  3
*D39
  1

  0
LINE
  5
6786
330
5AAF
100
AcDbEntity
  8
sunpo
 62
     3
370
     9
100
AcDbLine
 10
1047.74555758682
 20
610.4645628081482
 30
0.0
 11
1047.74555758682
 21
602.4645628081482
 31
0.0
  0
LINE
  5
6787
330
5AAF
100
AcDbEntity
  8
sunpo
 62
     3
370
     9
100
AcDbLine
 10
1072.74555758682
 20
610.4645628081482
 30
0.0
 11
1072.74555758682
 21
602.4645628081482
 31
0.0
  0
LINE
  5
6788
330
5AAF
100
AcDbEntity
  8
sunpo
 62
     3
370
     9
100
AcDbLine
 10
1047.74555758682
 20
604.4645628081482
 30
0.0
 11
1072.74555758682
 21
604.4645628081482
 31
0.0
  0
INSERT
  5
6789
330
5AAF
100
AcDbEntity
  8
sunpo
 62
     3
370
     9
100
AcDbBlockReference
  2
_DotSmall
 10
1047.74555758682
 20
604.4645628081482
 30
0.0
 41
7.0
 42
7.0
 43
7.0
 50
180.0
  0
INSERT
  5
678A
330
5AAF
100
AcDbEntity
  8
sunpo
 62
     3
370
     9
100
AcDbBlockReference
  2
_DotSmall
 10
1072.74555758682
 20
604.4645628081482
 30
0.0
 41
7.0
 42
7.0
 43
7.0
  0
MTEXT
  5
678B
330
5AAF
100
AcDbEntity
  8
sunpo
 62
     2
100
AcDbMText
 10
1060.24555758682
 20
608.6645628081482
 30
0.0
 40
6.0
 41
0.0
 71
     5
 72
     1
  1
25
  7
Std
 73
     1
 44
1.0
  0
POINT
  5
678C
330
5AAF
100
AcDbEntity
  8
Defpoints
 62
     0
100
AcDbPoint
 10
1047.74555758682
 20
614.4645628081482
 30
0.0
  0
POINT
  5
678D
330
5AAF
100
AcDbEntity
  8
Defpoints
 62
     0
100
AcDbPoint
 10
1072.74555758682
 20
614.4645628081482
 30
0.0
  0
POINT
  5
678E
330
5AAF
100
AcDbEntity
  8
Defpoints
 62
     0
100
AcDbPoint
 10
1072.74555758682
 20
604.4645628081482
 30
0.0
  0
ENDBLK
  5
5ABA
330
5AAF
100
AcDbEntity
  8
0
100
AcDbBlockEnd
  0
BLOCK
  5
5AC5
330
5ABB
100
AcDbEntity
  8
0
100
AcDbBlockBegin
  2
*D40
 70
     1
 10
0.0
 20
0.0
 30
0.0
  3
*D40
  1

  0
LINE
  5
677D
330
5ABB
100
AcDbEntity
  8
sunpo
 62
     3
370
     9
100
AcDbLine
 10
997.7455575868203
 20
610.4645628081482
 30
0.0
 11
997.7455575868203
 21
578.4645628081482
 31
0.0
  0
LINE
  5
677E
330
5ABB
100
AcDbEntity
  8
sunpo
 62
     3
370
     9
100
AcDbLine
 10
1017.74555758682
 20
610.4645628081482
 30
0.0
 11
1017.74555758682
 21
578.4645628081482
 31
0.0
  0
LINE
  5
677F
330
5ABB
100
AcDbEntity
  8
sunpo
 62
     3
370
     9
100
AcDbLine
 10
997.7455575868203
 20
580.4645628081482
 30
0.0
 11
1017.74555758682
 21
580.4645628081482
 31
0.0
  0
INSERT
  5
6780
330
5ABB
100
AcDbEntity
  8
sunpo
 62
     3
370
     9
100
AcDbBlockReference
  2
_DotSmall
 10
997.7455575868203
 20
580.4645628081482
 30
0.0
 41
7.0
 42
7.0
 43
7.0
 50
180.0
  0
INSERT
  5
6781
330
5ABB
100
AcDbEntity
  8
sunpo
 62
     3
370
     9
100
AcDbBlockReference
  2
_DotSmall
 10
1017.74555758682
 20
580.4645628081482
 30
0.0
 41
7.0
 42
7.0
 43
7.0
  0
MTEXT
  5
6782
330
5ABB
100
AcDbEntity
  8
sunpo
 62
     2
100
AcDbMText
 10
1007.74555758682
 20
584.6645628081482
 30
0.0
 40
6.0
 41
0.0
 71
     5
 72
     1
  1
20
  7
Std
 73
     1
 44
1.0
  0
POINT
  5
6783
330
5ABB
100
AcDbEntity
  8
Defpoints
 62
     0
100
AcDbPoint
 10
997.7455575868203
 20
614.4645628081482
 30
0.0
  0
POINT
  5
6784
330
5ABB
100
AcDbEntity
  8
Defpoints
 62
     0
100
AcDbPoint
 10
1017.74555758682
 20
614.4645628081482
 30
0.0
  0
POINT
  5
6785
330
5ABB
100
AcDbEntity
  8
Defpoints
 62
     0
100
AcDbPoint
 10
1017.74555758682
 20
580.4645628081482
 30
0.0
  0
ENDBLK
  5
5AC6
330
5ABB
100
AcDbEntity
  8
0
100
AcDbBlockEnd
  0
BLOCK
  5
5AD1
330
5AC7
100
AcDbEntity
  8
0
100
AcDbBlockBegin
  2
*D41
 70
     1
 10
0.0
 20
0.0
 30
0.0
  3
*D41
  1

  0
LINE
  5
6774
330
5AC7
100
AcDbEntity
  8
sunpo
 62
     3
370
     9
100
AcDbLine
 10
940.7455575868317
 20
364.1114604256079
 30
0.0
 11
940.7455575868317
 21
369.1114604256079
 31
0.0
  0
LINE
  5
6775
330
5AC7
100
AcDbEntity
  8
sunpo
 62
     3
370
     9
100
AcDbLine
 10
1072.74555758682
 20
348.1114604256079
 30
0.0
 11
1072.74555758682
 21
369.1114604256079
 31
0.0
  0
LINE
  5
6776
330
5AC7
100
AcDbEntity
  8
sunpo
 62
     3
370
     9
100
AcDbLine
 10
940.7455575868317
 20
367.1114604256079
 30
0.0
 11
1072.74555758682
 21
367.1114604256079
 31
0.0
  0
INSERT
  5
6777
330
5AC7
100
AcDbEntity
  8
sunpo
 62
     3
370
     9
100
AcDbBlockReference
  2
_DotSmall
 10
940.7455575868317
 20
367.1114604256079
 30
0.0
 41
7.0
 42
7.0
 43
7.0
 50
180.0
  0
INSERT
  5
6778
330
5AC7
100
AcDbEntity
  8
sunpo
 62
     3
370
     9
100
AcDbBlockReference
  2
_DotSmall
 10
1072.74555758682
 20
367.1114604256079
 30
0.0
 41
7.0
 42
7.0
 43
7.0
  0
MTEXT
  5
6779
330
5AC7
100
AcDbEntity
  8
sunpo
 62
     2
100
AcDbMText
 10
1006.745557586826
 20
371.3114604256079
 30
0.0
 40
6.0
 41
0.0
 71
     5
 72
     1
  1
132
  7
Std
 73
     1
 44
1.0
  0
POINT
  5
677A
330
5AC7
100
AcDbEntity
  8
Defpoints
 62
     0
100
AcDbPoint
 10
940.7455575868317
 20
360.1114604256079
 30
0.0
  0
POINT
  5
677B
330
5AC7
100
AcDbEntity
  8
Defpoints
 62
     0
100
AcDbPoint
 10
1072.74555758682
 20
344.1114604256079
 30
0.0
  0
POINT
  5
677C
330
5AC7
100
AcDbEntity
  8
Defpoints
 62
     0
100
AcDbPoint
 10
1072.74555758682
 20
367.1114604256079
 30
0.0
  0
ENDBLK
  5
5AD2
330
5AC7
100
AcDbEntity
  8
0
100
AcDbBlockEnd
  0
BLOCK
  5
5ADD
330
5AD3
100
AcDbEntity
  8
0
100
AcDbBlockBegin
  2
*D42
 70
     1
 10
0.0
 20
0.0
 30
0.0
  3
*D42
  1

  0
LINE
  5
676B
330
5AD3
100
AcDbEntity
  8
sunpo
 62
     3
370
     9
100
AcDbLine
 10
856.7455575868317
 20
301.1742534224372
 30
0.0
 11
856.7455575868317
 21
369.1114604256079
 31
0.0
  0
LINE
  5
676C
330
5AD3
100
AcDbEntity
  8
sunpo
 62
     3
370
     9
100
AcDbLine
 10
940.7455575868317
 20
364.1114604256079
 30
0.0
 11
940.7455575868317
 21
369.1114604256079
 31
0.0
  0
LINE
  5
676D
330
5AD3
100
AcDbEntity
  8
sunpo
 62
     3
370
     9
100
AcDbLine
 10
856.7455575868317
 20
367.1114604256079
 30
0.0
 11
940.7455575868317
 21
367.1114604256079
 31
0.0
  0
INSERT
  5
676E
330
5AD3
100
AcDbEntity
  8
sunpo
 62
     3
370
     9
100
AcDbBlockReference
  2
_DotSmall
 10
856.7455575868317
 20
367.1114604256079
 30
0.0
 41
7.0
 42
7.0
 43
7.0
 50
180.0
  0
INSERT
  5
676F
330
5AD3
100
AcDbEntity
  8
sunpo
 62
     3
370
     9
100
AcDbBlockReference
  2
_DotSmall
 10
940.7455575868317
 20
367.1114604256079
 30
0.0
 41
7.0
 42
7.0
 43
7.0
  0
MTEXT
  5
6770
330
5AD3
100
AcDbEntity
  8
sunpo
 62
     2
100
AcDbMText
 10
898.7455575868317
 20
371.3114604256079
 30
0.0
 40
6.0
 41
0.0
 71
     5
 72
     1
  1
84
  7
Std
 73
     1
 44
1.0
  0
POINT
  5
6771
330
5AD3
100
AcDbEntity
  8
Defpoints
 62
     0
100
AcDbPoint
 10
856.7455575868317
 20
297.1742534224372
 30
0.0
  0
POINT
  5
6772
330
5AD3
100
AcDbEntity
  8
Defpoints
 62
     0
100
AcDbPoint
 10
940.7455575868317
 20
360.1114604256079
 30
0.0
  0
POINT
  5
6773
330
5AD3
100
AcDbEntity
  8
Defpoints
 62
     0
100
AcDbPoint
 10
940.7455575868317
 20
367.1114604256079
 30
0.0
  0
ENDBLK
  5
5ADE
330
5AD3
100
AcDbEntity
  8
0
100
AcDbBlockEnd
  0
BLOCK
  5
5AE9
330
5ADF
100
AcDbEntity
  8
0
100
AcDbBlockBegin
  2
*D43
 70
     1
 10
0.0
 20
0.0
 30
0.0
  3
*D43
  1

  0
LINE
  5
66F3
330
5ADF
100
AcDbEntity
  8
sunpo
 62
     3
370
     9
100
AcDbLine
 10
129.169559582652
 20
497.0884977633584
 30
0.0
 11
129.169559582652
 21
401.0884977633584
 31
0.0
  0
LINE
  5
66F4
330
5ADF
100
AcDbEntity
  8
sunpo
 62
     3
370
     9
100
AcDbLine
 10
164.169559582652
 20
497.0884977633584
 30
0.0
 11
164.169559582652
 21
401.0884977633584
 31
0.0
  0
LINE
  5
66F5
330
5ADF
100
AcDbEntity
  8
sunpo
 62
     3
370
     9
100
AcDbLine
 10
129.169559582652
 20
403.0884977633584
 30
0.0
 11
164.169559582652
 21
403.0884977633584
 31
0.0
  0
INSERT
  5
66F6
330
5ADF
100
AcDbEntity
  8
sunpo
 62
     3
370
     9
100
AcDbBlockReference
  2
_DotSmall
 10
129.169559582652
 20
403.0884977633584
 30
0.0
 41
7.0
 42
7.0
 43
7.0
 50
180.0
  0
INSERT
  5
66F7
330
5ADF
100
AcDbEntity
  8
sunpo
 62
     3
370
     9
100
AcDbBlockReference
  2
_DotSmall
 10
164.169559582652
 20
403.0884977633584
 30
0.0
 41
7.0
 42
7.0
 43
7.0
  0
MTEXT
  5
66F8
330
5ADF
100
AcDbEntity
  8
sunpo
 62
     2
100
AcDbMText
 10
146.669559582652
 20
407.2884977633584
 30
0.0
 40
6.0
 41
0.0
 71
     5
 72
     1
  1
35
  7
Std
 73
     1
 44
1.0
  0
POINT
  5
66F9
330
5ADF
100
AcDbEntity
  8
Defpoints
 62
     0
100
AcDbPoint
 10
129.169559582652
 20
501.0884977633584
 30
0.0
  0
POINT
  5
66FA
330
5ADF
100
AcDbEntity
  8
Defpoints
 62
     0
100
AcDbPoint
 10
164.169559582652
 20
501.0884977633584
 30
0.0
  0
POINT
  5
66FB
330
5ADF
100
AcDbEntity
  8
Defpoints
 62
     0
100
AcDbPoint
 10
164.169559582652
 20
403.0884977633584
 30
0.0
  0
ENDBLK
  5
5AEA
330
5ADF
100
AcDbEntity
  8
0
100
AcDbBlockEnd
  0
BLOCK
  5
5AF5
330
5AEB
100
AcDbEntity
  8
0
100
AcDbBlockBegin
  2
*D44
 70
     1
 10
0.0
 20
0.0
 30
0.0
  3
*D44
  1

  0
LINE
  5
6762
330
5AEB
100
AcDbEntity
  8
sunpo
 62
     3
370
     9
100
AcDbLine
 10
906.7455575868317
 20
697.2123797339234
 30
0.0
 11
798.0172276805915
 21
697.2123797339234
 31
0.0
  0
LINE
  5
6763
330
5AEB
100
AcDbEntity
  8
sunpo
 62
     3
370
     9
100
AcDbLine
 10
906.7455575868317
 20
673.2123797339234
 30
0.0
 11
798.0172276805915
 21
673.2123797339234
 31
0.0
  0
LINE
  5
6764
330
5AEB
100
AcDbEntity
  8
sunpo
 62
     3
370
     9
100
AcDbLine
 10
800.0172276805916
 20
697.2123797339234
 30
0.0
 11
800.0172276805916
 21
673.2123797339234
 31
0.0
  0
INSERT
  5
6765
330
5AEB
100
AcDbEntity
  8
sunpo
 62
     3
370
     9
100
AcDbBlockReference
  2
_DotSmall
 10
800.0172276805916
 20
697.2123797339234
 30
0.0
 41
7.0
 42
7.0
 43
7.0
 50
90.0
  0
INSERT
  5
6766
330
5AEB
100
AcDbEntity
  8
sunpo
 62
     3
370
     9
100
AcDbBlockReference
  2
_DotSmall
 10
800.0172276805916
 20
673.2123797339234
 30
0.0
 41
7.0
 42
7.0
 43
7.0
 50
270.0
  0
MTEXT
  5
6767
330
5AEB
100
AcDbEntity
  8
sunpo
 62
     2
100
AcDbMText
 10
795.8172276805913
 20
685.2123797339236
 30
0.0
 40
6.0
 41
0.0
 71
     5
 72
     1
  1
24
  7
Std
 11
0.0000000000000001
 21
1.0
 31
0.0
 73
     1
 44
1.0
  0
POINT
  5
6768
330
5AEB
100
AcDbEntity
  8
Defpoints
 62
     0
100
AcDbPoint
 10
910.7455575868316
 20
697.2123797339234
 30
0.0
  0
POINT
  5
6769
330
5AEB
100
AcDbEntity
  8
Defpoints
 62
     0
100
AcDbPoint
 10
910.7455575868316
 20
673.2123797339234
 30
0.0
  0
POINT
  5
676A
330
5AEB
100
AcDbEntity
  8
Defpoints
 62
     0
100
AcDbPoint
 10
800.0172276805916
 20
673.2123797339234
 30
0.0
  0
ENDBLK
  5
5AF6
330
5AEB
100
AcDbEntity
  8
0
100
AcDbBlockEnd
  0
BLOCK
  5
5B01
330
5AF7
100
AcDbEntity
  8
0
100
AcDbBlockBegin
  2
*D45
 70
     1
 10
0.0
 20
0.0
 30
0.0
  3
*D45
  1

  0
LINE
  5
6759
330
5AF7
100
AcDbEntity
  8
sunpo
 62
     3
370
     9
100
AcDbLine
 10
1017.74555758682
 20
610.4645628081482
 30
0.0
 11
1017.74555758682
 21
578.4645628081482
 31
0.0
  0
LINE
  5
675A
330
5AF7
100
AcDbEntity
  8
sunpo
 62
     3
370
     9
100
AcDbLine
 10
1072.74555758682
 20
610.4645628081482
 30
0.0
 11
1072.74555758682
 21
578.4645628081482
 31
0.0
  0
LINE
  5
675B
330
5AF7
100
AcDbEntity
  8
sunpo
 62
     3
370
     9
100
AcDbLine
 10
1017.74555758682
 20
580.4645628081482
 30
0.0
 11
1072.74555758682
 21
580.4645628081482
 31
0.0
  0
INSERT
  5
675C
330
5AF7
100
AcDbEntity
  8
sunpo
 62
     3
370
     9
100
AcDbBlockReference
  2
_DotSmall
 10
1017.74555758682
 20
580.4645628081482
 30
0.0
 41
7.0
 42
7.0
 43
7.0
 50
180.0
  0
INSERT
  5
675D
330
5AF7
100
AcDbEntity
  8
sunpo
 62
     3
370
     9
100
AcDbBlockReference
  2
_DotSmall
 10
1072.74555758682
 20
580.4645628081482
 30
0.0
 41
7.0
 42
7.0
 43
7.0
  0
MTEXT
  5
675E
330
5AF7
100
AcDbEntity
  8
sunpo
 62
     2
100
AcDbMText
 10
1045.24555758682
 20
584.6645628081482
 30
0.0
 40
6.0
 41
0.0
 71
     5
 72
     1
  1
55
  7
Std
 73
     1
 44
1.0
  0
POINT
  5
675F
330
5AF7
100
AcDbEntity
  8
Defpoints
 62
     0
100
AcDbPoint
 10
1017.74555758682
 20
614.4645628081482
 30
0.0
  0
POINT
  5
6760
330
5AF7
100
AcDbEntity
  8
Defpoints
 62
     0
100
AcDbPoint
 10
1072.74555758682
 20
614.4645628081482
 30
0.0
  0
POINT
  5
6761
330
5AF7
100
AcDbEntity
  8
Defpoints
 62
     0
100
AcDbPoint
 10
1072.74555758682
 20
580.4645628081482
 30
0.0
  0
ENDBLK
  5
5B02
330
5AF7
100
AcDbEntity
  8
0
100
AcDbBlockEnd
  0
BLOCK
  5
5B0D
330
5B03
100
AcDbEntity
  8
0
100
AcDbBlockBegin
  2
*D46
 70
     1
 10
0.0
 20
0.0
 30
0.0
  3
*D46
  1

  0
LINE
  5
66EA
330
5B03
100
AcDbEntity
  8
sunpo
 62
     3
370
     9
100
AcDbLine
 10
409.3695595826636
 20
649.0871843677698
 30
0.0
 11
382.570056154547
 21
649.0871843677698
 31
0.0
  0
LINE
  5
66EB
330
5B03
100
AcDbEntity
  8
sunpo
 62
     3
370
     9
100
AcDbLine
 10
409.3695595826636
 20
672.0884977633586
 30
0.0
 11
382.570056154547
 21
672.0884977633586
 31
0.0
  0
LINE
  5
66EC
330
5B03
100
AcDbEntity
  8
sunpo
 62
     3
370
     9
100
AcDbLine
 10
384.570056154547
 20
649.0871843677698
 30
0.0
 11
384.570056154547
 21
672.0884977633586
 31
0.0
  0
INSERT
  5
66ED
330
5B03
100
AcDbEntity
  8
sunpo
 62
     3
370
     9
100
AcDbBlockReference
  2
_DotSmall
 10
384.570056154547
 20
649.0871843677698
 30
0.0
 41
7.0
 42
7.0
 43
7.0
 50
270.0
  0
INSERT
  5
66EE
330
5B03
100
AcDbEntity
  8
sunpo
 62
     3
370
     9
100
AcDbBlockReference
  2
_DotSmall
 10
384.570056154547
 20
672.0884977633586
 30
0.0
 41
7.0
 42
7.0
 43
7.0
 50
90.0
  0
MTEXT
  5
66EF
330
5B03
100
AcDbEntity
  8
sunpo
 62
     2
100
AcDbMText
 10
380.3700561545469
 20
660.5878410655643
 30
0.0
 40
6.0
 41
0.0
 71
     5
 72
     1
  1
23
  7
Std
 11
0.0000000000000001
 21
1.0
 31
0.0
 73
     1
 44
1.0
  0
POINT
  5
66F0
330
5B03
100
AcDbEntity
  8
Defpoints
 62
     0
100
AcDbPoint
 10
413.3695595826636
 20
649.0871843677698
 30
0.0
  0
POINT
  5
66F1
330
5B03
100
AcDbEntity
  8
Defpoints
 62
     0
100
AcDbPoint
 10
413.3695595826636
 20
672.0884977633586
 30
0.0
  0
POINT
  5
66F2
330
5B03
100
AcDbEntity
  8
Defpoints
 62
     0
100
AcDbPoint
 10
384.570056154547
 20
672.0884977633586
 30
0.0
  0
ENDBLK
  5
5B0E
330
5B03
100
AcDbEntity
  8
0
100
AcDbBlockEnd
  0
BLOCK
  5
5B19
330
5B0F
100
AcDbEntity
  8
0
100
AcDbBlockBegin
  2
*D47
 70
     1
 10
0.0
 20
0.0
 30
0.0
  3
*D47
  1

  0
LINE
  5
66E1
330
5B0F
100
AcDbEntity
  8
sunpo
 62
     3
370
     9
100
AcDbLine
 10
409.3695595826636
 20
615.0871843677698
 30
0.0
 11
382.570056154547
 21
615.0871843677698
 31
0.0
  0
LINE
  5
66E2
330
5B0F
100
AcDbEntity
  8
sunpo
 62
     3
370
     9
100
AcDbLine
 10
409.3695595826636
 20
595.0884977633468
 30
0.0
 11
382.570056154547
 21
595.0884977633468
 31
0.0
  0
LINE
  5
66E3
330
5B0F
100
AcDbEntity
  8
sunpo
 62
     3
370
     9
100
AcDbLine
 10
384.570056154547
 20
615.0871843677698
 30
0.0
 11
384.570056154547
 21
595.0884977633468
 31
0.0
  0
INSERT
  5
66E4
330
5B0F
100
AcDbEntity
  8
sunpo
 62
     3
370
     9
100
AcDbBlockReference
  2
_DotSmall
 10
384.570056154547
 20
615.0871843677698
 30
0.0
 41
7.0
 42
7.0
 43
7.0
 50
90.0
  0
INSERT
  5
66E5
330
5B0F
100
AcDbEntity
  8
sunpo
 62
     3
370
     9
100
AcDbBlockReference
  2
_DotSmall
 10
384.570056154547
 20
595.0884977633468
 30
0.0
 41
7.0
 42
7.0
 43
7.0
 50
270.0
  0
MTEXT
  5
66E6
330
5B0F
100
AcDbEntity
  8
sunpo
 62
     2
100
AcDbMText
 10
380.370056154547
 20
605.0878410655585
 30
0.0
 40
6.0
 41
0.0
 71
     5
 72
     1
  1
20
  7
Std
 11
0.0000000000000001
 21
1.0
 31
0.0
 73
     1
 44
1.0
  0
POINT
  5
66E7
330
5B0F
100
AcDbEntity
  8
Defpoints
 62
     0
100
AcDbPoint
 10
413.3695595826636
 20
615.0871843677698
 30
0.0
  0
POINT
  5
66E8
330
5B0F
100
AcDbEntity
  8
Defpoints
 62
     0
100
AcDbPoint
 10
413.3695595826636
 20
595.0884977633468
 30
0.0
  0
POINT
  5
66E9
330
5B0F
100
AcDbEntity
  8
Defpoints
 62
     0
100
AcDbPoint
 10
384.570056154547
 20
595.0884977633468
 30
0.0
  0
ENDBLK
  5
5B1A
330
5B0F
100
AcDbEntity
  8
0
100
AcDbBlockEnd
  0
BLOCK
  5
5B25
330
5B1B
100
AcDbEntity
  8
0
100
AcDbBlockBegin
  2
*D48
 70
     1
 10
0.0
 20
0.0
 30
0.0
  3
*D48
  1

  0
LINE
  5
66D8
330
5B1B
100
AcDbEntity
  8
sunpo
 62
     3
370
     9
100
AcDbLine
 10
409.3695595826636
 20
649.0871843677698
 30
0.0
 11
382.5700561545471
 21
649.0871843677698
 31
0.0
  0
LINE
  5
66D9
330
5B1B
100
AcDbEntity
  8
sunpo
 62
     3
370
     9
100
AcDbLine
 10
409.3695595826636
 20
615.0871843677698
 30
0.0
 11
382.570056154547
 21
615.0871843677698
 31
0.0
  0
LINE
  5
66DA
330
5B1B
100
AcDbEntity
  8
sunpo
 62
     3
370
     9
100
AcDbLine
 10
384.5700561545471
 20
649.0871843677698
 30
0.0
 11
384.570056154547
 21
615.0871843677698
 31
0.0
  0
MTEXT
  5
66DB
330
5B1B
100
AcDbEntity
  8
sunpo
 62
     2
100
AcDbMText
 10
377.047161000359
 20
632.6543297931712
 30
0.0
 40
6.0
 41
0.0
 71
     5
 72
     1
  1
34
  7
Std
 11
0.0000000000000001
 21
1.0
 31
0.0
 73
     1
 44
1.0
  0
INSERT
  5
66DC
330
5B1B
100
AcDbEntity
  8
sunpo
 62
     3
370
     9
100
AcDbBlockReference
  2
_DotSmall
 10
384.5700561545471
 20
649.0871843677698
 30
0.0
 41
7.0
 42
7.0
 43
7.0
 50
90.0
  0
INSERT
  5
66DD
330
5B1B
100
AcDbEntity
  8
sunpo
 62
     3
370
     9
100
AcDbBlockReference
  2
_DotSmall
 10
384.570056154547
 20
615.0871843677698
 30
0.0
 41
7.0
 42
7.0
 43
7.0
 50
270.0
  0
POINT
  5
66DE
330
5B1B
100
AcDbEntity
  8
Defpoints
 62
     0
100
AcDbPoint
 10
413.3695595826636
 20
649.0871843677698
 30
0.0
  0
POINT
  5
66DF
330
5B1B
100
AcDbEntity
  8
Defpoints
 62
     0
100
AcDbPoint
 10
413.3695595826636
 20
615.0871843677698
 30
0.0
  0
POINT
  5
66E0
330
5B1B
100
AcDbEntity
  8
Defpoints
 62
     0
100
AcDbPoint
 10
384.570056154547
 20
615.0871843677698
 30
0.0
  0
ENDBLK
  5
5B26
330
5B1B
100
AcDbEntity
  8
0
100
AcDbBlockEnd
  0
BLOCK
  5
5B31
330
5B27
100
AcDbEntity
  8
0
100
AcDbBlockBegin
  2
*D49
 70
     1
 10
0.0
 20
0.0
 30
0.0
  3
*D49
  1

  0
LINE
  5
66CF
330
5B27
100
AcDbEntity
  8
sunpo
 62
     3
370
     9
100
AcDbLine
 10
409.3695595826636
 20
727.0884977633468
 30
0.0
 11
382.570056154547
 21
727.0884977633468
 31
0.0
  0
LINE
  5
66D0
330
5B27
100
AcDbEntity
  8
sunpo
 62
     3
370
     9
100
AcDbLine
 10
409.3695595826636
 20
672.0884977633586
 30
0.0
 11
382.570056154547
 21
672.0884977633586
 31
0.0
  0
LINE
  5
66D1
330
5B27
100
AcDbEntity
  8
sunpo
 62
     3
370
     9
100
AcDbLine
 10
384.570056154547
 20
727.0884977633468
 30
0.0
 11
384.570056154547
 21
672.0884977633586
 31
0.0
  0
INSERT
  5
66D2
330
5B27
100
AcDbEntity
  8
sunpo
 62
     3
370
     9
100
AcDbBlockReference
  2
_DotSmall
 10
384.570056154547
 20
727.0884977633468
 30
0.0
 41
7.0
 42
7.0
 43
7.0
 50
90.0
  0
INSERT
  5
66D3
330
5B27
100
AcDbEntity
  8
sunpo
 62
     3
370
     9
100
AcDbBlockReference
  2
_DotSmall
 10
384.570056154547
 20
672.0884977633586
 30
0.0
 41
7.0
 42
7.0
 43
7.0
 50
270.0
  0
MTEXT
  5
66D4
330
5B27
100
AcDbEntity
  8
sunpo
 62
     2
100
AcDbMText
 10
380.3700561545469
 20
699.5884977633529
 30
0.0
 40
6.0
 41
0.0
 71
     5
 72
     1
  1
55
  7
Std
 11
0.0000000000000001
 21
1.0
 31
0.0
 73
     1
 44
1.0
  0
POINT
  5
66D5
330
5B27
100
AcDbEntity
  8
Defpoints
 62
     0
100
AcDbPoint
 10
413.3695595826636
 20
727.0884977633468
 30
0.0
  0
POINT
  5
66D6
330
5B27
100
AcDbEntity
  8
Defpoints
 62
     0
100
AcDbPoint
 10
413.3695595826636
 20
672.0884977633586
 30
0.0
  0
POINT
  5
66D7
330
5B27
100
AcDbEntity
  8
Defpoints
 62
     0
100
AcDbPoint
 10
384.570056154547
 20
672.0884977633586
 30
0.0
  0
ENDBLK
  5
5B32
330
5B27
100
AcDbEntity
  8
0
100
AcDbBlockEnd
  0
BLOCK
  5
5B3D
330
5B33
100
AcDbEntity
  8
0
100
AcDbBlockBegin
  2
*D50
 70
     1
 10
0.0
 20
0.0
 30
0.0
  3
*D50
  1

  0
LINE
  5
66C6
330
5B33
100
AcDbEntity
  8
sunpo
 62
     3
370
     9
100
AcDbLine
 10
409.3695595826636
 20
702.0884977633468
 30
0.0
 11
406.570056154547
 21
702.0884977633468
 31
0.0
  0
LINE
  5
66C7
330
5B33
100
AcDbEntity
  8
sunpo
 62
     3
370
     9
100
AcDbLine
 10
409.3695595826636
 20
727.0884977633468
 30
0.0
 11
406.570056154547
 21
727.0884977633468
 31
0.0
  0
LINE
  5
66C8
330
5B33
100
AcDbEntity
  8
sunpo
 62
     3
370
     9
100
AcDbLine
 10
408.570056154547
 20
702.0884977633468
 30
0.0
 11
408.570056154547
 21
727.0884977633468
 31
0.0
  0
INSERT
  5
66C9
330
5B33
100
AcDbEntity
  8
sunpo
 62
     3
370
     9
100
AcDbBlockReference
  2
_DotSmall
 10
408.570056154547
 20
702.0884977633468
 30
0.0
 41
7.0
 42
7.0
 43
7.0
 50
270.0
  0
INSERT
  5
66CA
330
5B33
100
AcDbEntity
  8
sunpo
 62
     3
370
     9
100
AcDbBlockReference
  2
_DotSmall
 10
408.570056154547
 20
727.0884977633468
 30
0.0
 41
7.0
 42
7.0
 43
7.0
 50
90.0
  0
MTEXT
  5
66CB
330
5B33
100
AcDbEntity
  8
sunpo
 62
     2
100
AcDbMText
 10
404.3700561545469
 20
714.5884977633469
 30
0.0
 40
6.0
 41
0.0
 71
     5
 72
     1
  1
25
  7
Std
 11
0.0000000000000001
 21
1.0
 31
0.0
 73
     1
 44
1.0
  0
POINT
  5
66CC
330
5B33
100
AcDbEntity
  8
Defpoints
 62
     0
100
AcDbPoint
 10
413.3695595826636
 20
702.0884977633468
 30
0.0
  0
POINT
  5
66CD
330
5B33
100
AcDbEntity
  8
Defpoints
 62
     0
100
AcDbPoint
 10
413.3695595826636
 20
727.0884977633468
 30
0.0
  0
POINT
  5
66CE
330
5B33
100
AcDbEntity
  8
Defpoints
 62
     0
100
AcDbPoint
 10
408.570056154547
 20
727.0884977633468
 30
0.0
  0
ENDBLK
  5
5B3E
330
5B33
100
AcDbEntity
  8
0
100
AcDbBlockEnd
  0
BLOCK
  5
5B49
330
5B3F
100
AcDbEntity
  8
0
100
AcDbBlockBegin
  2
*D51
 70
     1
 10
0.0
 20
0.0
 30
0.0
  3
*D51
  1

  0
LINE
  5
66BD
330
5B3F
100
AcDbEntity
  8
sunpo
 62
     3
370
     9
100
AcDbLine
 10
409.3695595826636
 20
702.0884977633468
 30
0.0
 11
406.570056154547
 21
702.0884977633468
 31
0.0
  0
LINE
  5
66BE
330
5B3F
100
AcDbEntity
  8
sunpo
 62
     3
370
     9
100
AcDbLine
 10
409.3695595826636
 20
672.0884977633586
 30
0.0
 11
406.570056154547
 21
672.0884977633586
 31
0.0
  0
LINE
  5
66BF
330
5B3F
100
AcDbEntity
  8
sunpo
 62
     3
370
     9
100
AcDbLine
 10
408.570056154547
 20
702.0884977633468
 30
0.0
 11
408.570056154547
 21
672.0884977633586
 31
0.0
  0
INSERT
  5
66C0
330
5B3F
100
AcDbEntity
  8
sunpo
 62
     3
370
     9
100
AcDbBlockReference
  2
_DotSmall
 10
408.570056154547
 20
702.0884977633468
 30
0.0
 41
7.0
 42
7.0
 43
7.0
 50
90.0
  0
INSERT
  5
66C1
330
5B3F
100
AcDbEntity
  8
sunpo
 62
     3
370
     9
100
AcDbBlockReference
  2
_DotSmall
 10
408.570056154547
 20
672.0884977633586
 30
0.0
 41
7.0
 42
7.0
 43
7.0
 50
270.0
  0
MTEXT
  5
66C2
330
5B3F
100
AcDbEntity
  8
sunpo
 62
     2
100
AcDbMText
 10
404.3700561545469
 20
687.0884977633529
 30
0.0
 40
6.0
 41
0.0
 71
     5
 72
     1
  1
30
  7
Std
 11
0.0000000000000001
 21
1.0
 31
0.0
 73
     1
 44
1.0
  0
POINT
  5
66C3
330
5B3F
100
AcDbEntity
  8
Defpoints
 62
     0
100
AcDbPoint
 10
413.3695595826636
 20
702.0884977633468
 30
0.0
  0
POINT
  5
66C4
330
5B3F
100
AcDbEntity
  8
Defpoints
 62
     0
100
AcDbPoint
 10
413.3695595826636
 20
672.0884977633586
 30
0.0
  0
POINT
  5
66C5
330
5B3F
100
AcDbEntity
  8
Defpoints
 62
     0
100
AcDbPoint
 10
408.570056154547
 20
672.0884977633586
 30
0.0
  0
ENDBLK
  5
5B4A
330
5B3F
100
AcDbEntity
  8
0
100
AcDbBlockEnd
  0
BLOCK
  5
5B61
330
5B57
100
AcDbEntity
  8
0
100
AcDbBlockBegin
  2
*D53
 70
     1
 10
0.0
 20
0.0
 30
0.0
  3
*D53
  1

  0
LINE
  5
66B4
330
5B57
100
AcDbEntity
  8
sunpo
 62
     3
370
     9
100
AcDbLine
 10
439.169559582652
 20
613.0884977633586
 30
0.0
 11
439.169559582652
 21
564.7249201987274
 31
0.0
  0
LINE
  5
66B5
330
5B57
100
AcDbEntity
  8
sunpo
 62
     3
370
     9
100
AcDbLine
 10
454.169559582652
 20
613.0871843677698
 30
0.0
 11
454.169559582652
 21
564.7249201987274
 31
0.0
  0
LINE
  5
66B6
330
5B57
100
AcDbEntity
  8
sunpo
 62
     3
370
     9
100
AcDbLine
 10
439.169559582652
 20
566.7249201987273
 30
0.0
 11
454.169559582652
 21
566.7249201987273
 31
0.0
  0
INSERT
  5
66B7
330
5B57
100
AcDbEntity
  8
sunpo
 62
     3
370
     9
100
AcDbBlockReference
  2
_DotSmall
 10
439.169559582652
 20
566.7249201987273
 30
0.0
 41
7.0
 42
7.0
 43
7.0
 50
180.0
  0
INSERT
  5
66B8
330
5B57
100
AcDbEntity
  8
sunpo
 62
     3
370
     9
100
AcDbBlockReference
  2
_DotSmall
 10
454.169559582652
 20
566.7249201987273
 30
0.0
 41
7.0
 42
7.0
 43
7.0
  0
MTEXT
  5
66B9
330
5B57
100
AcDbEntity
  8
sunpo
 62
     2
100
AcDbMText
 10
446.669559582652
 20
570.9249201987274
 30
0.0
 40
6.0
 41
0.0
 71
     5
 72
     1
  1
15
  7
Std
 73
     1
 44
1.0
  0
POINT
  5
66BA
330
5B57
100
AcDbEntity
  8
Defpoints
 62
     0
100
AcDbPoint
 10
439.169559582652
 20
617.0884977633586
 30
0.0
  0
POINT
  5
66BB
330
5B57
100
AcDbEntity
  8
Defpoints
 62
     0
100
AcDbPoint
 10
454.169559582652
 20
617.0871843677698
 30
0.0
  0
POINT
  5
66BC
330
5B57
100
AcDbEntity
  8
Defpoints
 62
     0
100
AcDbPoint
 10
454.169559582652
 20
566.7249201987273
 30
0.0
  0
ENDBLK
  5
5B62
330
5B57
100
AcDbEntity
  8
0
100
AcDbBlockEnd
  0
ENDSEC
  0
SECTION
  2
ENTITIES
  0
LWPOLYLINE
  5
CE
330
1F
100
AcDbEntity
  8
hojo
100
AcDbPolyline
 90
        4
 70
     1
 43
0.0
 10
0.0
 20
0.0
 10
1188.0
 20
0.0
 10
1188.0
 20
840.0
 10
0.0
 20
840.0
  0
MTEXT
  5
1C5F
330
1F
100
AcDbEntity
  8
wakumoji
100
AcDbMText
 10
998.5000000000004
 20
65.00000000000001
 30
0.0
 40
12.38095238095238
 41
196.0
 71
     5
 72
     5
  1
　　二葉工業株式会社
  7
gothic
 73
     1
 44
1.0
  0
SPLINE
  5
1C60
330
1F
100
AcDbEntity
  8
hojo
370
    -2
100
AcDbSpline
210
0.0
220
0.0
230
1.0
 70
    11
 71
     3
 72
    20
 73
    16
 74
     0
 42
0.0000000001
 43
0.0000000001
 40
0.0
 40
0.0
 40
0.0
 40
0.0
 40
1.0
 40
1.0
 40
1.0
 40
2.0
 40
2.0
 40
2.0
 40
3.0
 40
3.0
 40
3.0
 40
4.0
 40
4.0
 40
4.0
 40
5.0
 40
5.0
 40
5.0
 40
5.0
 10
928.831711476184
 20
58.87308069585124
 30
0.0
 10
928.831711476184
 20
58.87308069585124
 30
0.0
 10
928.2625324862284
 20
58.40110261425434
 30
0.0
 10
928.2625324862284
 20
58.40110261425434
 30
0.0
 10
928.2625324862284
 20
58.40110261425434
 30
0.0
 10
928.7532125147508
 20
57.80953050363897
 30
0.0
 10
928.7532125147508
 20
57.80953050363897
 30
0.0
 10
928.7532125147508
 20
57.80953050363897
 30
0.0
 10
929.3226375829549
 20
58.28175466348548
 30
0.0
 10
929.3226375829549
 20
58.28175466348548
 30
0.0
 10
929.5017825482327
 20
58.43063200413526
 30
0.0
 10
929.6137481515316
 20
58.66096124520628
 30
0.0
 10
929.4277129952815
 20
58.8851385300528
 30
0.0
 10
929.2229758921067
 20
59.13170893555871
 30
0.0
 10
928.9719760781185
 20
58.98947570763194
 30
0.0
 10
928.831711476184
 20
58.87308069585124
 30
0.0
  0
POLYLINE
  5
1C61
330
1F
100
AcDbEntity
  8
hojo
370
     0
100
AcDb2dPolyline
 66
     1
 10
0.0
 20
0.0
 30
0.0
 70
     1
  0
VERTEX
  5
1C62
330
1C61
100
AcDbEntity
  8
hojo
370
     0
100
AcDbVertex
100
AcDb2dVertex
 10
931.0309127875679
 20
61.32869554270147
 30
0.0
  0
VERTEX
  5
1C63
330
1C61
100
AcDbEntity
  8
hojo
370
     0
100
AcDbVertex
100
AcDb2dVertex
 10
931.3355576598391
 20
62.08587831489895
 30
0.0
  0
VERTEX
  5
1C64
330
1C61
100
AcDbEntity
  8
hojo
370
     0
100
AcDbVertex
100
AcDb2dVertex
 10
930.0072272716953
 20
62.18037236251802
 30
0.0
  0
SEQEND
  5
1C65
330
1C61
100
AcDbEntity
  8
hojo
370
     0
  0
POLYLINE
  5
1C66
330
1F
100
AcDbEntity
  8
hojo
370
    -2
100
AcDb2dPolyline
 66
     1
 10
0.0
 20
0.0
 30
0.0
 70
     1
  0
VERTEX
  5
1C67
330
1C66
100
AcDbEntity
  8
hojo
370
    -2
100
AcDbVertex
100
AcDb2dVertex
 10
924.9628692452807
 20
56.75483912839118
 30
0.0
  0
VERTEX
  5
1C68
330
1C66
100
AcDbEntity
  8
hojo
370
    -2
100
AcDbVertex
100
AcDb2dVertex
 10
925.7599166938179
 20
56.9307850764315
 30
0.0
  0
VERTEX
  5
1C69
330
1C66
100
AcDbEntity
  8
hojo
370
    -2
100
AcDbVertex
100
AcDb2dVertex
 10
925.088123074026
 20
58.08070873404577
 30
0.0
  0
SEQEND
  5
1C6A
330
1C66
100
AcDbEntity
  8
hojo
370
    -2
  0
SPLINE
  5
1C6B
330
1F
100
AcDbEntity
  8
hojo
370
    -2
100
AcDbSpline
210
0.0
220
0.0
230
1.0
 70
    11
 71
     3
 72
    20
 73
    16
 74
     0
 42
0.0000000001
 43
0.0000000001
 40
0.0
 40
0.0
 40
0.0
 40
0.0
 40
1.0
 40
1.0
 40
1.0
 40
2.0
 40
2.0
 40
2.0
 40
3.0
 40
3.0
 40
3.0
 40
4.0
 40
4.0
 40
4.0
 40
5.0
 40
5.0
 40
5.0
 40
5.0
 10
928.610487130326
 20
59.69325949979467
 30
0.0
 10
928.5314960123942
 20
59.78873786041003
 30
0.0
 10
928.3567804555987
 20
59.91349953265672
 30
0.0
 10
928.1296502317646
 20
59.72500359391706
 30
0.0
 10
928.1296502317646
 20
59.72500359391706
 30
0.0
 10
927.5577643810697
 20
59.25056472982942
 30
0.0
 10
927.5577643810697
 20
59.25056472982942
 30
0.0
 10
927.5577643810697
 20
59.25056472982942
 30
0.0
 10
928.0019356205293
 20
58.71509845998808
 30
0.0
 10
928.0019356205293
 20
58.71509845998808
 30
0.0
 10
928.0019356205293
 20
58.71509845998808
 30
0.0
 10
928.5740675494725
 20
59.18953732407536
 30
0.0
 10
928.5740675494725
 20
59.18953732407536
 30
0.0
 10
928.7815115133863
 20
59.3617920983812
 30
0.0
 10
928.710640977672
 20
59.57268115778098
 30
0.0
 10
928.610487130326
 20
59.69325949979467
 30
0.0
  0
POLYLINE
  5
1C6C
330
1F
100
AcDbEntity
  8
hojo
370
     0
100
AcDb2dPolyline
 66
     1
 10
0.0
 20
0.0
 30
0.0
 70
     1
  0
VERTEX
  5
1C6D
330
1C6C
100
AcDbEntity
  8
hojo
370
     0
100
AcDbVertex
100
AcDb2dVertex
 10
931.8252533753657
 20
60.66772936586639
 30
0.0
  0
VERTEX
  5
1C6E
330
1C6C
100
AcDbEntity
  8
hojo
370
     0
100
AcDbVertex
100
AcDb2dVertex
 10
931.5725310136345
 20
60.03924551790006
 30
0.0
  0
VERTEX
  5
1C6F
330
1C6C
100
AcDbEntity
  8
hojo
370
     0
100
AcDbVertex
100
AcDb2dVertex
 10
929.2965532885601
 20
62.07357440244852
 30
0.0
  0
VERTEX
  5
1C70
330
1C6C
100
AcDbEntity
  8
hojo
370
     0
100
AcDbVertex
100
AcDb2dVertex
 10
929.5697001449589
 20
62.7527503697107
 30
0.0
  0
VERTEX
  5
1C71
330
1C6C
100
AcDbEntity
  8
hojo
370
     0
100
AcDbVertex
100
AcDb2dVertex
 10
932.62033219791
 20
62.64472201839598
 30
0.0
  0
VERTEX
  5
1C72
330
1C6C
100
AcDbEntity
  8
hojo
370
     0
100
AcDbVertex
100
AcDb2dVertex
 10
932.3676098361788
 20
62.01623817042964
 30
0.0
  0
VERTEX
  5
1C73
330
1C6C
100
AcDbEntity
  8
hojo
370
     0
100
AcDbVertex
100
AcDb2dVertex
 10
931.8136876976623
 20
62.0543802990258
 30
0.0
  0
VERTEX
  5
1C74
330
1C6C
100
AcDbEntity
  8
hojo
370
     0
100
AcDbVertex
100
AcDb2dVertex
 10
931.3990458480834
 20
61.0235585139315
 30
0.0
  0
SEQEND
  5
1C75
330
1C6C
100
AcDbEntity
  8
hojo
370
     0
  0
SPLINE
  5
1C76
330
1F
100
AcDbEntity
  8
hojo
370
     0
100
AcDbSpline
210
0.0
220
0.0
230
1.0
 70
    11
 71
     3
 72
    29
 73
    25
 74
     0
 42
0.0000000001
 43
0.0000000001
 40
0.0
 40
0.0
 40
0.0
 40
0.0
 40
1.0
 40
1.0
 40
1.0
 40
2.0
 40
2.0
 40
2.0
 40
3.0
 40
3.0
 40
3.0
 40
4.0
 40
4.0
 40
4.0
 40
5.0
 40
5.0
 40
5.0
 40
6.0
 40
6.0
 40
6.0
 40
7.0
 40
7.0
 40
7.0
 40
8.0
 40
8.0
 40
8.0
 40
8.0
 10
929.8150401592202
 20
58.04207444895147
 30
0.0
 10
929.8150401592202
 20
58.04207444895147
 30
0.0
 10
928.5674234367492
 20
57.00657717712601
 30
0.0
 10
928.5674234367492
 20
57.00657717712601
 30
0.0
 10
928.5674234367492
 20
57.00657717712601
 30
0.0
 10
926.7343865598896
 20
59.21586769671922
 30
0.0
 10
926.7343865598896
 20
59.21586769671922
 30
0.0
 10
926.7343865598896
 20
59.21586769671922
 30
0.0
 10
927.9231905808465
 20
60.20214931874325
 30
0.0
 10
927.9231905808465
 20
60.20214931874325
 30
0.0
 10
928.3548118296065
 20
60.56019317104983
 30
0.0
 10
928.8137477640066
 20
60.54345985011714
 30
0.0
 10
929.0881250116504
 20
60.21273068345036
 30
0.0
 10
929.3556120683215
 20
59.89036817724991
 30
0.0
 10
929.2057504146765
 20
59.61451446011233
 30
0.0
 10
929.1338955659657
 20
59.47917142315782
 30
0.0
 10
929.2601337077071
 20
59.53183216844554
 30
0.0
 10
929.3241140524488
 20
59.5517645066153
 30
0.0
 10
929.4304198560208
 20
59.55471744560346
 30
0.0
 10
929.6358951939419
 20
59.56406841906574
 30
0.0
 10
929.8455538620974
 20
59.48261651864378
 30
0.0
 10
930.0106723671811
 20
59.28353921519665
 30
0.0
 10
930.3246682129152
 20
58.90507086822253
 30
0.0
 10
930.2439545472402
 20
58.39765751876803
 30
0.0
 10
929.8150401592202
 20
58.04207444895147
 30
0.0
  0
POLYLINE
  5
1C77
330
1F
100
AcDbEntity
  8
hojo
370
     0
100
AcDb2dPolyline
 66
     1
 10
0.0
 20
0.0
 30
0.0
 70
     1
  0
VERTEX
  5
1C78
330
1C77
100
AcDbEntity
  8
hojo
370
     0
100
AcDbVertex
100
AcDb2dVertex
 10
926.2848015989511
 20
56.0392435802758
 30
0.0
  0
VERTEX
  5
1C79
330
1C77
100
AcDbEntity
  8
hojo
370
     0
100
AcDbVertex
100
AcDb2dVertex
 10
926.0037802385845
 20
56.51835793109421
 30
0.0
  0
VERTEX
  5
1C7A
330
1C77
100
AcDbEntity
  8
hojo
370
     0
100
AcDbVertex
100
AcDb2dVertex
 10
924.9188212387089
 20
56.27867771656092
 30
0.0
  0
VERTEX
  5
1C7B
330
1C77
100
AcDbEntity
  8
hojo
370
     0
100
AcDbVertex
100
AcDb2dVertex
 10
924.8654222586738
 20
55.72623204753764
 30
0.0
  0
VERTEX
  5
1C7C
330
1C77
100
AcDbEntity
  8
hojo
370
     0
100
AcDbVertex
100
AcDb2dVertex
 10
924.2037178470914
 20
55.58006156762712
 30
0.0
  0
VERTEX
  5
1C7D
330
1C77
100
AcDbEntity
  8
hojo
370
     0
100
AcDbVertex
100
AcDb2dVertex
 10
924.5989195149983
 20
58.60707010867372
 30
0.0
  0
VERTEX
  5
1C7E
330
1C77
100
AcDbEntity
  8
hojo
370
     0
100
AcDbVertex
100
AcDb2dVertex
 10
925.3140229066152
 20
58.76480626628763
 30
0.0
  0
VERTEX
  5
1C7F
330
1C77
100
AcDbEntity
  8
hojo
370
     0
100
AcDbVertex
100
AcDb2dVertex
 10
926.9465060105339
 20
56.18541406018668
 30
0.0
  0
SEQEND
  5
1C80
330
1C77
100
AcDbEntity
  8
hojo
370
     0
  0
SPLINE
  5
1C81
330
1F
100
AcDbEntity
  8
hojo
370
     0
100
AcDbSpline
210
0.0
220
0.0
230
1.0
 70
    11
 71
     3
 72
    41
 73
    37
 74
     0
 42
0.0000000001
 43
0.0000000001
 40
0.0
 40
0.0
 40
0.0
 40
0.0
 40
1.0
 40
1.0
 40
1.0
 40
2.0
 40
2.0
 40
2.0
 40
3.0
 40
3.0
 40
3.0
 40
4.0
 40
4.0
 40
4.0
 40
5.0
 40
5.0
 40
5.0
 40
6.0
 40
6.0
 40
6.0
 40
7.0
 40
7.0
 40
7.0
 40
8.0
 40
8.0
 40
8.0
 40
9.0
 40
9.0
 40
9.0
 40
10.0
 40
10.0
 40
10.0
 40
11.0
 40
11.0
 40
11.0
 40
12.0
 40
12.0
 40
12.0
 40
12.0
 10
915.1059589030197
 20
64.95613501132758
 30
0.0
 10
914.3183854670697
 20
65.16161034924917
 30
0.0
 10
914.2678163868982
 20
65.52137674929873
 30
0.0
 10
914.2653556044082
 20
65.86219512417485
 30
0.0
 10
914.2552663961991
 20
67.18326620397384
 30
0.0
 10
915.2668940778708
 20
69.3806219284903
 30
0.0
 10
915.521831143843
 20
69.78332898299196
 30
0.0
 10
916.2626497124811
 20
70.9534310570245
 30
0.0
 10
917.640441828677
 20
72.42325643834885
 30
0.0
 10
918.5921494567146
 20
72.83273064469831
 30
0.0
 10
918.9184492148992
 20
72.97311828575693
 30
0.0
 10
919.1042382929003
 20
72.85758454784811
 30
0.0
 10
919.248686225068
 20
72.63869794535532
 30
0.0
 10
919.248686225068
 20
72.63869794535532
 30
0.0
 10
922.7518561779447
 20
66.00504354772384
 30
0.0
 10
923.0828314228606
 20
65.65844233399622
 30
0.0
 10
923.3581929835004
 20
65.37016166528339
 30
0.0
 10
923.6121457364765
 20
65.41113369374325
 30
0.0
 10
923.8478886990261
 20
65.68403447189304
 30
0.0
 10
924.1225120249191
 20
66.00196756961124
 30
0.0
 10
925.3273111320622
 20
67.88926470037769
 30
0.0
 10
927.9187611723651
 20
72.42239516447735
 30
0.0
 10
928.0169463937191
 20
72.59440386053395
 30
0.0
 10
928.1660698126174
 20
72.74131257519186
 30
0.0
 10
928.5765283319625
 20
72.55675388843593
 30
0.0
 10
929.6262981422305
 20
72.08428365034052
 30
0.0
 10
931.0461696390065
 20
70.21285856663526
 30
0.0
 10
931.7873573250185
 20
68.69369449638471
 30
0.0
 10
932.2930481267293
 20
67.65672075506519
 30
0.0
 10
932.6114733809463
 20
65.70064475370092
 30
0.0
 10
932.5898184950338
 20
65.20688874706685
 30
0.0
 10
932.5745616435952
 20
64.85462773361179
 30
0.0
 10
932.3304520205788
 20
64.81070276616375
 30
0.0
 10
932.088311023555
 20
64.78043514153616
 30
0.0
 10
932.088311023555
 20
64.78043514153616
 30
0.0
 10
915.1059589030197
 20
64.95613501132758
 30
0.0
 10
915.1059589030197
 20
64.95613501132758
 30
0.0
  0
POLYLINE
  5
1C82
330
1F
100
AcDbEntity
  8
hojo
370
     0
100
AcDb2dPolyline
 66
     1
 10
0.0
 20
0.0
 30
0.0
 70
     1
  0
VERTEX
  5
1C83
330
1C82
100
AcDbEntity
  8
hojo
370
     0
100
AcDbVertex
100
AcDb2dVertex
 10
923.0859074009732
 20
57.8848304478357
 30
0.0
  0
VERTEX
  5
1C84
330
1C82
100
AcDbEntity
  8
hojo
370
     0
100
AcDbVertex
100
AcDb2dVertex
 10
922.1430585898993
 20
58.10826949793483
 30
0.0
  0
VERTEX
  5
1C85
330
1C82
100
AcDbEntity
  8
hojo
370
     0
100
AcDbVertex
100
AcDb2dVertex
 10
921.604024185447
 20
55.83647510309347
 30
0.0
  0
VERTEX
  5
1C86
330
1C82
100
AcDbEntity
  8
hojo
370
     0
100
AcDbVertex
100
AcDb2dVertex
 10
920.9623751511589
 20
55.98879753922957
 30
0.0
  0
VERTEX
  5
1C87
330
1C82
100
AcDbEntity
  8
hojo
370
     0
100
AcDbVertex
100
AcDb2dVertex
 10
921.5015325947351
 20
58.26059193407054
 30
0.0
  0
VERTEX
  5
1C88
330
1C82
100
AcDbEntity
  8
hojo
370
     0
100
AcDbVertex
100
AcDb2dVertex
 10
920.5586837836618
 20
58.48427706241856
 30
0.0
  0
VERTEX
  5
1C89
330
1C82
100
AcDbEntity
  8
hojo
370
     0
100
AcDbVertex
100
AcDb2dVertex
 10
920.6822150646635
 20
59.00547079381758
 30
0.0
  0
VERTEX
  5
1C8A
330
1C82
100
AcDbEntity
  8
hojo
370
     0
100
AcDbVertex
100
AcDb2dVertex
 10
923.2094386819749
 20
58.40602417923438
 30
0.0
  0
SEQEND
  5
1C8B
330
1C82
100
AcDbEntity
  8
hojo
370
     0
  0
SPLINE
  5
1C8C
330
1F
100
AcDbEntity
  8
hojo
370
     0
100
AcDbSpline
210
0.0
220
0.0
230
1.0
 70
    11
 71
     3
 72
    35
 73
    31
 74
     0
 42
0.0000000001
 43
0.0000000001
 40
0.0
 40
0.0
 40
0.0
 40
0.0
 40
1.0
 40
1.0
 40
1.0
 40
2.0
 40
2.0
 40
2.0
 40
3.0
 40
3.0
 40
3.0
 40
4.0
 40
4.0
 40
4.0
 40
5.0
 40
5.0
 40
5.0
 40
6.0
 40
6.0
 40
6.0
 40
7.0
 40
7.0
 40
7.0
 40
8.0
 40
8.0
 40
8.0
 40
9.0
 40
9.0
 40
9.0
 40
10.0
 40
10.0
 40
10.0
 40
10.0
 10
919.1250319049418
 20
57.86022262293482
 30
0.0
 10
918.6081445429003
 20
57.2573309128653
 30
0.0
 10
917.945455818322
 20
57.30728479741374
 30
0.0
 10
917.3398572475134
 20
57.82650990282054
 30
0.0
 10
916.8586512315782
 20
58.23918312640671
 30
0.0
 10
916.4643108375431
 20
58.89842675549918
 30
0.0
 10
917.0783991079424
 20
59.61476053836122
 30
0.0
 10
917.0783991079424
 20
59.61476053836122
 30
0.0
 10
918.2258619830664
 20
60.95342621296442
 30
0.0
 10
918.2258619830664
 20
60.95342621296442
 30
0.0
 10
918.2258619830664
 20
60.95342621296442
 30
0.0
 10
918.7236782808096
 20
60.52672652918483
 30
0.0
 10
918.7236782808096
 20
60.52672652918483
 30
0.0
 10
918.7236782808096
 20
60.52672652918483
 30
0.0
 10
917.5501311112903
 20
59.15779322995368
 30
0.0
 10
917.5501311112903
 20
59.15779322995368
 30
0.0
 10
917.2537298603611
 20
58.81205329009754
 30
0.0
 10
917.4465321684579
 20
58.45474767253763
 30
0.0
 10
917.6789530746459
 20
58.25542429084163
 30
0.0
 10
918.1047914845544
 20
57.89049024756241
 30
0.0
 10
918.442656920442
 20
58.06619011735456
 30
0.0
 10
918.6038381735428
 20
58.25443997784532
 30
0.0
 10
918.6038381735428
 20
58.25443997784532
 30
0.0
 10
919.7773853430616
 20
59.62361935532536
 30
0.0
 10
919.7773853430616
 20
59.62361935532536
 30
0.0
 10
919.7773853430616
 20
59.62361935532536
 30
0.0
 10
920.2723717409412
 20
59.19913437578689
 30
0.0
 10
920.2723717409412
 20
59.19913437578689
 30
0.0
 10
920.2723717409412
 20
59.19913437578689
 30
0.0
 10
919.1250319049418
 20
57.86022262293482
 30
0.0
 10
919.1250319049418
 20
57.86022262293482
 30
0.0
  0
POLYLINE
  5
1C8D
330
1F
100
AcDbEntity
  8
hojo
370
     0
100
AcDb2dPolyline
 66
     1
 10
0.0
 20
0.0
 30
0.0
 70
     1
  0
VERTEX
  5
1C8E
330
1C8D
100
AcDbEntity
  8
hojo
370
     0
100
AcDbVertex
100
AcDb2dVertex
 10
916.2300443444873
 20
60.95637915195258
 30
0.0
  0
VERTEX
  5
1C8F
330
1C8D
100
AcDbEntity
  8
hojo
370
     0
100
AcDbVertex
100
AcDb2dVertex
 10
915.6880570010471
 20
62.10261163583126
 30
0.0
  0
VERTEX
  5
1C90
330
1C8D
100
AcDbEntity
  8
hojo
370
     0
100
AcDbVertex
100
AcDb2dVertex
 10
914.6704004022749
 20
61.62128258077209
 30
0.0
  0
VERTEX
  5
1C91
330
1C8D
100
AcDbEntity
  8
hojo
370
     0
100
AcDbVertex
100
AcDb2dVertex
 10
914.3901172766545
 20
62.21408508263194
 30
0.0
  0
VERTEX
  5
1C92
330
1C8D
100
AcDbEntity
  8
hojo
370
     0
100
AcDbVertex
100
AcDb2dVertex
 10
916.9852584906925
 20
63.44127731043482
 30
0.0
  0
VERTEX
  5
1C93
330
1C8D
100
AcDbEntity
  8
hojo
370
     0
100
AcDbVertex
100
AcDb2dVertex
 10
917.8946406599015
 20
61.51792971618852
 30
0.0
  0
VERTEX
  5
1C94
330
1C8D
100
AcDbEntity
  8
hojo
370
     0
100
AcDbVertex
100
AcDb2dVertex
 10
917.4106047441027
 20
61.28907694461123
 30
0.0
  0
VERTEX
  5
1C95
330
1C8D
100
AcDbEntity
  8
hojo
370
     0
100
AcDbVertex
100
AcDb2dVertex
 10
916.7813826613896
 20
62.61962203699733
 30
0.0
  0
VERTEX
  5
1C96
330
1C8D
100
AcDbEntity
  8
hojo
370
     0
100
AcDbVertex
100
AcDb2dVertex
 10
916.1557287132874
 20
62.32358990344073
 30
0.0
  0
VERTEX
  5
1C97
330
1C8D
100
AcDbEntity
  8
hojo
370
     0
100
AcDbVertex
100
AcDb2dVertex
 10
916.6975930176022
 20
61.17735741956167
 30
0.0
  0
SEQEND
  5
1C98
330
1C8D
100
AcDbEntity
  8
hojo
370
     0
  0
LWPOLYLINE
  5
1CA8
330
1F
100
AcDbEntity
  8
size
100
AcDbPolyline
 90
        4
 70
     1
 43
0.0
 10
1158.0
 20
38.0
 10
1158.0
 20
806.0
 10
38.0
 20
806.0
 10
38.0
 20
38.0
  0
LWPOLYLINE
  5
1CA9
330
1F
100
AcDbEntity
  8
size
100
AcDbPolyline
 90
        4
 70
     1
 43
0.0
 10
38.5
 20
805.5000000000003
 10
38.5
 20
38.5
 10
1157.5
 20
38.5
 10
1157.5
 20
805.5000000000003
  0
LWPOLYLINE
  5
1CAA
330
1F
100
AcDbEntity
  8
size
100
AcDbPolyline
 90
        4
 70
     1
 43
0.0
 10
1157.0
 20
39.0
 10
1157.0
 20
805.0000000000004
 10
39.0
 20
805.0000000000004
 10
39.0
 20
39.0
  0
LWPOLYLINE
  5
1CAB
330
1F
100
AcDbEntity
  8
size
100
AcDbPolyline
 90
        4
 70
     1
 43
0.0
 10
39.5
 20
804.4999999999999
 10
39.5
 20
39.5
 10
1156.5
 20
39.5
 10
1156.5
 20
804.4999999999999
  0
LWPOLYLINE
  5
1CAC
330
1F
100
AcDbEntity
  8
size
100
AcDbPolyline
 90
        4
 70
     1
 43
0.0
 10
1156.0
 20
40.0
 10
1156.0
 20
804.0
 10
40.0
 20
804.0
 10
40.0
 20
40.0
  0
LWPOLYLINE
  5
1CAD
330
1F
100
AcDbEntity
  8
size
100
AcDbPolyline
 90
        4
 70
     1
 43
0.0
 10
40.49999999999999
 20
803.5
 10
40.49999999999999
 20
40.49999999999999
 10
1155.5
 20
40.49999999999999
 10
1155.5
 20
803.5
  0
MTEXT
  5
1CB0
330
1F
100
AcDbEntity
  8
wakumoji
100
AcDbMText
 10
509.7500000000004
 20
77.12500000000002
 30
0.0
 40
6.0
 41
0.0
 71
     5
 72
     5
  1
 年    月    日
  7
gothic
 73
     1
 44
1.0
  0
MTEXT
  5
1CB1
330
1F
100
AcDbEntity
  8
wakumoji
100
AcDbMText
 10
464.7499999999999
 20
52.875
 30
0.0
 40
6.0
 41
13.5
 71
     5
 72
     5
  1
検図
  7
gothic
 73
     1
 44
1.0
  0
MTEXT
  5
1CB2
330
1F
100
AcDbEntity
  8
wakumoji
100
AcDbMText
 10
418.75
 20
52.875
 30
0.0
 40
6.0
 41
13.5
 71
     5
 72
     5
  1
担当
  7
gothic
 73
     1
 44
1.0
  0
MTEXT
  5
1CB3
330
1F
100
AcDbEntity
  8
wakumoji
100
AcDbMText
 10
464.7499999999999
 20
77.12500000000002
 30
0.0
 40
6.0
 41
13.5
 71
     5
 72
     5
  1
作図
  7
gothic
 73
     1
 44
1.0
  0
MTEXT
  5
1CB4
330
1F
100
AcDbEntity
  8
wakumoji
100
AcDbMText
 10
418.75
 20
77.12500000000002
 30
0.0
 40
6.0
 41
13.5
 71
     5
 72
     5
  1
製図
  7
gothic
 73
     1
 44
1.0
  0
LINE
  5
1CB5
330
1F
100
AcDbEntity
  8
size
100
AcDbLine
 10
412.0
 20
64.75
 30
0.0
 11
547.5
 21
64.75
 31
0.0
  0
MTEXT
  5
1CB6
330
1F
100
AcDbEntity
  8
wakumoji
100
AcDbMText
 10
43.0
 20
88.00000000000002
 30
0.0
 40
6.0
 41
169.5
 71
     1
 72
     5
  1
記事
  7
gothic
 73
     1
 44
1.0
  0
LINE
  5
1CB8
330
1F
100
AcDbEntity
  8
size
100
AcDbLine
 10
412.0
 20
65.25
 30
0.0
 11
547.5
 21
65.25
 31
0.0
  0
LINE
  5
1CB9
330
1F
100
AcDbEntity
  8
size
100
AcDbLine
 10
411.5
 20
41.0
 30
0.0
 11
411.5
 21
89.0
 31
0.0
  0
LINE
  5
1CBA
330
1F
100
AcDbEntity
  8
size
100
AcDbLine
 10
412.0
 20
41.0
 30
0.0
 11
412.0
 21
89.0
 31
0.0
  0
LINE
  5
1CBB
330
1F
100
AcDbEntity
  8
size
100
AcDbLine
 10
426.0
 20
41.0
 30
0.0
 11
426.0
 21
89.0
 31
0.0
  0
LINE
  5
1CBC
330
1F
100
AcDbEntity
  8
size
100
AcDbLine
 10
425.4999999999999
 20
41.0
 30
0.0
 11
425.4999999999999
 21
89.0
 31
0.0
  0
LINE
  5
1CBD
330
1F
100
AcDbEntity
  8
size
100
AcDbLine
 10
457.5
 20
41.0
 30
0.0
 11
457.5
 21
89.0
 31
0.0
  0
LINE
  5
1CBE
330
1F
100
AcDbEntity
  8
size
100
AcDbLine
 10
458.0
 20
41.0
 30
0.0
 11
458.0
 21
89.0
 31
0.0
  0
LINE
  5
1CBF
330
1F
100
AcDbEntity
  8
size
100
AcDbLine
 10
471.4999999999999
 20
41.0
 30
0.0
 11
471.4999999999999
 21
89.0
 31
0.0
  0
LINE
  5
1CC0
330
1F
100
AcDbEntity
  8
size
100
AcDbLine
 10
472.0
 20
41.0
 30
0.0
 11
472.0
 21
89.0
 31
0.0
  0
MTEXT
  5
1CC1
330
1F
100
AcDbEntity
  8
wakumoji
100
AcDbMText
 10
581.7500000000004
 20
49.0
 30
0.0
 40
6.0
 41
39.5
 71
     5
 72
     5
  1
 : 
  7
gothic
 73
     1
 44
1.0
  0
MTEXT
  5
1CC2
330
1F
100
AcDbEntity
  8
wakumoji
100
AcDbMText
 10
581.7500000000004
 20
65.00000000000001
 30
0.0
 40
6.0
 41
39.5
 71
     5
 72
     5
  1
1 : 20
  7
gothic
 73
     1
 44
1.0
  0
MTEXT
  5
1CC6
330
1F
100
AcDbEntity
  8
wakumoji
100
AcDbMText
 10
554.7500000000004
 20
65.00000000000001
 30
0.0
 40
7.0
 41
13.5
 71
     5
 72
     5
  1
縮尺
  7
gothic
 73
     1
 44
1.0
  0
LINE
  5
1CC7
330
1F
100
AcDbEntity
  8
size
100
AcDbLine
 10
53.0
 20
65.0
 30
0.0
 11
399.5
 21
65.0
 31
0.0
  0
LINE
  5
1CC8
330
1F
100
AcDbEntity
  8
size
100
AcDbLine
 10
602.0
 20
65.25
 30
0.0
 11
798.5
 21
65.25
 31
0.0
  0
LINE
  5
1CC9
330
1F
100
AcDbEntity
  8
size
100
AcDbLine
 10
548.0
 20
41.0
 30
0.0
 11
548.0
 21
89.0
 31
0.0
  0
LINE
  5
1CCA
330
1F
100
AcDbEntity
  8
size
100
AcDbLine
 10
547.5
 20
41.0
 30
0.0
 11
547.5
 21
89.0
 31
0.0
  0
LINE
  5
1CCB
330
1F
100
AcDbEntity
  8
size
100
AcDbLine
 10
561.5
 20
41.0
 30
0.0
 11
561.5
 21
89.0
 31
0.0
  0
LINE
  5
1CCC
330
1F
100
AcDbEntity
  8
size
100
AcDbLine
 10
562.0
 20
41.0
 30
0.0
 11
562.0
 21
89.0
 31
0.0
  0
LINE
  5
1CCD
330
1F
100
AcDbEntity
  8
size
100
AcDbLine
 10
602.0
 20
64.75
 30
0.0
 11
798.5
 21
64.75
 31
0.0
  0
MTEXT
  5
1CCE
330
1F
100
AcDbEntity
  8
wakumoji
100
AcDbMText
 10
603.0000000000004
 20
88.00000000000002
 30
0.0
 40
7.0
 41
196.5
 71
     1
 72
     5
  1
工事名
  7
gothic
 73
     1
 44
1.0
  0
MTEXT
  5
1CCF
330
1F
100
AcDbEntity
  8
wakumoji
100
AcDbMText
 10
603.0000000000004
 20
63.75000000000001
 30
0.0
 40
7.0
 41
196.5
 71
     1
 72
     5
  1
図面名
  7
gothic
 73
     1
 44
1.0
  0
LINE
  5
1CD0
330
1F
100
AcDbEntity
  8
size
100
AcDbLine
 10
602.0
 20
41.0
 30
0.0
 11
602.0
 21
89.0
 31
0.0
  0
LINE
  5
1CD1
330
1F
100
AcDbEntity
  8
size
100
AcDbLine
 10
601.5
 20
41.0
 30
0.0
 11
601.5
 21
89.0
 31
0.0
  0
LINE
  5
1CD2
330
1F
100
AcDbEntity
  8
size
100
AcDbLine
 10
798.5
 20
41.0
 30
0.0
 11
798.5
 21
89.0
 31
0.0
  0
LINE
  5
1CD3
330
1F
100
AcDbEntity
  8
size
100
AcDbLine
 10
799.0
 20
41.0
 30
0.0
 11
799.0
 21
89.0
 31
0.0
  0
MTEXT
  5
1CD4
330
1F
100
AcDbEntity
  8
wakumoji
100
AcDbMText
 10
900.0000000000005
 20
43.0
 30
0.0
 40
6.0
 41
101.0
 71
     9
 72
     5
  1
年　　月　　日　
  7
gothic
 73
     1
 44
1.0
  0
LINE
  5
1CD5
330
1F
100
AcDbEntity
  8
size
100
AcDbLine
 10
900.0
 20
40.49999999999999
 30
0.0
 11
900.0
 21
89.0
 31
0.0
  0
LINE
  5
1CD6
330
1F
100
AcDbEntity
  8
size
100
AcDbLine
 10
900.5
 20
40.49999999999999
 30
0.0
 11
900.5
 21
89.0
 31
0.0
  0
MTEXT
  5
1CD7
330
1F
100
AcDbEntity
  8
wakumoji
100
AcDbMText
 10
1097.0
 20
56.75
 30
0.0
 40
8.0
 41
58.0
 71
     4
 72
     5
  1
Ｎｏ．
  7
gothic
 73
     1
 44
1.0
  0
LINE
  5
1CD8
330
1F
100
AcDbEntity
  8
size
100
AcDbLine
 10
1096.5
 20
40.49999999999999
 30
0.0
 11
1096.5
 21
89.0
 31
0.0
  0
LINE
  5
1CD9
330
1F
100
AcDbEntity
  8
size
100
AcDbLine
 10
1097.0
 20
72.5
 30
0.0
 11
1155.5
 21
72.5
 31
0.0
  0
MTEXT
  5
1CDA
330
1F
100
AcDbEntity
  8
wakumoji
100
AcDbMText
 10
1126.0
 20
81.00000000000001
 30
0.0
 40
8.0
 41
58.0
 71
     5
 72
     5
  1
図面番号
  7
gothic
 73
     1
 44
1.0
  0
LINE
  5
1CDB
330
1F
100
AcDbEntity
  8
size
100
AcDbLine
 10
1097.0
 20
73.0
 30
0.0
 11
1155.5
 21
73.0
 31
0.0
  0
LINE
  5
1CDC
330
1F
100
AcDbEntity
  8
size
100
AcDbLine
 10
1097.0
 20
40.49999999999999
 30
0.0
 11
1097.0
 21
89.0
 31
0.0
  0
LINE
  5
1CDD
330
1F
100
AcDbEntity
  8
size
100
AcDbLine
 10
40.49999999999999
 20
89.50000000000001
 30
0.0
 11
1155.5
 21
89.50000000000001
 31
0.0
  0
LINE
  5
1CDE
330
1F
100
AcDbEntity
  8
size
100
AcDbLine
 10
40.49999999999999
 20
90.0
 30
0.0
 11
1155.5
 21
90.0
 31
0.0
  0
LINE
  5
1CDF
330
1F
100
AcDbEntity
  8
size
100
AcDbLine
 10
40.49999999999999
 20
90.5
 30
0.0
 11
1155.5
 21
90.5
 31
0.0
  0
LINE
  5
1CE0
330
1F
100
AcDbEntity
  8
size
100
AcDbLine
 10
40.49999999999999
 20
91.0
 30
0.0
 11
1155.5
 21
91.0
 31
0.0
  0
LINE
  5
1CE1
330
1F
100
AcDbEntity
  8
size
100
AcDbLine
 10
40.49999999999999
 20
89.0
 30
0.0
 11
1155.5
 21
89.0
 31
0.0
  0
LWPOLYLINE
  5
1CE3
330
1F
100
AcDbEntity
  8
Defpoints
 62
     4
100
AcDbPolyline
 90
        4
 70
     1
 43
0.0
 10
20.0
 20
20.0
 10
1168.0
 20
20.0
 10
1168.0
 20
820.0000000000001
 10
20.0
 20
820.0000000000001
  0
MTEXT
  5
1CE4
330
1F
100
AcDbEntity
  8
wakumoji
100
AcDbMText
 10
581.7500000000004
 20
81.00000000000001
 30
0.0
 40
6.0
 41
39.5
 71
     5
 72
     5
  1
1 : 2
  7
gothic
 73
     1
 44
1.0
  0
TEXT
  5
1CE9
330
1F
100
AcDbEntity
  8
hojo
100
AcDbText
 10
4.874124167624358
 20
3.038995724530105
 30
0.0
 40
14.28571428571429
  1
A2-1:2
 41
0.8
  7
Std
100
AcDbText
  0
INSERT
  5
1CF0
330
1F
100
AcDbEntity
  8
size
100
AcDbBlockReference
  2
二葉ﾛｺﾞ
 10
923.3571428571432
 20
65.0
 30
0.0
 41
0.1
 42
0.1
 43
0.1
  0
TEXT
  5
22AD
330
1F
100
AcDbEntity
  8
moji
100
AcDbText
 10
656.6403159639539
 20
44.73087747178932
 30
0.0
 40
7.0
  1
アルミ枠 引分白板  詳細図
  7
kanji
 72
     4
 11
708.4403159639538
 21
48.23087747178931
 31
0.0
100
AcDbText
  0
LINE
  5
51D0
330
1F
100
AcDbEntity
  8
ADD_LINE
  6
DOT
100
AcDbLine
 10
322.6666666666667
 20
803.0000000000002
 30
0.0
 11
322.6666666666667
 21
788.0000000000003
 31
0.0
  0
LINE
  5
51D2
330
1F
100
AcDbEntity
  8
ADD_LINE
100
AcDbLine
 10
311.0
 20
795.5000000000003
 30
0.0
 11
411.0
 21
795.5000000000003
 31
0.0
  0
LINE
  5
56FB
330
1F
100
AcDbEntity
  8
0
100
AcDbLine
 10
1059.745557586819
 20
260.2098606592865
 30
0.0
 11
1047.745557586819
 21
260.2098606592865
 31
0.0
  0
LINE
  5
56FC
330
1F
100
AcDbEntity
  8
0
100
AcDbLine
 10
1023.64555758682
 20
275.2098606592865
 30
0.0
 11
1047.745557586819
 21
275.2098606592865
 31
0.0
  0
LINE
  5
56FD
330
1F
100
AcDbEntity
  8
0
100
AcDbLine
 10
1059.745557586819
 20
260.2098606592865
 30
0.0
 11
1059.745557586819
 21
245.2098606592865
 31
0.0
  0
LINE
  5
56FE
330
1F
100
AcDbEntity
  8
0
100
AcDbLine
 10
1059.745557586819
 20
245.2098606592865
 30
0.0
 11
1047.745557586819
 21
245.2098606592865
 31
0.0
  0
LINE
  5
56FF
330
1F
100
AcDbEntity
  8
saisen
100
AcDbLine
 10
1047.745557586819
 20
260.2098606592865
 30
0.0
 11
1059.745557586819
 21
245.2098606592865
 31
0.0
  0
LINE
  5
5700
330
1F
100
AcDbEntity
  8
saisen
100
AcDbLine
 10
1047.745557586819
 20
275.2098606592865
 30
0.0
 11
1023.64555758682
 21
245.2098606592865
 31
0.0
  0
LINE
  5
5701
330
1F
100
AcDbEntity
  8
0
100
AcDbLine
 10
1023.64555758682
 20
245.2098606592865
 30
0.0
 11
1047.745557586819
 21
245.2098606592865
 31
0.0
  0
LINE
  5
5703
330
1F
100
AcDbEntity
  8
0
100
AcDbLine
 10
551.2244938236619
 20
672.488497763341
 30
0.0
 11
694.1695595826534
 21
672.488497763341
 31
0.0
  0
LINE
  5
5704
330
1F
100
AcDbEntity
  8
0
100
AcDbLine
 10
551.2244938236619
 20
672.0884977633468
 30
0.0
 11
694.1695595826534
 21
672.0884977633468
 31
0.0
  0
LINE
  5
5705
330
1F
100
AcDbEntity
  8
0
100
AcDbLine
 10
551.2244938236619
 20
677.9884977633469
 30
0.0
 11
694.1695595826534
 21
677.9884977633409
 31
0.0
  0
LINE
  5
5706
330
1F
100
AcDbEntity
  8
saisen
100
AcDbLine
 10
551.2244938236619
 20
702.0884977633468
 30
0.0
 11
694.1695595826534
 21
702.0884977633468
 31
0.0
  0
LINE
  5
5707
330
1F
100
AcDbEntity
  8
0
100
AcDbLine
 10
169.1695595826534
 20
677.9884977633469
 30
0.0
 11
309.0195595826519
 21
677.9884977633469
 31
0.0
  0
LINE
  5
5708
330
1F
100
AcDbEntity
  8
0
100
AcDbLine
 10
169.1695595826534
 20
672.4884977633469
 30
0.0
 11
309.0195595826519
 21
672.4884977633469
 31
0.0
  0
LINE
  5
5709
330
1F
100
AcDbEntity
  8
saisen
100
AcDbLine
 10
455.0715113817118
 20
329.2404485881525
 30
0.0
 11
366.6323113819217
 21
329.2404485881525
 31
0.0
  0
LINE
  5
570A
330
1F
100
AcDbEntity
  8
saisen
100
AcDbLine
 10
276.5923113816953
 20
329.2404485881525
 30
0.0
 11
365.0315113814922
 21
329.2404485881525
 31
0.0
  0
LINE
  5
570B
330
1F
100
AcDbEntity
  8
saisen
100
AcDbLine
 10
366.6323113816961
 20
213.6412485883448
 30
0.0
 11
455.0715113817118
 21
213.6412485883448
 31
0.0
  0
LINE
  5
570C
330
1F
100
AcDbEntity
  8
saisen
100
AcDbLine
 10
365.0315113814922
 20
213.6412485883448
 30
0.0
 11
365.0315113814922
 21
329.2404485881525
 31
0.0
  0
LINE
  5
570D
330
1F
100
AcDbEntity
  8
saisen
100
AcDbLine
 10
366.6323113816961
 20
213.6412485883448
 30
0.0
 11
366.6323113816961
 21
329.2404485881525
 31
0.0
  0
LINE
  5
570E
330
1F
100
AcDbEntity
  8
saisen
100
AcDbLine
 10
276.5923113816953
 20
213.6412485883448
 30
0.0
 11
365.0315113814922
 21
213.6412485883448
 31
0.0
  0
DIMENSION
  5
570F
330
1F
100
AcDbEntity
  8
sunpo
100
AcDbDimension
  2
*D13
 10
390.6209635679929
 20
212.2408485882429
 30
0.0
 11
404.1769419883289
 21
223.2252287326303
 31
0.0
 70
   160
 71
     5
 42
200.0
  3
dim2_20
100
AcDbAlignedDimension
 13
368.6323113816993
 23
232.2408485882429
 33
0.0
 14
368.6323113816993
 24
212.2408485882429
 34
0.0
 50
270.0
100
AcDbRotatedDimension
  0
LWPOLYLINE
  5
5710
330
1F
100
AcDbEntity
  8
saisen
100
AcDbPolyline
 90
        3
 70
     0
 43
0.0
 10
355.8319113815987
 20
243.390848588243
 10
335.8319113815988
 20
243.390848588243
 10
338.3319113815987
 20
245.890848588243
  0
LWPOLYLINE
  5
5711
330
1F
100
AcDbEntity
  8
saisen
100
AcDbPolyline
 90
        3
 70
     0
 43
0.0
 10
375.8319113815987
 20
243.390848588243
 10
395.8319113815987
 20
243.390848588243
 10
393.3319113815987
 20
245.890848588243
  0
LINE
  5
5712
330
1F
100
AcDbEntity
  8
0
100
AcDbLine
 10
366.6323113816961
 20
227.7408485882443
 30
0.0
 11
366.6323113816961
 21
236.7408485882442
 31
0.0
  0
LINE
  5
5713
330
1F
100
AcDbEntity
  8
0
100
AcDbLine
 10
366.6323113816961
 20
236.7408485882442
 30
0.0
 11
368.6323113816961
 21
236.7408485882442
 31
0.0
  0
LINE
  5
5714
330
1F
100
AcDbEntity
  8
0
100
AcDbLine
 10
368.6323113816961
 20
236.7408485882442
 30
0.0
 11
368.6323113816961
 21
227.7408485882443
 31
0.0
  0
LINE
  5
5715
330
1F
100
AcDbEntity
  8
0
100
AcDbLine
 10
368.6323113816961
 20
227.7408485882443
 30
0.0
 11
366.6323113816961
 21
227.7408485882443
 31
0.0
  0
LINE
  5
5716
330
1F
100
AcDbEntity
  8
0
100
AcDbLine
 10
363.0315113814922
 20
227.7408485882443
 30
0.0
 11
365.0315113814922
 21
227.7408485882443
 31
0.0
  0
LINE
  5
5717
330
1F
100
AcDbEntity
  8
0
100
AcDbLine
 10
363.0315113814922
 20
236.7408485882442
 30
0.0
 11
363.0315113814922
 21
227.7408485882443
 31
0.0
  0
LINE
  5
5718
330
1F
100
AcDbEntity
  8
0
100
AcDbLine
 10
365.0315113814922
 20
236.7408485882442
 30
0.0
 11
363.0315113814922
 21
236.7408485882442
 31
0.0
  0
LINE
  5
5719
330
1F
100
AcDbEntity
  8
0
100
AcDbLine
 10
365.0315113814922
 20
227.7408485882443
 30
0.0
 11
365.0315113814922
 21
236.7408485882442
 31
0.0
  0
DIMENSION
  5
571A
330
1F
100
AcDbEntity
  8
sunpo
100
AcDbDimension
  2
*D14
 10
185.8319113819016
 20
352.6404268437565
 30
0.0
 11
365.8319113817448
 21
356.1404268434496
 31
0.0
 70
    32
  1
W
 71
     5
 42
3599.999999996744
  3
dim2_20
100
AcDbAlignedDimension
 13
545.8319113815547
 23
340.1408485876111
 33
0.0
 14
185.8319113818803
 24
340.1408485882368
 34
0.0
 50
179.9999999999023
100
AcDbRotatedDimension
  0
DIMENSION
  5
571B
330
1F
100
AcDbEntity
  8
sunpo
100
AcDbDimension
  2
*D15
 10
469.8714896371207
 20
213.7408485882429
 30
0.0
 11
484.0322182836389
 21
219.818611062255
 31
0.0
 70
   160
 71
     5
 42
100.0
  3
dim2_20
100
AcDbAlignedDimension
 13
457.3719113815895
 23
223.7408485882429
 33
0.0
 14
457.3719113815895
 24
213.7408485882429
 34
0.0
 50
270.0
100
AcDbRotatedDimension
  0
DIMENSION
  5
571C
330
1F
100
AcDbEntity
  8
sunpo
100
AcDbDimension
  2
*D16
 10
469.8714896371207
 20
330.0408485882547
 30
0.0
 11
484.9056377913134
 21
324.0840551710931
 31
0.0
 70
   160
 71
     5
 42
100.0
  3
dim2_20
100
AcDbAlignedDimension
 13
457.3719113815895
 23
320.0408485882547
 33
0.0
 14
457.3719113815895
 24
330.0408485882547
 34
0.0
 50
90.0
100
AcDbRotatedDimension
  0
DIMENSION
  5
571D
330
1F
100
AcDbEntity
  8
sunpo
100
AcDbDimension
  2
*D17
 10
261.7923331260767
 20
213.7408485882429
 30
0.0
 11
247.6092289970461
 21
219.7020317375436
 31
0.0
 70
   160
 71
     5
 42
100.0
  3
dim2_20
100
AcDbAlignedDimension
 13
274.2919113815965
 23
223.7408485882429
 33
0.0
 14
274.2919113815965
 24
213.7408485882429
 34
0.0
 50
270.0
100
AcDbRotatedDimension
  0
DIMENSION
  5
571E
330
1F
100
AcDbEntity
  8
sunpo
100
AcDbDimension
  2
*D18
 10
261.7923331260767
 20
330.0408485882547
 30
0.0
 11
244.5050000748565
 21
323.8051229324697
 31
0.0
 70
   160
 71
     5
 42
100.0
  3
dim2_20
100
AcDbAlignedDimension
 13
274.2919113815965
 23
320.0408485882547
 33
0.0
 14
274.2919113815965
 24
330.0408485882547
 34
0.0
 50
90.0
100
AcDbRotatedDimension
  0
LINE
  5
571F
330
1F
100
AcDbEntity
  8
saisen
100
AcDbLine
 10
455.0715113817118
 20
213.6412485883448
 30
0.0
 11
455.0715113817118
 21
329.2404485881525
 31
0.0
  0
LWPOLYLINE
  5
5720
330
1F
100
AcDbEntity
  8
0
100
AcDbPolyline
 90
        6
 70
     1
 43
0.0
 10
457.3719113815895
 20
224.6178780028345
 10
457.3719113815895
 20
222.8638191736516
 42
-0.3575107650276803
 10
457.2513288018613
 20
222.7167320722927
 10
455.8719113815896
 20
222.4408485882429
 10
455.8719113815896
 20
225.0408485882431
 10
457.2513288018613
 20
224.7649651041934
 42
-0.3575107650276803
  0
LWPOLYLINE
  5
5721
330
1F
100
AcDbEntity
  8
0
100
AcDbPolyline
 90
        6
 70
     1
 43
0.0
 10
274.2919113815965
 20
224.6178780028345
 10
274.2919113815965
 20
222.8638191736516
 42
0.3575107650276803
 10
274.4124939613248
 20
222.7167320722927
 10
275.7919113815965
 20
222.4408485882429
 10
275.7919113815965
 20
225.0408485882431
 10
274.4124939613248
 20
224.7649651041934
 42
0.3575107650276803
  0
LWPOLYLINE
  5
5722
330
1F
100
AcDbEntity
  8
0
100
AcDbPolyline
 90
        6
 70
     1
 43
0.0
 10
457.3719113821248
 20
319.1638191736633
 10
457.3719113821248
 20
320.917878002846
 42
0.3575107650276803
 10
457.2513288023969
 20
321.0649651042049
 10
455.8719113821248
 20
321.3408485882546
 10
455.8719113821248
 20
318.7408485882547
 10
457.2513288023969
 20
319.0167320723044
 42
0.3575107650276803
  0
LWPOLYLINE
  5
5723
330
1F
100
AcDbEntity
  8
0
100
AcDbPolyline
 90
        6
 70
     1
 43
0.0
 10
274.2919113815965
 20
319.1638191736633
 10
274.2919113815965
 20
320.917878002846
 42
-0.3575107650276803
 10
274.4124939613248
 20
321.0649651042049
 10
275.7919113815965
 20
321.3408485882546
 10
275.7919113815965
 20
318.7408485882547
 10
274.4124939613248
 20
319.0167320723044
 42
-0.3575107650276803
  0
LINE
  5
5724
330
1F
100
AcDbEntity
  8
saisen
100
AcDbLine
 10
276.5923113816953
 20
213.6412485883448
 30
0.0
 11
276.5923113816953
 21
329.2404485881525
 31
0.0
  0
DIMENSION
  5
5725
330
1F
100
AcDbEntity
  8
sunpo
100
AcDbDimension
  2
*D19
 10
563.3319613822009
 20
212.2408485882429
 30
0.0
 11
570.2300715890046
 21
210.4031205367326
 31
0.0
 70
   160
 71
     5
 42
35.00000000011596
 53
90.0
  3
dim2_20
100
AcDbAlignedDimension
 13
545.831911382379
 23
208.7408485882313
 33
0.0
 14
545.831911382379
 24
212.2408485882429
 34
0.0
 50
90.0
100
AcDbRotatedDimension
  0
DIMENSION
  5
5726
330
1F
100
AcDbEntity
  8
sunpo
100
AcDbDimension
  2
*D20
 10
563.3319613822009
 20
332.2408485882547
 30
0.0
 11
570.5326820894829
 21
333.6340460401345
 31
0.0
 70
   160
 71
     5
 42
35.00000000011596
 53
90.0
  3
dim2_20
100
AcDbAlignedDimension
 13
545.831911382379
 23
335.7408485882663
 33
0.0
 14
545.831911382379
 24
332.2408485882547
 34
0.0
 50
270.0
100
AcDbRotatedDimension
  0
DIMENSION
  5
5727
330
1F
100
AcDbEntity
  8
sunpo
100
AcDbDimension
  2
*D21
 10
563.3319613822009
 20
332.2408485882547
 30
0.0
 11
559.8319613822008
 21
272.2408485882489
 31
0.0
 70
    32
  1
H
 71
     5
 42
1200.000000000118
  3
dim2_20
100
AcDbAlignedDimension
 13
545.8319113823677
 23
212.2408485882429
 33
0.0
 14
545.831911382379
 24
332.2408485882547
 34
0.0
 50
90.0
100
AcDbRotatedDimension
  0
DIMENSION
  5
5728
330
1F
100
AcDbEntity
  8
sunpo
100
AcDbDimension
  2
*D22
 10
545.8319113818898
 20
352.6404268431308
 30
0.0
 11
547.6340157498157
 21
358.9330438235152
 31
0.0
 70
   160
 71
     5
 42
35.00000000011823
  3
dim2_20
100
AcDbAlignedDimension
 13
549.3319113818803
 23
340.140848587605
 33
0.0
 14
545.8319113818685
 24
340.1408485876111
 34
0.0
 50
179.9999999999023
100
AcDbRotatedDimension
  0
DIMENSION
  5
5729
330
1F
100
AcDbEntity
  8
sunpo
100
AcDbDimension
  2
*D23
 10
185.8319113818803
 20
352.6404268437565
 30
0.0
 11
184.3471681644528
 21
358.3878161091243
 31
0.0
 70
   160
 71
     5
 42
35.00000000011823
  3
dim2_20
100
AcDbAlignedDimension
 13
182.3319113818685
 23
340.1408485882429
 33
0.0
 14
185.8319113818803
 24
340.1408485882368
 34
0.0
 50
359.9999999999023
100
AcDbRotatedDimension
  0
LINE
  5
572B
330
1F
100
AcDbEntity
  8
0
100
AcDbLine
 10
545.8319113815
 20
212.2408485879314
 30
0.0
 11
546.8280596529425
 21
211.2447003165034
 31
0.0
  0
LINE
  5
572C
330
1F
100
AcDbEntity
  8
0
100
AcDbLine
 10
549.5319113815408
 20
208.344700316502
 30
0.0
 11
549.5319113815408
 21
211.2447003165034
 31
0.0
  0
LINE
  5
572D
330
1F
100
AcDbEntity
  8
0
100
AcDbLine
 10
545.5319113815408
 20
208.344700316502
 30
0.0
 11
545.5319113815408
 21
211.2447003165034
 31
0.0
  0
LINE
  5
572E
330
1F
100
AcDbEntity
  8
0
100
AcDbLine
 10
545.5319113815408
 20
208.344700316502
 30
0.0
 11
549.5319113815408
 21
208.344700316502
 31
0.0
  0
LINE
  5
572F
330
1F
100
AcDbEntity
  8
0
100
AcDbLine
 10
545.5319113815408
 20
211.2447003165034
 30
0.0
 11
549.5319113815408
 21
211.2447003165034
 31
0.0
  0
LINE
  5
5730
330
1F
100
AcDbEntity
  8
hasen
100
AcDbLine
 10
549.3319113815437
 20
208.7408485882443
 30
0.0
 11
549.3319113815437
 21
211.2447003165034
 31
0.0
  0
LINE
  5
5731
330
1F
100
AcDbEntity
  8
0
100
AcDbLine
 10
545.8319113818492
 20
332.2408485882515
 30
0.0
 11
549.3319113818492
 21
335.7408485882443
 31
0.0
  0
LINE
  5
5732
330
1F
100
AcDbEntity
  8
0
100
AcDbLine
 10
549.3319113815437
 20
335.7408485879314
 30
0.0
 11
549.3319113815437
 21
211.2447003165034
 31
0.0
  0
LINE
  5
5733
330
1F
100
AcDbEntity
  8
0
100
AcDbLine
 10
545.8319113815437
 20
332.2408485879387
 30
0.0
 11
545.8319113815437
 21
212.2408485879314
 31
0.0
  0
LINE
  5
5734
330
1F
100
AcDbEntity
  8
saisen
100
AcDbLine
 10
544.3319113815
 20
213.7408485882442
 30
0.0
 11
544.3319113815
 21
330.0408485882544
 31
0.0
  0
LINE
  5
5735
330
1F
100
AcDbEntity
  8
0
100
AcDbLine
 10
365.8319113815942
 20
212.8408485882428
 30
0.0
 11
365.8319113815942
 21
330.0408485882544
 31
0.0
  0
LINE
  5
5736
330
1F
100
AcDbEntity
  8
0
100
AcDbLine
 10
275.7919113815933
 20
212.8408485882428
 30
0.0
 11
275.7919113815933
 21
330.0408485882544
 31
0.0
  0
LINE
  5
5737
330
1F
100
AcDbEntity
  8
0
100
AcDbLine
 10
185.8319113818634
 20
332.2408485882515
 30
0.0
 11
182.3319113818488
 21
335.7408485882443
 31
0.0
  0
LINE
  5
5738
330
1F
100
AcDbEntity
  8
0
100
AcDbLine
 10
186.131911381859
 20
208.3447003168148
 30
0.0
 11
186.131911381859
 21
211.244700316809
 31
0.0
  0
LINE
  5
5739
330
1F
100
AcDbEntity
  8
0
100
AcDbLine
 10
182.1319113818663
 20
208.3447003168148
 30
0.0
 11
182.1319113818663
 21
211.244700316809
 31
0.0
  0
LINE
  5
573A
330
1F
100
AcDbEntity
  8
hasen
100
AcDbLine
 10
182.3319113818561
 20
208.7408485882443
 30
0.0
 11
182.3319113818561
 21
211.244700316809
 31
0.0
  0
LINE
  5
573B
330
1F
100
AcDbEntity
  8
0
100
AcDbLine
 10
185.8319113818634
 20
212.2408485882443
 30
0.0
 11
184.8357631104354
 21
211.244700316809
 31
0.0
  0
LINE
  5
573C
330
1F
100
AcDbEntity
  8
0
100
AcDbLine
 10
186.131911381859
 20
211.244700316809
 30
0.0
 11
182.1319113818663
 21
211.244700316809
 31
0.0
  0
LINE
  5
573D
330
1F
100
AcDbEntity
  8
0
100
AcDbLine
 10
186.131911381859
 20
208.3447003168148
 30
0.0
 11
182.1319113818663
 21
208.3447003168148
 31
0.0
  0
LINE
  5
573E
330
1F
100
AcDbEntity
  8
0
100
AcDbLine
 10
182.3319113818561
 20
211.244700316809
 30
0.0
 11
182.3319113818561
 21
335.740848588237
 31
0.0
  0
LINE
  5
573F
330
1F
100
AcDbEntity
  8
0
100
AcDbLine
 10
185.8319113818634
 20
332.2408485882515
 30
0.0
 11
185.8319113818634
 21
212.2408485882443
 31
0.0
  0
LINE
  5
5740
330
1F
100
AcDbEntity
  8
saisen
100
AcDbLine
 10
187.3319113818488
 20
213.7408485882442
 30
0.0
 11
187.3319113818488
 21
330.0408485882544
 31
0.0
  0
LINE
  5
5741
330
1F
100
AcDbEntity
  8
saisen
100
AcDbLine
 10
187.3319113818488
 20
213.7408485882442
 30
0.0
 11
275.7919113815933
 21
213.7408485882442
 31
0.0
  0
LINE
  5
5742
330
1F
100
AcDbEntity
  8
saisen
100
AcDbLine
 10
544.3319113815
 20
213.7408485882442
 30
0.0
 11
455.8719113815954
 21
213.7408485882442
 31
0.0
  0
LINE
  5
5743
330
1F
100
AcDbEntity
  8
0
100
AcDbLine
 10
455.8719113815954
 20
212.8408485882428
 30
0.0
 11
455.8719113815954
 21
330.0408485882544
 31
0.0
  0
LINE
  5
5744
330
1F
100
AcDbEntity
  8
0
100
AcDbLine
 10
549.3319113818492
 20
335.7408485882443
 30
0.0
 11
182.3319113818488
 21
335.7408485882443
 31
0.0
  0
LINE
  5
5745
330
1F
100
AcDbEntity
  8
0
100
AcDbLine
 10
185.8319113818634
 20
332.2408485882515
 30
0.0
 11
545.8319113818492
 21
332.2408485882515
 31
0.0
  0
LINE
  5
5746
330
1F
100
AcDbEntity
  8
0
100
AcDbLine
 10
186.131911381859
 20
211.0402475970004
 30
0.0
 11
545.5319113815408
 21
211.0402475970004
 31
0.0
  0
LINE
  5
5747
330
1F
100
AcDbEntity
  8
0
100
AcDbLine
 10
186.131911381859
 20
208.5402475970004
 30
0.0
 11
545.5319113815408
 21
208.5402475970004
 31
0.0
  0
LINE
  5
5748
330
1F
100
AcDbEntity
  8
hasen
100
AcDbLine
 10
182.3319113818561
 20
208.7408485882443
 30
0.0
 11
549.3319113815437
 21
208.7408485882443
 31
0.0
  0
LINE
  5
5749
330
1F
100
AcDbEntity
  8
0
100
AcDbLine
 10
185.8319113818634
 20
212.2408485882443
 30
0.0
 11
545.8319113818492
 21
212.2408485882443
 31
0.0
  0
LINE
  5
574A
330
1F
100
AcDbEntity
  8
0
100
AcDbLine
 10
545.8319113815437
 20
330.0408485882544
 30
0.0
 11
185.8319113818634
 21
330.0408485882544
 31
0.0
  0
LINE
  5
574B
330
1F
100
AcDbEntity
  8
0
100
AcDbLine
 10
275.7919113815933
 20
212.8408485882428
 30
0.0
 11
455.8719113815954
 21
212.8408485882428
 31
0.0
  0
DIMENSION
  5
574D
330
1F
100
AcDbEntity
  8
ADD_LINE
100
AcDbDimension
  2
*D25
 10
579.3319113815409
 20
122.24074858825
 30
0.0
 11
574.5223875720171
 21
165.4907985882407
 31
0.0
 70
    32
  1
(<>)
 71
     5
 42
865.0009999998131
  3
dim2_20
100
AcDbAlignedDimension
 13
551.3319113815291
 23
208.7408485882313
 33
0.0
 14
551.3319113815409
 24
122.24074858825
 34
0.0
 50
90.0
100
AcDbRotatedDimension
  0
LINE
  5
5751
330
1F
100
AcDbEntity
  8
kijun
100
AcDbLine
 10
1067.045557586807
 20
716.9123797339231
 30
0.0
 11
1112.449671049489
 21
716.9123797339231
 31
0.0
  0
LINE
  5
5752
330
1F
100
AcDbEntity
  8
0
100
AcDbLine
 10
454.1695595826533
 20
647.0884977633525
 30
0.0
 11
454.1695595826533
 21
617.0871843677755
 31
0.0
  0
TEXT
  5
575D
330
1F
100
AcDbEntity
  8
sunpo
 62
     2
100
AcDbText
 10
812.488340951474
 20
548.0960090455196
 30
0.0
 40
5.0
  1
引分式白板
 41
0.8
  7
Std
100
AcDbText
  0
DIMENSION
  5
575F
330
1F
100
AcDbEntity
  8
sunpo
100
AcDbDimension
  2
*D27
 10
960.7455575868202
 20
604.4645628081482
 30
0.0
 11
977.7455575868202
 21
608.6645628081482
 31
0.0
 70
    32
 71
     5
 42
34.0
  3
dim2
100
AcDbAlignedDimension
 13
994.7455575868202
 23
614.4645628081482
 33
0.0
 14
960.7455575868202
 24
614.4645628081482
 34
0.0
100
AcDbRotatedDimension
  0
ARC
  5
5760
330
1F
100
AcDbEntity
  8
saisen
100
AcDbCircle
 10
857.7455575868256
 20
209.2098606592865
 30
0.0
 40
2.999999999999969
100
AcDbArc
 50
180.0
 51
270.0
  0
ARC
  5
5761
330
1F
100
AcDbEntity
  8
saisen
100
AcDbCircle
 10
857.7455575868256
 20
232.2098606592865
 30
0.0
 40
2.999999999999969
100
AcDbArc
 50
90.0
 51
180.0
  0
LINE
  5
5762
330
1F
100
AcDbEntity
  8
saisen
100
AcDbLine
 10
889.7455575868256
 20
212.2098606592865
 30
0.0
 11
913.7455575868257
 21
212.2098606592865
 31
0.0
  0
LINE
  5
5763
330
1F
100
AcDbEntity
  8
saisen
100
AcDbLine
 10
934.7455575868185
 20
235.2098606592865
 30
0.0
 11
936.7455575868184
 21
235.2098606592865
 31
0.0
  0
LINE
  5
5764
330
1F
100
AcDbEntity
  8
saisen
100
AcDbLine
 10
857.7455575868256
 20
235.2098606592865
 30
0.0
 11
866.7455575868258
 21
235.2098606592865
 31
0.0
  0
LINE
  5
5765
330
1F
100
AcDbEntity
  8
saisen
100
AcDbLine
 10
954.7455575868184
 20
208.2038507468553
 30
0.0
 11
975.7455575868258
 21
208.2038507468553
 31
0.0
  0
LINE
  5
5766
330
1F
100
AcDbEntity
  8
saisen
100
AcDbLine
 10
975.7455575868258
 20
206.2098606592865
 30
0.0
 11
975.7455575868258
 21
210.2098606592865
 31
0.0
  0
ARC
  5
5767
330
1F
100
AcDbEntity
  8
0
100
AcDbCircle
 10
864.3684025057769
 20
230.7098606592865
 30
0.0
 40
0.4999999999999949
100
AcDbArc
 50
5.626270946043191
 51
90.0
  0
LINE
  5
5768
330
1F
100
AcDbEntity
  8
0
100
AcDbLine
 10
856.7455575868256
 20
210.2098606592865
 30
0.0
 11
858.7455575868258
 21
208.2098606592865
 31
0.0
  0
LINE
  5
5769
330
1F
100
AcDbEntity
  8
0
100
AcDbLine
 10
858.7455575868258
 20
233.2098606592865
 30
0.0
 11
856.7455575868256
 21
231.2098606592865
 31
0.0
  0
ARC
  5
576A
330
1F
100
AcDbEntity
  8
0
100
AcDbCircle
 10
864.8256859979188
 20
231.2098606592865
 30
0.0
 40
1.999999999999979
100
AcDbArc
 50
4.588565735888471
 51
90.0
  0
ARC
  5
576B
330
1F
100
AcDbEntity
  8
0
100
AcDbCircle
 10
875.889151126004
 20
211.2098606592865
 30
0.0
 40
0.9999999999999896
100
AcDbArc
 50
270.0
 51
57.79577249544292
  0
LINE
  5
576C
330
1F
100
AcDbEntity
  8
0
100
AcDbLine
 10
858.7455575868258
 20
210.2098606592865
 30
0.0
 11
858.7455575868258
 21
231.2098606592865
 31
0.0
  0
LINE
  5
576D
330
1F
100
AcDbEntity
  8
0
100
AcDbLine
 10
858.7455575868258
 20
231.2098606592865
 30
0.0
 11
864.3684025057769
 21
231.2098606592865
 31
0.0
  0
ARC
  5
576E
330
1F
100
AcDbEntity
  8
0
100
AcDbCircle
 10
889.7455575868256
 20
233.2098606592865
 30
0.0
 40
24.99999999999975
100
AcDbArc
 50
185.6262709460431
 51
192.7090329944672
  0
LINE
  5
576F
330
1F
100
AcDbEntity
  8
0
100
AcDbLine
 10
858.7455575868258
 20
208.2098606592865
 30
0.0
 11
913.7455575868257
 21
208.2098606592865
 31
0.0
  0
ARC
  5
5770
330
1F
100
AcDbEntity
  8
0
100
AcDbCircle
 10
936.7455575868184
 20
219.0677250355532
 30
0.0
 40
1.999999999999979
100
AcDbArc
 50
0.0
 51
148.4136619036883
  0
LINE
  5
5771
330
1F
100
AcDbEntity
  8
0
100
AcDbLine
 10
938.7455575868257
 20
208.2098606592865
 30
0.0
 11
938.7455575868257
 21
219.0617151231293
 31
0.0
  0
ARC
  5
5772
330
1F
100
AcDbEntity
  8
0
100
AcDbCircle
 10
913.7455575868257
 20
233.2098606592865
 30
0.0
 40
24.99999999999975
100
AcDbArc
 50
270.0
 51
328.4136619036883
  0
LINE
  5
5773
330
1F
100
AcDbEntity
  8
0
100
AcDbLine
 10
936.7455575868184
 20
233.2098606592865
 30
0.0
 11
936.7455575868184
 21
245.2098606592865
 31
0.0
  0
LINE
  5
5774
330
1F
100
AcDbEntity
  8
0
100
AcDbLine
 10
938.7455575868257
 20
208.2098606592865
 30
0.0
 11
954.7455575868184
 21
208.2098606592865
 31
0.0
  0
LINE
  5
5775
330
1F
100
AcDbEntity
  8
0
100
AcDbLine
 10
1072.745557586819
 20
243.2098606592865
 30
0.0
 11
1047.245557586819
 21
243.2098606592865
 31
0.0
  0
LINE
  5
5776
330
1F
100
AcDbEntity
  8
0
100
AcDbLine
 10
960.7455575868257
 20
245.2098606592865
 30
0.0
 11
960.7455575868257
 21
243.2098606592865
 31
0.0
  0
LINE
  5
5777
330
1F
100
AcDbEntity
  8
saisen
100
AcDbLine
 10
854.7455575868257
 20
209.2098606592865
 30
0.0
 11
854.7455575868257
 21
232.2098606592865
 31
0.0
  0
LINE
  5
5778
330
1F
100
AcDbEntity
  8
0
100
AcDbLine
 10
858.7455575868258
 20
210.2098606592865
 30
0.0
 11
875.889151126004
 21
210.2098606592865
 31
0.0
  0
LINE
  5
5779
330
1F
100
AcDbEntity
  8
0
100
AcDbLine
 10
936.7455575868184
 20
245.2098606592865
 30
0.0
 11
960.7455575868257
 21
245.2098606592865
 31
0.0
  0
ARC
  5
577A
330
1F
100
AcDbEntity
  8
0
100
AcDbCircle
 10
913.7455575868257
 20
233.2098606592865
 30
0.0
 40
22.99999999999977
100
AcDbArc
 50
270.0
 51
334.2285382594521
  0
ARC
  5
577B
330
1F
100
AcDbEntity
  8
0
100
AcDbCircle
 10
889.7455575868256
 20
233.2098606592865
 30
0.0
 40
22.99999999999977
100
AcDbArc
 50
184.5885657358884
 51
199.0314409250228
  0
LINE
  5
577C
330
1F
100
AcDbEntity
  8
0
100
AcDbLine
 10
913.7455575868257
 20
210.2098606592865
 30
0.0
 11
889.7455575868256
 21
210.2098606592865
 31
0.0
  0
LINE
  5
577D
330
1F
100
AcDbEntity
  8
0
100
AcDbLine
 10
858.7455575868258
 20
233.2098606592865
 30
0.0
 11
864.8256859979188
 21
233.2098606592865
 31
0.0
  0
LINE
  5
577E
330
1F
100
AcDbEntity
  8
0
100
AcDbLine
 10
856.7455575868256
 20
210.2098606592865
 30
0.0
 11
856.7455575868256
 21
231.2098606592865
 31
0.0
  0
LINE
  5
577F
330
1F
100
AcDbEntity
  8
0
100
AcDbLine
 10
1067.745557586819
 20
210.2098606592865
 30
0.0
 11
940.7455575868256
 21
210.2098606592865
 31
0.0
  0
LINE
  5
5780
330
1F
100
AcDbEntity
  8
0
100
AcDbLine
 10
1070.745557586819
 20
245.2098606592865
 30
0.0
 11
1017.745557586818
 21
245.2098606592865
 31
0.0
  0
LINE
  5
5781
330
1F
100
AcDbEntity
  8
0
100
AcDbLine
 10
1016.245557586826
 20
695.512379733929
 30
0.0
 11
1017.745557586818
 21
695.512379733929
 31
0.0
  0
LINE
  5
5782
330
1F
100
AcDbEntity
  8
0
100
AcDbLine
 10
942.7895465816868
 20
730.2123797339234
 30
0.0
 11
1067.745557586819
 21
730.2123797339234
 31
0.0
  0
LINE
  5
5783
330
1F
100
AcDbEntity
  8
0
100
AcDbLine
 10
960.7455575868257
 20
695.2123797339232
 30
0.0
 11
1016.245557586826
 21
695.2123797339232
 31
0.0
  0
LINE
  5
5784
330
1F
100
AcDbEntity
  8
saisen
100
AcDbLine
 10
940.7455575868256
 20
435.2111201966056
 30
0.0
 11
940.7455575868256
 21
699.1683907390563
 31
0.0
  0
LINE
  5
5785
330
1F
100
AcDbEntity
  8
0
100
AcDbLine
 10
127.1695595826534
 20
630.0884977633468
 30
0.0
 11
129.1695595826534
 21
630.0884977633468
 31
0.0
  0
ARC
  5
5786
330
1F
100
AcDbEntity
  8
0
100
AcDbCircle
 10
145.321679910194
 20
514.0884977633525
 30
0.0
 40
5.999999999999939
100
AcDbArc
 50
188.6955028775587
 51
270.0
  0
LINE
  5
5787
330
1F
100
AcDbEntity
  8
0
100
AcDbLine
 10
133.2393269690221
 20
593.0884977633525
 30
0.0
 11
143.945209321959
 21
523.0884977633524
 31
0.0
  0
LINE
  5
5788
330
1F
100
AcDbEntity
  8
0
100
AcDbLine
 10
143.945209321959
 20
523.0884977633524
 30
0.0
 11
166.1695595826534
 21
523.0884977633524
 31
0.0
  0
LINE
  5
5789
330
1F
100
AcDbEntity
  8
0
100
AcDbLine
 10
127.1695595826606
 20
593.0884977633525
 30
0.0
 11
139.3906453732127
 21
513.1813983635786
 31
0.0
  0
LINE
  5
578A
330
1F
100
AcDbEntity
  8
0
100
AcDbLine
 10
127.1695595826534
 20
593.0884977633525
 30
0.0
 11
166.1695595826534
 21
593.0884977633525
 31
0.0
  0
LINE
  5
578B
330
1F
100
AcDbEntity
  8
0
100
AcDbLine
 10
145.321679910194
 20
508.0884977633525
 30
0.0
 11
166.1695595826534
 21
508.0884977633525
 31
0.0
  0
LINE
  5
578C
330
1F
100
AcDbEntity
  8
0
100
AcDbLine
 10
166.1695595826534
 20
595.0884977633525
 30
0.0
 11
166.1695595826534
 21
508.0884977633525
 31
0.0
  0
LINE
  5
578D
330
1F
100
AcDbEntity
  8
0
100
AcDbLine
 10
127.1695595826534
 20
630.0884977633468
 30
0.0
 11
127.1695595826534
 21
593.0884977633525
 31
0.0
  0
LINE
  5
578E
330
1F
100
AcDbEntity
  8
0
100
AcDbLine
 10
309.0195595826519
 20
511.0884977633524
 30
0.0
 11
166.1695595826534
 21
511.0884977633524
 31
0.0
  0
LINE
  5
578F
330
1F
100
AcDbEntity
  8
0
100
AcDbLine
 10
940.7455575868183
 20
233.7098606592865
 30
0.0
 11
941.0455575868214
 21
233.7098606592865
 31
0.0
  0
LINE
  5
5790
330
1F
100
AcDbEntity
  8
0
100
AcDbLine
 10
941.0455575868214
 20
233.7098606592865
 30
0.0
 11
941.0455575868214
 21
230.7098606592865
 31
0.0
  0
LINE
  5
5791
330
1F
100
AcDbEntity
  8
0
100
AcDbLine
 10
941.0455575868214
 20
230.7098606592865
 30
0.0
 11
940.7455575868183
 21
230.7098606592865
 31
0.0
  0
LINE
  5
5792
330
1F
100
AcDbEntity
  8
0
  6
Continuous
 62
     2
100
AcDbLine
 10
940.7455575868183
 20
222.7098606592865
 30
0.0
 11
941.0455575868214
 21
222.7098606592865
 31
0.0
  0
LINE
  5
5793
330
1F
100
AcDbEntity
  8
0
100
AcDbLine
 10
941.0455575868214
 20
222.7098606592865
 30
0.0
 11
941.0455575868214
 21
219.7098606592865
 31
0.0
  0
LINE
  5
5794
330
1F
100
AcDbEntity
  8
0
  6
Continuous
 62
     2
100
AcDbLine
 10
941.0455575868214
 20
219.7098606592865
 30
0.0
 11
940.7455575868183
 21
219.7098606592865
 31
0.0
  0
LINE
  5
5795
330
1F
100
AcDbEntity
  8
0
100
AcDbLine
 10
940.7455575868256
 20
210.2098606592865
 30
0.0
 11
940.7455575868183
 21
243.2098606592865
 31
0.0
  0
LINE
  5
5796
330
1F
100
AcDbEntity
  8
0
100
AcDbLine
 10
942.7455575868185
 20
243.2098606592865
 30
0.0
 11
940.7455575868183
 21
241.2098606592865
 31
0.0
  0
LINE
  5
5797
330
1F
100
AcDbEntity
  8
0
100
AcDbLine
 10
940.7455575868256
 20
212.2098606592865
 30
0.0
 11
942.7455575868258
 21
210.2098606592865
 31
0.0
  0
LINE
  5
5798
330
1F
100
AcDbEntity
  8
0
100
AcDbLine
 10
942.7455575868258
 20
212.2098606592865
 30
0.0
 11
942.7455575868185
 21
241.2098606592865
 31
0.0
  0
LINE
  5
5799
330
1F
100
AcDbEntity
  8
0
100
AcDbLine
 10
962.7455575868257
 20
241.2098606592865
 30
0.0
 11
947.7455575868184
 21
241.2098606592865
 31
0.0
  0
LINE
  5
579A
330
1F
100
AcDbEntity
  8
0
100
AcDbLine
 10
1065.745557586819
 20
212.2098606592865
 30
0.0
 11
1047.245557586819
 21
212.2098606592865
 31
0.0
  0
LINE
  5
579B
330
1F
100
AcDbEntity
  8
0
100
AcDbLine
 10
945.7455575868184
 20
237.2098606592865
 30
0.0
 11
945.7455575868184
 21
241.2098606592865
 31
0.0
  0
LINE
  5
579C
330
1F
100
AcDbEntity
  8
0
100
AcDbLine
 10
945.7455575868257
 20
212.2098606592865
 30
0.0
 11
945.7455575868257
 21
216.2098606592865
 31
0.0
  0
LINE
  5
579D
330
1F
100
AcDbEntity
  8
0
100
AcDbLine
 10
947.7455575868184
 20
237.2098606592865
 30
0.0
 11
947.7455575868184
 21
241.2098606592865
 31
0.0
  0
LINE
  5
579E
330
1F
100
AcDbEntity
  8
0
100
AcDbLine
 10
947.7455575868184
 20
237.2098606592865
 30
0.0
 11
945.7455575868184
 21
237.2098606592865
 31
0.0
  0
LINE
  5
579F
330
1F
100
AcDbEntity
  8
0
100
AcDbLine
 10
945.7455575868184
 20
241.2098606592865
 30
0.0
 11
942.7455575868185
 21
241.2098606592865
 31
0.0
  0
LINE
  5
57A0
330
1F
100
AcDbEntity
  8
0
100
AcDbLine
 10
962.7455575868257
 20
243.2098606592865
 30
0.0
 11
962.7455575868257
 21
241.2098606592865
 31
0.0
  0
LINE
  5
57A1
330
1F
100
AcDbEntity
  8
0
100
AcDbLine
 10
960.7455575868257
 20
243.2098606592865
 30
0.0
 11
940.7455575868183
 21
243.2098606592865
 31
0.0
  0
LINE
  5
57A2
330
1F
100
AcDbEntity
  8
0
100
AcDbLine
 10
954.7455575868257
 20
212.2098606592865
 30
0.0
 11
954.7455575868257
 21
214.7098606592865
 31
0.0
  0
LINE
  5
57A3
330
1F
100
AcDbEntity
  8
0
100
AcDbLine
 10
954.7176935418205
 20
216.7098606592865
 30
0.0
 11
957.7455575868256
 21
216.7098606592865
 31
0.0
  0
LINE
  5
57A4
330
1F
100
AcDbEntity
  8
0
100
AcDbLine
 10
954.7455575868257
 20
214.7098606592865
 30
0.0
 11
957.7455575868256
 21
214.7098606592865
 31
0.0
  0
LINE
  5
57A5
330
1F
100
AcDbEntity
  8
0
100
AcDbLine
 10
984.7455575868258
 20
214.7098606592865
 30
0.0
 11
984.7455575868258
 21
212.2098606592865
 31
0.0
  0
LINE
  5
57A6
330
1F
100
AcDbEntity
  8
0
100
AcDbLine
 10
986.7455575868257
 20
216.7098606592865
 30
0.0
 11
986.7455575868257
 21
212.2098606592865
 31
0.0
  0
LINE
  5
57A7
330
1F
100
AcDbEntity
  8
kijun
100
AcDbLine
 10
944.8455575868242
 20
216.2098606592865
 30
0.0
 11
955.6455575868199
 21
216.2098606592865
 31
0.0
  0
LINE
  5
57A8
330
1F
100
AcDbEntity
  8
kijun
100
AcDbLine
 10
950.2455575868257
 20
211.4598606592865
 30
0.0
 11
950.2455575868257
 21
221.2098606592865
 31
0.0
  0
ARC
  5
57A9
330
1F
100
AcDbEntity
  8
0
100
AcDbCircle
 10
950.2455575868257
 20
216.2098606592865
 30
0.0
 40
4.5
100
AcDbArc
 50
6.379370208348634
 51
55.15009542108858
  0
ARC
  5
57AA
330
1F
100
AcDbEntity
  8
0
100
AcDbCircle
 10
950.2455575868257
 20
216.2098606592865
 30
0.0
 40
2.5
100
AcDbArc
 50
124.8499045789114
 51
55.15009542108858
  0
ARC
  5
57AB
330
1F
100
AcDbEntity
  8
0
100
AcDbCircle
 10
948.2455575868257
 20
219.0821419825536
 30
0.0
 40
1.0
100
AcDbArc
 50
304.8499045789114
 51
124.8499045789114
  0
ARC
  5
57AC
330
1F
100
AcDbEntity
  8
0
100
AcDbCircle
 10
952.2455575868256
 20
219.0821419825536
 30
0.0
 40
1.0
100
AcDbArc
 50
55.15009542108858
 51
235.1500954210886
  0
ARC
  5
57AD
330
1F
100
AcDbEntity
  8
0
100
AcDbCircle
 10
950.2455575868257
 20
216.2098606592865
 30
0.0
 40
4.5
100
AcDbArc
 50
124.8499045789114
 51
180.0
  0
LINE
  5
57AE
330
1F
100
AcDbEntity
  8
0
100
AcDbLine
 10
945.7455575868257
 20
212.2098606592865
 30
0.0
 11
942.7455575868258
 21
212.2098606592865
 31
0.0
  0
LINE
  5
57AF
330
1F
100
AcDbEntity
  8
0
100
AcDbLine
 10
981.7455575868256
 20
216.7098606592865
 30
0.0
 11
986.7455575868257
 21
216.7098606592865
 31
0.0
  0
LINE
  5
57B0
330
1F
100
AcDbEntity
  8
0
100
AcDbLine
 10
981.7455575868256
 20
214.7098606592865
 30
0.0
 11
984.7455575868258
 21
214.7098606592865
 31
0.0
  0
ARC
  5
57B1
330
1F
100
AcDbEntity
  8
0
100
AcDbCircle
 10
981.7455575868256
 20
215.7098606592865
 30
0.0
 40
1.0
100
AcDbArc
 50
90.0
 51
270.0
  0
ARC
  5
57B2
330
1F
100
AcDbEntity
  8
0
100
AcDbCircle
 10
957.7455575868256
 20
215.7098606592865
 30
0.0
 40
1.0
100
AcDbArc
 50
270.0
 51
90.0
  0
LINE
  5
57B3
330
1F
100
AcDbEntity
  8
0
100
AcDbLine
 10
984.7455575868258
 20
212.2098606592865
 30
0.0
 11
954.7455575868257
 21
212.2098606592865
 31
0.0
  0
LINE
  5
57B4
330
1F
100
AcDbEntity
  8
0
100
AcDbLine
 10
1042.745557586819
 20
243.2098606592865
 30
0.0
 11
1042.745557586819
 21
212.2098606592865
 31
0.0
  0
LINE
  5
57B5
330
1F
100
AcDbEntity
  8
0
100
AcDbLine
 10
1040.745557586819
 20
243.2098606592865
 30
0.0
 11
1040.745557586819
 21
212.2098606592865
 31
0.0
  0
LINE
  5
57B6
330
1F
100
AcDbEntity
  8
0
100
AcDbLine
 10
1040.745557586819
 20
243.2098606592865
 30
0.0
 11
962.7455575868257
 21
243.2098606592865
 31
0.0
  0
LINE
  5
57B7
330
1F
100
AcDbEntity
  8
0
100
AcDbLine
 10
1040.745557586819
 20
212.2098606592865
 30
0.0
 11
986.7455575868257
 21
212.2098606592865
 31
0.0
  0
LINE
  5
57B8
330
1F
100
AcDbEntity
  8
0
100
AcDbLine
 10
1067.745557586819
 20
210.2098606592865
 30
0.0
 11
1067.745557586819
 21
215.2098606592865
 31
0.0
  0
LINE
  5
57B9
330
1F
100
AcDbEntity
  8
0
100
AcDbLine
 10
1067.745557586819
 20
215.2098606592865
 30
0.0
 11
1072.745557586819
 21
215.2098606592865
 31
0.0
  0
LINE
  5
57BA
330
1F
100
AcDbEntity
  8
0
100
AcDbLine
 10
1065.745557586819
 20
212.2098606592865
 30
0.0
 11
1065.745557586819
 21
217.2098606592865
 31
0.0
  0
LINE
  5
57BB
330
1F
100
AcDbEntity
  8
0
100
AcDbLine
 10
1065.745557586819
 20
217.2098606592865
 30
0.0
 11
1072.745557586819
 21
217.2098606592865
 31
0.0
  0
LINE
  5
57BC
330
1F
100
AcDbEntity
  8
0
100
AcDbLine
 10
1045.245557586819
 20
243.2098606592865
 30
0.0
 11
1045.245557586819
 21
240.2098606592865
 31
0.0
  0
LINE
  5
57BD
330
1F
100
AcDbEntity
  8
0
100
AcDbLine
 10
1047.245557586819
 20
243.2098606592865
 30
0.0
 11
1047.245557586819
 21
240.2098606592865
 31
0.0
  0
LINE
  5
57BE
330
1F
100
AcDbEntity
  8
0
100
AcDbLine
 10
1047.245557586819
 20
215.2098606592865
 30
0.0
 11
1047.245557586819
 21
212.2098606592865
 31
0.0
  0
LINE
  5
57BF
330
1F
100
AcDbEntity
  8
0
100
AcDbLine
 10
1045.245557586819
 20
215.2098606592865
 30
0.0
 11
1045.245557586819
 21
212.2098606592865
 31
0.0
  0
ARC
  5
57C0
330
1F
100
AcDbEntity
  8
0
100
AcDbCircle
 10
1046.245557586819
 20
240.2098606592865
 30
0.0
 40
1.0
100
AcDbArc
 50
180.0
 51
0.0
  0
LINE
  5
57C1
330
1F
100
AcDbEntity
  8
0
100
AcDbLine
 10
1045.245557586819
 20
243.2098606592865
 30
0.0
 11
1042.745557586819
 21
243.2098606592865
 31
0.0
  0
ARC
  5
57C2
330
1F
100
AcDbEntity
  8
0
100
AcDbCircle
 10
1046.245557586819
 20
215.2098606592865
 30
0.0
 40
1.0
100
AcDbArc
 50
0.0
 51
180.0
  0
LINE
  5
57C3
330
1F
100
AcDbEntity
  8
0
100
AcDbLine
 10
1045.245557586819
 20
212.2098606592865
 30
0.0
 11
1042.745557586819
 21
212.2098606592865
 31
0.0
  0
LINE
  5
57C4
330
1F
100
AcDbEntity
  8
0
100
AcDbLine
 10
1016.245557586818
 20
244.9098606592836
 30
0.0
 11
1016.245557586818
 21
245.2098606592865
 31
0.0
  0
LINE
  5
57C5
330
1F
100
AcDbEntity
  8
0
100
AcDbLine
 10
1017.745557586818
 20
244.9098606592836
 30
0.0
 11
1016.245557586818
 21
244.9098606592836
 31
0.0
  0
LINE
  5
57C6
330
1F
100
AcDbEntity
  8
0
100
AcDbLine
 10
1016.245557586818
 20
245.2098606592865
 30
0.0
 11
960.7455575868257
 21
245.2098606592865
 31
0.0
  0
LINE
  5
57C7
330
1F
100
AcDbEntity
  8
0
100
AcDbLine
 10
1045.245557586819
 20
728.2123797339234
 30
0.0
 11
1042.745557586819
 21
728.2123797339234
 31
0.0
  0
ARC
  5
57C8
330
1F
100
AcDbEntity
  8
0
100
AcDbCircle
 10
1046.245557586819
 20
725.2123797339233
 30
0.0
 40
1.0
100
AcDbArc
 50
180.0
 51
0.0
  0
LINE
  5
57C9
330
1F
100
AcDbEntity
  8
0
100
AcDbLine
 10
1045.245557586819
 20
697.2123797339231
 30
0.0
 11
1042.745557586819
 21
697.2123797339231
 31
0.0
  0
ARC
  5
57CA
330
1F
100
AcDbEntity
  8
0
100
AcDbCircle
 10
1046.245557586819
 20
700.2123797339232
 30
0.0
 40
1.0
100
AcDbArc
 50
0.0
 51
180.0
  0
LINE
  5
57CB
330
1F
100
AcDbEntity
  8
0
100
AcDbLine
 10
1045.245557586819
 20
725.2123797339233
 30
0.0
 11
1045.245557586819
 21
728.2123797339234
 31
0.0
  0
LINE
  5
57CC
330
1F
100
AcDbEntity
  8
0
100
AcDbLine
 10
1047.245557586819
 20
725.2123797339233
 30
0.0
 11
1047.245557586819
 21
728.2123797339234
 31
0.0
  0
LINE
  5
57CD
330
1F
100
AcDbEntity
  8
0
100
AcDbLine
 10
1047.245557586819
 20
697.2123797339231
 30
0.0
 11
1047.245557586819
 21
700.2123797339232
 31
0.0
  0
LINE
  5
57CE
330
1F
100
AcDbEntity
  8
0
100
AcDbLine
 10
1045.245557586819
 20
697.2123797339231
 30
0.0
 11
1045.245557586819
 21
700.2123797339232
 31
0.0
  0
LINE
  5
57CF
330
1F
100
AcDbEntity
  8
0
100
AcDbLine
 10
1065.745557586819
 20
723.2123797339234
 30
0.0
 11
1072.745557586819
 21
723.2123797339234
 31
0.0
  0
LINE
  5
57D0
330
1F
100
AcDbEntity
  8
0
100
AcDbLine
 10
1065.745557586819
 20
728.2123797339234
 30
0.0
 11
1065.745557586819
 21
723.2123797339234
 31
0.0
  0
LINE
  5
57D1
330
1F
100
AcDbEntity
  8
0
100
AcDbLine
 10
1067.745557586819
 20
725.2123797339233
 30
0.0
 11
1072.745557586819
 21
725.2123797339233
 31
0.0
  0
LINE
  5
57D2
330
1F
100
AcDbEntity
  8
0
100
AcDbLine
 10
1067.745557586819
 20
730.2123797339234
 30
0.0
 11
1067.745557586819
 21
725.2123797339233
 31
0.0
  0
LINE
  5
57D3
330
1F
100
AcDbEntity
  8
0
100
AcDbLine
 10
1040.745557586819
 20
728.2123797339234
 30
0.0
 11
986.7455575868257
 21
728.2123797339234
 31
0.0
  0
LINE
  5
57D4
330
1F
100
AcDbEntity
  8
0
100
AcDbLine
 10
1040.745557586819
 20
697.2123797339231
 30
0.0
 11
962.7455575868257
 21
697.2123797339231
 31
0.0
  0
LINE
  5
57D5
330
1F
100
AcDbEntity
  8
0
100
AcDbLine
 10
1040.745557586819
 20
697.2123797339231
 30
0.0
 11
1040.745557586819
 21
728.2123797339234
 31
0.0
  0
LINE
  5
57D6
330
1F
100
AcDbEntity
  8
0
100
AcDbLine
 10
1042.745557586819
 20
697.2123797339231
 30
0.0
 11
1042.745557586819
 21
728.2123797339234
 31
0.0
  0
LINE
  5
57D7
330
1F
100
AcDbEntity
  8
0
100
AcDbLine
 10
1065.745557586819
 20
728.2123797339234
 30
0.0
 11
1047.245557586819
 21
728.2123797339234
 31
0.0
  0
LINE
  5
57D8
330
1F
100
AcDbEntity
  8
0
100
AcDbLine
 10
1072.745557586819
 20
697.2123797339231
 30
0.0
 11
1047.245557586819
 21
697.2123797339231
 31
0.0
  0
ARC
  5
57D9
330
1F
100
AcDbEntity
  8
0
100
AcDbCircle
 10
957.7455575868256
 20
724.7123797339233
 30
0.0
 40
1.0
100
AcDbArc
 50
270.0
 51
90.0
  0
ARC
  5
57DA
330
1F
100
AcDbEntity
  8
0
100
AcDbCircle
 10
952.2455575868256
 20
721.3400984106576
 30
0.0
 40
1.0
100
AcDbArc
 50
124.8499045789114
 51
304.8499045789114
  0
ARC
  5
57DB
330
1F
100
AcDbEntity
  8
0
100
AcDbCircle
 10
950.2455575868257
 20
724.2123797339234
 30
0.0
 40
4.5
100
AcDbArc
 50
304.8499045789114
 51
353.6206297916514
  0
LINE
  5
57DC
330
1F
100
AcDbEntity
  8
kijun
100
AcDbLine
 10
950.2455575868257
 20
728.9183907390563
 30
0.0
 11
950.2455575868257
 21
719.1683907390563
 31
0.0
  0
LINE
  5
57DD
330
1F
100
AcDbEntity
  8
0
100
AcDbLine
 10
954.7455575868257
 20
725.7123797339233
 30
0.0
 11
957.7455575868256
 21
725.7123797339233
 31
0.0
  0
LINE
  5
57DE
330
1F
100
AcDbEntity
  8
0
100
AcDbLine
 10
954.7176935418205
 20
723.7123797339234
 30
0.0
 11
957.7455575868256
 21
723.7123797339234
 31
0.0
  0
LINE
  5
57DF
330
1F
100
AcDbEntity
  8
0
100
AcDbLine
 10
954.7455575868257
 20
728.2123797339234
 30
0.0
 11
954.7455575868257
 21
725.7123797339233
 31
0.0
  0
ARC
  5
57E0
330
1F
100
AcDbEntity
  8
0
100
AcDbCircle
 10
950.2455575868257
 20
724.2123797339234
 30
0.0
 40
2.5
100
AcDbArc
 50
304.8499045789114
 51
235.1500954210886
  0
LINE
  5
57E1
330
1F
100
AcDbEntity
  8
kijun
100
AcDbLine
 10
944.8455575868242
 20
724.2123797339234
 30
0.0
 11
955.6455575868199
 21
724.2123797339234
 31
0.0
  0
LINE
  5
57E2
330
1F
100
AcDbEntity
  8
0
100
AcDbLine
 10
962.7455575868257
 20
697.2123797339231
 30
0.0
 11
962.7455575868257
 21
699.2123797339232
 31
0.0
  0
LINE
  5
57E3
330
1F
100
AcDbEntity
  8
0
100
AcDbLine
 10
962.7455575868257
 20
699.2123797339232
 30
0.0
 11
947.7455575868184
 21
699.2123797339232
 31
0.0
  0
LINE
  5
57E4
330
1F
100
AcDbEntity
  8
0
100
AcDbLine
 10
984.7455575868258
 20
728.2123797339234
 30
0.0
 11
954.7455575868257
 21
728.2123797339234
 31
0.0
  0
ARC
  5
57E5
330
1F
100
AcDbEntity
  8
0
100
AcDbCircle
 10
981.7455575868256
 20
724.7123797339233
 30
0.0
 40
1.0
100
AcDbArc
 50
90.0
 51
270.0
  0
LINE
  5
57E6
330
1F
100
AcDbEntity
  8
0
100
AcDbLine
 10
981.7455575868256
 20
725.7123797339233
 30
0.0
 11
984.7455575868258
 21
725.7123797339233
 31
0.0
  0
LINE
  5
57E7
330
1F
100
AcDbEntity
  8
0
100
AcDbLine
 10
981.7455575868256
 20
723.7123797339234
 30
0.0
 11
986.7455575868257
 21
723.7123797339234
 31
0.0
  0
LINE
  5
57E8
330
1F
100
AcDbEntity
  8
0
100
AcDbLine
 10
986.7455575868257
 20
723.7123797339234
 30
0.0
 11
986.7455575868257
 21
728.2123797339234
 31
0.0
  0
LINE
  5
57E9
330
1F
100
AcDbEntity
  8
0
100
AcDbLine
 10
984.7455575868258
 20
725.7123797339233
 30
0.0
 11
984.7455575868258
 21
728.2123797339234
 31
0.0
  0
LINE
  5
57EA
330
1F
100
AcDbEntity
  8
0
100
AcDbLine
 10
945.7455575868257
 20
728.2123797339234
 30
0.0
 11
942.7455575868258
 21
728.2123797339234
 31
0.0
  0
ARC
  5
57EB
330
1F
100
AcDbEntity
  8
0
100
AcDbCircle
 10
950.2455575868257
 20
724.2123797339234
 30
0.0
 40
4.5
100
AcDbArc
 50
180.0
 51
235.1500954210886
  0
ARC
  5
57EC
330
1F
100
AcDbEntity
  8
0
100
AcDbCircle
 10
948.2455575868257
 20
721.3400984106576
 30
0.0
 40
1.0
100
AcDbArc
 50
235.1500954210886
 51
55.15009542108858
  0
LINE
  5
57ED
330
1F
100
AcDbEntity
  8
0
100
AcDbLine
 10
945.7455575868257
 20
728.2123797339234
 30
0.0
 11
945.7455575868257
 21
724.2123797339234
 31
0.0
  0
LINE
  5
57EE
330
1F
100
AcDbEntity
  8
0
100
AcDbLine
 10
941.0455575868214
 20
720.6683907390563
 30
0.0
 11
940.7455575868183
 21
720.6683907390563
 31
0.0
  0
LINE
  5
57EF
330
1F
100
AcDbEntity
  8
0
100
AcDbLine
 10
947.7455575868184
 20
703.2123797339231
 30
0.0
 11
945.7455575868184
 21
703.2123797339231
 31
0.0
  0
LINE
  5
57F0
330
1F
100
AcDbEntity
  8
0
100
AcDbLine
 10
947.7455575868184
 20
703.2123797339231
 30
0.0
 11
947.7455575868184
 21
699.2123797339232
 31
0.0
  0
LINE
  5
57F1
330
1F
100
AcDbEntity
  8
0
100
AcDbLine
 10
945.7455575868184
 20
699.2123797339232
 30
0.0
 11
942.7455575868185
 21
699.2123797339232
 31
0.0
  0
LINE
  5
57F2
330
1F
100
AcDbEntity
  8
0
100
AcDbLine
 10
945.7455575868184
 20
703.2123797339231
 30
0.0
 11
945.7455575868184
 21
699.2123797339232
 31
0.0
  0
LINE
  5
57F3
330
1F
100
AcDbEntity
  8
0
100
AcDbLine
 10
942.7455575868258
 20
728.1683907390563
 30
0.0
 11
942.7455575868185
 21
699.2123797339232
 31
0.0
  0
LINE
  5
57F4
330
1F
100
AcDbEntity
  8
0
100
AcDbLine
 10
941.0455575868214
 20
717.6683907390563
 30
0.0
 11
941.0455575868214
 21
720.6683907390563
 31
0.0
  0
LINE
  5
57F5
330
1F
100
AcDbEntity
  8
0
100
AcDbLine
 10
940.7455575868183
 20
717.6683907390563
 30
0.0
 11
941.0455575868214
 21
717.6683907390563
 31
0.0
  0
LINE
  5
57F6
330
1F
100
AcDbEntity
  8
0
100
AcDbLine
 10
941.0455575868214
 20
709.6683907390563
 30
0.0
 11
940.7455575868183
 21
709.6683907390563
 31
0.0
  0
LINE
  5
57F7
330
1F
100
AcDbEntity
  8
0
100
AcDbLine
 10
941.0455575868214
 20
706.6683907390563
 30
0.0
 11
941.0455575868214
 21
709.6683907390563
 31
0.0
  0
LINE
  5
57F8
330
1F
100
AcDbEntity
  8
0
100
AcDbLine
 10
940.7455575868183
 20
706.6683907390563
 30
0.0
 11
941.0455575868214
 21
706.6683907390563
 31
0.0
  0
LINE
  5
57F9
330
1F
100
AcDbEntity
  8
0
100
AcDbLine
 10
942.7015685919572
 20
697.2123797339231
 30
0.0
 11
940.7455575868183
 21
699.1683907390563
 31
0.0
  0
LINE
  5
57FA
330
1F
100
AcDbEntity
  8
0
100
AcDbLine
 10
940.7455575868256
 20
728.1683907390563
 30
0.0
 11
942.7895465816868
 21
730.2123797339234
 31
0.0
  0
LINE
  5
57FB
330
1F
100
AcDbEntity
  8
0
100
AcDbLine
 10
960.7455575868257
 20
695.2123797339232
 30
0.0
 11
960.7455575868257
 21
697.2123797339231
 31
0.0
  0
LINE
  5
57FC
330
1F
100
AcDbEntity
  8
0
100
AcDbLine
 10
960.7455575868257
 20
697.2123797339231
 30
0.0
 11
942.7015685919572
 21
697.2123797339231
 31
0.0
  0
LINE
  5
57FD
330
1F
100
AcDbEntity
  8
0
100
AcDbLine
 10
940.7455575868256
 20
728.1683907390563
 30
0.0
 11
940.7455575868183
 21
720.6683907390563
 31
0.0
  0
LINE
  5
57FE
330
1F
100
AcDbEntity
  8
0
100
AcDbLine
 10
940.7455575868183
 20
717.6683907390563
 30
0.0
 11
940.7455575868183
 21
709.6683907390563
 31
0.0
  0
LINE
  5
57FF
330
1F
100
AcDbEntity
  8
0
100
AcDbLine
 10
940.7455575868183
 20
706.6683907390563
 30
0.0
 11
940.7455575868183
 21
699.1683907390563
 31
0.0
  0
LINE
  5
5800
330
1F
100
AcDbEntity
  8
0
100
AcDbLine
 10
129.1695595826534
 20
595.0884977633525
 30
0.0
 11
160.2135485775218
 21
595.0884977633468
 31
0.0
  0
LINE
  5
5801
330
1F
100
AcDbEntity
  8
0
100
AcDbLine
 10
164.1695595826534
 20
672.0884977633527
 30
0.0
 11
164.1695595826534
 21
725.0884977633527
 31
0.0
  0
LINE
  5
5802
330
1F
100
AcDbEntity
  8
0
100
AcDbLine
 10
162.1695595826534
 20
615.0884977633524
 30
0.0
 11
162.1695595826534
 21
597.0884977633468
 31
0.0
  0
LINE
  5
5803
330
1F
100
AcDbEntity
  8
0
100
AcDbLine
 10
164.1695595826534
 20
615.0884977633524
 30
0.0
 11
162.1695595826534
 21
615.0884977633524
 31
0.0
  0
LINE
  5
5804
330
1F
100
AcDbEntity
  8
0
100
AcDbLine
 10
131.2135485775218
 20
595.0884977633525
 30
0.0
 11
129.1695595826534
 21
597.1324867582166
 31
0.0
  0
LINE
  5
5805
330
1F
100
AcDbEntity
  8
0
100
AcDbLine
 10
162.1695595826534
 20
597.0884977633468
 30
0.0
 11
160.1695595826534
 21
595.0884977633468
 31
0.0
  0
LINE
  5
5806
330
1F
100
AcDbEntity
  8
0
100
AcDbLine
 10
152.7135485775218
 20
595.0884977633525
 30
0.0
 11
152.7135485775218
 21
595.3884977633497
 31
0.0
  0
LINE
  5
5807
330
1F
100
AcDbEntity
  8
0
100
AcDbLine
 10
152.7135485775218
 20
595.3884977633497
 30
0.0
 11
149.7135485775218
 21
595.3884977633497
 31
0.0
  0
LINE
  5
5808
330
1F
100
AcDbEntity
  8
0
100
AcDbLine
 10
149.7135485775218
 20
595.3884977633497
 30
0.0
 11
149.7135485775218
 21
595.0884977633525
 31
0.0
  0
LINE
  5
5809
330
1F
100
AcDbEntity
  8
0
100
AcDbLine
 10
141.7135485775218
 20
595.0884977633525
 30
0.0
 11
141.7135485775218
 21
595.3884977633497
 31
0.0
  0
LINE
  5
580A
330
1F
100
AcDbEntity
  8
0
100
AcDbLine
 10
141.7135485775218
 20
595.3884977633497
 30
0.0
 11
138.7135485775218
 21
595.3884977633497
 31
0.0
  0
LINE
  5
580B
330
1F
100
AcDbEntity
  8
0
100
AcDbLine
 10
138.7135485775218
 20
595.3884977633497
 30
0.0
 11
138.7135485775218
 21
595.0884977633525
 31
0.0
  0
LINE
  5
580C
330
1F
100
AcDbEntity
  8
0
100
AcDbLine
 10
164.1695595826534
 20
615.0884977633524
 30
0.0
 11
164.1695595826534
 21
672.0884977633527
 31
0.0
  0
LINE
  5
580D
330
1F
100
AcDbEntity
  8
0
100
AcDbLine
 10
129.1695595826534
 20
595.0884977633525
 30
0.0
 11
129.1695595826534
 21
727.0884977633527
 31
0.0
  0
LINE
  5
580E
330
1F
100
AcDbEntity
  8
0
100
AcDbLine
 10
163.8695595826577
 20
670.5884977633527
 30
0.0
 11
163.8695595826577
 21
672.0884977633527
 31
0.0
  0
LINE
  5
580F
330
1F
100
AcDbEntity
  8
0
100
AcDbLine
 10
163.8695595826577
 20
670.5884977633527
 30
0.0
 11
164.1695595826534
 21
670.5884977633527
 31
0.0
  0
LINE
  5
5810
330
1F
100
AcDbEntity
  8
0
100
AcDbLine
 10
1017.745557586818
 20
695.2123797339232
 30
0.0
 11
1070.745557586819
 21
695.2123797339232
 31
0.0
  0
LINE
  5
5811
330
1F
100
AcDbEntity
  8
0
100
AcDbLine
 10
1072.745557586819
 20
435.2111201966056
 30
0.0
 11
1072.745557586819
 21
786.7123797339234
 31
0.0
  0
TEXT
  5
5812
330
1F
100
AcDbEntity
  8
moji
100
AcDbText
 10
149.7709701454516
 20
637.5252995260255
 30
0.0
 40
6.0
  1
アルミ立枠
 50
90.0
 41
0.8
  7
Std
 72
     4
 11
146.7709701454516
 21
651.2852995260255
 31
0.0
100
AcDbText
  0
TEXT
  5
5813
330
1F
100
AcDbEntity
  8
moji
100
AcDbText
 10
982.6131633236807
 20
709.325755576832
 30
0.0
 40
6.0
  1
アルミ枠
 41
0.8
  7
Std
 72
     4
 11
993.4931633236805
 21
712.325755576832
 31
0.0
100
AcDbText
  0
TEXT
  5
5814
330
1F
100
AcDbEntity
  8
moji
100
AcDbText
 10
980.4197216292747
 20
225.1956207434653
 30
0.0
 40
6.0
  1
アルミ枠
 41
0.8
  7
Std
 72
     4
 11
991.2997216292747
 21
228.1956207434653
 31
0.0
100
AcDbText
  0
LINE
  5
5815
330
1F
100
AcDbEntity
  8
0
100
AcDbLine
 10
954.7455575868257
 20
208.2038507468553
 30
0.0
 11
954.7455575868257
 21
210.2098606592865
 31
0.0
  0
LINE
  5
5816
330
1F
100
AcDbEntity
  8
hatch
100
AcDbLine
 10
930.7455575868257
 20
435.2111201966056
 30
0.0
 11
1082.745557586826
 21
435.2111201966056
 31
0.0
  0
ARC
  5
5817
330
1F
100
AcDbEntity
  8
saisen
100
AcDbCircle
 10
889.7455575868256
 20
233.2098606592865
 30
0.0
 40
21.0
100
AcDbArc
 50
180.0
 51
270.0
  0
LINE
  5
5818
330
1F
100
AcDbEntity
  8
saisen
100
AcDbLine
 10
868.7455575868257
 20
233.2038507468553
 30
0.0
 11
934.7455575868258
 21
233.2038507468553
 31
0.0
  0
ARC
  5
5819
330
1F
100
AcDbEntity
  8
saisen
100
AcDbCircle
 10
866.7455575868258
 20
233.2098606592865
 30
0.0
 40
2.0
100
AcDbArc
 50
0.0
 51
90.0
  0
ARC
  5
581A
330
1F
100
AcDbEntity
  8
saisen
100
AcDbCircle
 10
913.7455575868257
 20
233.2098606592865
 30
0.0
 40
21.0
100
AcDbArc
 50
270.0
 51
0.0
  0
LINE
  5
581B
330
1F
100
AcDbEntity
  8
saisen
100
AcDbLine
 10
934.7455575868258
 20
233.2098606592865
 30
0.0
 11
934.7455575868258
 21
238.2098606594539
 31
0.0
  0
LINE
  5
581C
330
1F
100
AcDbEntity
  8
saisen
100
AcDbLine
 10
934.7455575868258
 20
238.2098606594539
 30
0.0
 11
936.7455575868184
 21
238.2098606594611
 31
0.0
  0
LWPOLYLINE
  5
581D
330
1F
100
AcDbEntity
  8
sunpo
 62
     3
370
     9
100
AcDbPolyline
 90
        4
 70
     0
 43
0.0
 10
164.169559582652
 20
403.0884977633584
 10
691.2244938236693
 20
403.0884977633584
 10
679.2244938236692
 20
406.0884977633584
 10
677.7244938236692
 20
402.4884977633584
  0
LINE
  5
581E
330
1F
100
AcDbEntity
  8
saisen
100
AcDbLine
 10
913.7455575868257
 20
208.2098606592865
 30
0.0
 11
938.7455575868257
 21
208.2098606592865
 31
0.0
  0
LINE
  5
5820
330
1F
100
AcDbEntity
  8
saisen
100
AcDbLine
 10
975.7455575868258
 20
206.2098606592865
 30
0.0
 11
857.7455575868256
 21
206.2098606592865
 31
0.0
  0
LINE
  5
5821
330
1F
100
AcDbEntity
  8
hatch
100
AcDbLine
 10
930.7455575868257
 20
415.2111201966055
 30
0.0
 11
1082.745557586826
 21
415.2111201966055
 31
0.0
  0
DIMENSION
  5
5822
330
1F
100
AcDbEntity
  8
sunpo
100
AcDbDimension
  2
*D28
 10
349.570056154547
 20
595.0884977633586
 30
0.0
 11
345.370056154547
 21
661.0884977633587
 31
0.0
 70
    32
  1
<>
 71
     5
 42
132.0
  3
dim2
100
AcDbAlignedDimension
 13
349.570056154547
 23
727.0884977633586
 33
0.0
 14
349.570056154547
 24
595.0884977633586
 34
0.0
 50
90.0
100
AcDbRotatedDimension
  0
DIMENSION
  5
5823
330
1F
100
AcDbEntity
  8
sunpo
100
AcDbDimension
  2
*D29
 10
349.570056154547
 20
511.0884977633584
 30
0.0
 11
345.370056154547
 21
553.0884977633527
 31
0.0
 70
    32
  1
<>
 71
     5
 42
83.99999999998845
  3
dim2
100
AcDbAlignedDimension
 13
349.570056154547
 23
595.0884977633468
 33
0.0
 14
349.570056154547
 24
511.0884977633584
 34
0.0
 50
90.0
100
AcDbRotatedDimension
  0
LINE
  5
5824
330
1F
100
AcDbEntity
  8
0
100
AcDbLine
 10
163.8695595826577
 20
672.0884977633527
 30
0.0
 11
164.1695595826534
 21
672.0884977633527
 31
0.0
  0
LINE
  5
5825
330
1F
100
AcDbEntity
  8
0
100
AcDbLine
 10
1017.745557586818
 20
695.2123797339232
 30
0.0
 11
1017.745557586818
 21
695.512379733929
 31
0.0
  0
LINE
  5
5826
330
1F
100
AcDbEntity
  8
0
100
AcDbLine
 10
1016.245557586826
 20
695.2123797339232
 30
0.0
 11
1016.245557586826
 21
695.512379733929
 31
0.0
  0
LINE
  5
5827
330
1F
100
AcDbEntity
  8
0
100
AcDbLine
 10
1070.745557586819
 20
677.2123797339174
 30
0.0
 11
1072.745557586819
 21
677.2123797339174
 31
0.0
  0
LINE
  5
5828
330
1F
100
AcDbEntity
  8
0
100
AcDbLine
 10
1070.745557586819
 20
695.2123797339175
 30
0.0
 11
1070.745557586819
 21
677.2123797339174
 31
0.0
  0
LINE
  5
5829
330
1F
100
AcDbEntity
  8
0
100
AcDbLine
 10
309.0195595826519
 20
521.0884977633525
 30
0.0
 11
166.1695595826534
 21
521.0884977633525
 31
0.0
  0
LINE
  5
582A
330
1F
100
AcDbEntity
  8
0
100
AcDbLine
 10
309.0195595826519
 20
595.0884977633525
 30
0.0
 11
160.2135485775218
 21
595.0884977633525
 31
0.0
  0
LINE
  5
582B
330
1F
100
AcDbEntity
  8
0
100
AcDbLine
 10
309.0195595826519
 20
591.0884977633525
 30
0.0
 11
166.1695595826534
 21
591.0884977633525
 31
0.0
  0
LINE
  5
582C
330
1F
100
AcDbEntity
  8
0
100
AcDbLine
 10
866.1455575868199
 20
225.7098606592865
 30
0.0
 11
868.0027426816627
 21
225.7098606592865
 31
0.0
  0
LINE
  5
582D
330
1F
100
AcDbEntity
  8
0
100
AcDbLine
 10
866.1455575868199
 20
223.2098606592865
 30
0.0
 11
869.0332424096155
 21
223.2098606592865
 31
0.0
  0
LINE
  5
582E
330
1F
100
AcDbEntity
  8
0
100
AcDbLine
 10
866.1455575868199
 20
223.2098606592865
 30
0.0
 11
866.1455575868199
 21
225.7098606592865
 31
0.0
  0
LINE
  5
582F
330
1F
100
AcDbEntity
  8
0
100
AcDbLine
 10
937.7455575868257
 20
223.2098606592865
 30
0.0
 11
937.7455575868257
 21
225.7098606592865
 31
0.0
  0
LINE
  5
5830
330
1F
100
AcDbEntity
  8
0
100
AcDbLine
 10
864.1455575868199
 20
221.2098606592865
 30
0.0
 11
864.1455575868199
 21
227.7098606592865
 31
0.0
  0
LINE
  5
5831
330
1F
100
AcDbEntity
  8
0
100
AcDbLine
 10
864.1455575868199
 20
221.2098606592865
 30
0.0
 11
867.8138453873648
 21
221.2098606592865
 31
0.0
  0
LINE
  5
5832
330
1F
100
AcDbEntity
  8
0
100
AcDbLine
 10
864.1455575868199
 20
227.7098606592865
 30
0.0
 11
865.3580607903091
 21
227.7098606592865
 31
0.0
  0
ARC
  5
5833
330
1F
100
AcDbEntity
  8
saisen
100
AcDbCircle
 10
889.7455575868256
 20
233.2098606592865
 30
0.0
 40
22.99999999999977
100
AcDbArc
 50
199.0314409250228
 51
205.7714617405479
  0
LINE
  5
5834
330
1F
100
AcDbEntity
  8
0
100
AcDbLine
 10
935.4883724919814
 20
225.7098606592865
 30
0.0
 11
937.7455575868257
 21
225.7098606592865
 31
0.0
  0
LINE
  5
5835
330
1F
100
AcDbEntity
  8
0
100
AcDbLine
 10
934.4578727640287
 20
223.2098606592865
 30
0.0
 11
937.7455575868257
 21
223.2098606592865
 31
0.0
  0
ARC
  5
5836
330
1F
100
AcDbEntity
  8
saisen
100
AcDbCircle
 10
913.7455575868257
 20
233.2098606592865
 30
0.0
 40
22.99999999999977
100
AcDbArc
 50
334.2285382594521
 51
340.9685590749772
  0
LINE
  5
5837
330
1F
100
AcDbEntity
  8
0
100
AcDbLine
 10
309.0195595826519
 20
588.800812940557
 30
0.0
 11
166.1695595826534
 21
588.800812940557
 31
0.0
  0
LINE
  5
5838
330
1F
100
AcDbEntity
  8
0
100
AcDbLine
 10
309.0195595826519
 20
589.8313126685081
 30
0.0
 11
166.1695595826534
 21
589.8313126685081
 31
0.0
  0
LINE
  5
5839
330
1F
100
AcDbEntity
  8
0
100
AcDbLine
 10
309.0195595826519
 20
522.3456828581968
 30
0.0
 11
166.1695595826534
 21
522.3456828581968
 31
0.0
  0
LINE
  5
583A
330
1F
100
AcDbEntity
  8
0
100
AcDbLine
 10
309.0195595826519
 20
523.3761825861452
 30
0.0
 11
166.1695595826534
 21
523.3761825861452
 31
0.0
  0
ARC
  5
583B
330
1F
100
AcDbEntity
  8
0
100
AcDbCircle
 10
913.7455575868257
 20
233.2098606592865
 30
0.0
 40
22.99999999999977
100
AcDbArc
 50
340.9685590749772
 51
0.0
  0
ARC
  5
583C
330
1F
100
AcDbEntity
  8
0
100
AcDbCircle
 10
889.7455575868256
 20
233.2098606592865
 30
0.0
 40
22.99999999999977
100
AcDbArc
 50
205.7714617405479
 51
270.0
  0
ARC
  5
583D
330
1F
100
AcDbEntity
  8
0
100
AcDbCircle
 10
889.7455575868256
 20
233.2098606592865
 30
0.0
 40
24.99999999999975
100
AcDbArc
 50
208.6854020143215
 51
237.7957724955341
  0
LINE
  5
583E
330
1F
100
AcDbEntity
  8
kijun
100
AcDbLine
 10
644.1695595826534
 20
751.0884977633527
 30
0.0
 11
644.1695595826534
 21
455.4484289948813
 31
0.0
  0
TEXT
  5
583F
330
1F
100
AcDbEntity
  8
moji
100
AcDbText
 10
641.1122824521258
 20
448.7018256016606
 30
0.0
 40
6.0
  1
Ｃ
  7
StdW
 72
     4
 11
643.9122824521257
 21
451.9018256016607
 31
0.0
100
AcDbText
  0
TEXT
  5
5840
330
1F
100
AcDbEntity
  8
moji
100
AcDbText
 10
643.6395836218066
 20
445.3486946367105
 30
0.0
 40
6.0
  1
Ｌ
  7
StdW
 72
     4
 11
646.4395836218066
 21
448.5486946367104
 31
0.0
100
AcDbText
  0
LINE
  5
5841
330
1F
100
AcDbEntity
  8
0
100
AcDbLine
 10
694.1695595826534
 20
511.0884977633524
 30
0.0
 11
551.2244938236619
 21
511.0884977633524
 31
0.0
  0
LINE
  5
5842
330
1F
100
AcDbEntity
  8
0
100
AcDbLine
 10
694.1695595826534
 20
595.0884977633525
 30
0.0
 11
551.2244938236619
 21
595.0884977633525
 31
0.0
  0
LINE
  5
5843
330
1F
100
AcDbEntity
  8
hatch
100
AcDbLine
 10
531.2244938236692
 20
501.0884977633525
 30
0.0
 11
531.2244938236692
 21
737.0884977633468
 31
0.0
  0
LINE
  5
5844
330
1F
100
AcDbEntity
  8
hatch
100
AcDbLine
 10
551.2244938236619
 20
501.0884977633525
 30
0.0
 11
551.2244938236619
 21
737.0884977633468
 31
0.0
  0
LINE
  5
5845
330
1F
100
AcDbEntity
  8
0
100
AcDbLine
 10
329.0195595826519
 20
595.0884977633525
 30
0.0
 11
531.2244938236692
 21
595.0884977633409
 31
0.0
  0
LINE
  5
5846
330
1F
100
AcDbEntity
  8
0
100
AcDbLine
 10
551.2244938236619
 20
727.0884977633468
 30
0.0
 11
694.1695595826534
 21
727.0884977633468
 31
0.0
  0
LINE
  5
5847
330
1F
100
AcDbEntity
  8
0
100
AcDbLine
 10
531.2244938236692
 20
511.0884977633524
 30
0.0
 11
329.0195595826519
 21
511.0884977633524
 31
0.0
  0
LINE
  5
5848
330
1F
100
AcDbEntity
  8
0
100
AcDbLine
 10
694.1695595826534
 20
591.0884977633525
 30
0.0
 11
551.2244938236619
 21
591.0884977633525
 31
0.0
  0
LINE
  5
5849
330
1F
100
AcDbEntity
  8
0
100
AcDbLine
 10
694.1695595826534
 20
521.0884977633525
 30
0.0
 11
551.2244938236619
 21
521.0884977633525
 31
0.0
  0
LINE
  5
584A
330
1F
100
AcDbEntity
  8
0
100
AcDbLine
 10
531.2244938236692
 20
521.0884977633525
 30
0.0
 11
329.0195595826519
 21
521.0884977633525
 31
0.0
  0
LINE
  5
584B
330
1F
100
AcDbEntity
  8
0
100
AcDbLine
 10
531.2244938236692
 20
591.0884977633525
 30
0.0
 11
329.0195595826519
 21
591.0884977633525
 31
0.0
  0
LINE
  5
584C
330
1F
100
AcDbEntity
  8
0
100
AcDbLine
 10
694.1695595826534
 20
522.3456828581911
 30
0.0
 11
551.2244938236619
 21
522.3456828581911
 31
0.0
  0
LINE
  5
584D
330
1F
100
AcDbEntity
  8
0
100
AcDbLine
 10
694.1695595826534
 20
589.8313126685081
 30
0.0
 11
551.2244938236619
 21
589.8313126685081
 31
0.0
  0
LINE
  5
584E
330
1F
100
AcDbEntity
  8
0
100
AcDbLine
 10
694.1695595826534
 20
588.800812940557
 30
0.0
 11
551.2244938236619
 21
588.800812940557
 31
0.0
  0
LINE
  5
584F
330
1F
100
AcDbEntity
  8
0
100
AcDbLine
 10
694.1695595826534
 20
523.3761825861452
 30
0.0
 11
551.2244938236619
 21
523.3761825861452
 31
0.0
  0
LINE
  5
5850
330
1F
100
AcDbEntity
  8
0
100
AcDbLine
 10
531.2244938236692
 20
588.800812940557
 30
0.0
 11
329.0195595826519
 21
588.800812940557
 31
0.0
  0
LINE
  5
5851
330
1F
100
AcDbEntity
  8
0
100
AcDbLine
 10
531.2244938236692
 20
589.8313126685081
 30
0.0
 11
329.0195595826519
 21
589.8313126685081
 31
0.0
  0
LINE
  5
5852
330
1F
100
AcDbEntity
  8
0
100
AcDbLine
 10
531.2244938236692
 20
522.3456828581968
 30
0.0
 11
329.0195595826519
 21
522.3456828581968
 31
0.0
  0
LINE
  5
5853
330
1F
100
AcDbEntity
  8
0
100
AcDbLine
 10
531.2244938236692
 20
523.3761825861452
 30
0.0
 11
329.0195595826519
 21
523.3761825861452
 31
0.0
  0
LINE
  5
5854
330
1F
100
AcDbEntity
  8
0
100
AcDbLine
 10
531.2244938236692
 20
727.0884977633468
 30
0.0
 11
329.0195595826519
 21
727.0884977633468
 31
0.0
  0
LINE
  5
5855
330
1F
100
AcDbEntity
  8
hatch
100
AcDbLine
 10
329.0195595826519
 20
501.0884977633525
 30
0.0
 11
329.0195595826519
 21
737.0884977633527
 31
0.0
  0
LINE
  5
5856
330
1F
100
AcDbEntity
  8
hatch
100
AcDbLine
 10
309.0195595826519
 20
501.0884977633525
 30
0.0
 11
309.0195595826519
 21
737.0884977633527
 31
0.0
  0
LINE
  5
5857
330
1F
100
AcDbEntity
  8
saisen
100
AcDbLine
 10
940.7455575868256
 20
245.2098606592865
 30
0.0
 11
940.7455575868256
 21
415.2111201966055
 31
0.0
  0
LINE
  5
5858
330
1F
100
AcDbEntity
  8
0
100
AcDbLine
 10
1072.745557586819
 20
415.2111201966055
 30
0.0
 11
1072.745557586819
 21
113.827764920592
 31
0.0
  0
LINE
  5
5859
330
1F
100
AcDbEntity
  8
0
100
AcDbLine
 10
1070.745557586819
 20
245.2098606592865
 30
0.0
 11
1070.745557586819
 21
263.2098606592865
 31
0.0
  0
LINE
  5
585A
330
1F
100
AcDbEntity
  8
0
100
AcDbLine
 10
1070.745557586819
 20
263.2098606592865
 30
0.0
 11
1072.745557586819
 21
263.2098606592865
 31
0.0
  0
LINE
  5
585C
330
1F
100
AcDbEntity
  8
2tensasen
  6
Continuous
100
AcDbLine
 10
694.1695595826534
 20
501.0884977633525
 30
0.0
 11
694.1695595826534
 21
737.0884977633527
 31
0.0
  0
LINE
  5
585D
330
1F
100
AcDbEntity
  8
0
100
AcDbLine
 10
309.0195595826519
 20
727.0884977633468
 30
0.0
 11
46.39436935127742
 21
727.0884977633468
 31
0.0
  0
DIMENSION
  5
585F
330
1F
100
AcDbEntity
  8
sunpo
100
AcDbDimension
  2
*D30
 10
781.2060439671859
 20
210.2098606592822
 30
0.0
 11
777.0060439671858
 21
227.7098606592823
 31
0.0
 70
    32
 71
     5
 42
35.0
  3
dim2
100
AcDbAlignedDimension
 13
844.7455575868316
 23
245.2098606592822
 33
0.0
 14
844.7455575868316
 24
210.2098606592822
 34
0.0
 50
90.0
100
AcDbRotatedDimension
  0
DIMENSION
  5
5860
330
1F
100
AcDbEntity
  8
sunpo
100
AcDbDimension
  2
*D31
 10
800.0172276805916
 20
208.2038507468495
 30
0.0
 11
795.8172276805915
 21
220.7038507468495
 31
0.0
 70
    32
 71
     5
 42
25.0
  3
dim2
100
AcDbAlignedDimension
 13
852.7455575868316
 23
233.2038507468494
 33
0.0
 14
852.7455575868316
 24
208.2038507468494
 34
0.0
 50
90.0
100
AcDbRotatedDimension
  0
DIMENSION
  5
5861
330
1F
100
AcDbEntity
  8
sunpo
100
AcDbDimension
  2
*D32
 10
781.2060439671859
 20
695.2123797339234
 30
0.0
 11
777.0060439671857
 21
712.7123797339236
 31
0.0
 70
    32
 71
     5
 42
35.0
  3
dim2
100
AcDbAlignedDimension
 13
880.7455575868315
 23
730.2123797339234
 33
0.0
 14
880.7455575868315
 24
695.2123797339234
 34
0.0
 50
90.0
100
AcDbRotatedDimension
  0
DIMENSION
  5
5862
330
1F
100
AcDbEntity
  8
sunpo
100
AcDbDimension
  2
*D33
 10
800.0172276805916
 20
730.2123797339234
 30
0.0
 11
795.8172276805913
 21
713.7123797339236
 31
0.0
 70
    32
 71
     5
 42
33.0
  3
dim2
100
AcDbAlignedDimension
 13
880.7455575868315
 23
697.2123797339234
 33
0.0
 14
880.7455575868315
 24
730.2123797339234
 34
0.0
 50
90.0
100
AcDbRotatedDimension
  0
DIMENSION
  5
5863
330
1F
100
AcDbEntity
  8
sunpo
100
AcDbDimension
  2
*D34
 10
781.2060439671859
 20
695.2123797339234
 30
0.0
 11
777.0060439671857
 21
470.211120196603
 31
0.0
 70
    32
  1
H
 71
     5
 42
450.0025190746412
  3
dim2
100
AcDbAlignedDimension
 13
844.7455575868316
 23
245.2098606592822
 33
0.0
 14
880.7455575868315
 24
695.2123797339234
 34
0.0
 50
90.0
100
AcDbRotatedDimension
  0
TEXT
  5
5864
330
1F
100
AcDbEntity
  8
moji
100
AcDbText
 10
564.5094202829352
 20
550.3080190008636
 30
0.0
 40
6.0
  1
（アルミ マーカー受）
 41
0.8
  7
Std
100
AcDbText
  0
LINE
  5
5865
330
1F
100
AcDbEntity
  8
0
100
AcDbLine
 10
131.1695595826461
 20
695.0884977633527
 30
0.0
 11
131.1695595826461
 21
641.0884977633525
 31
0.0
  0
LINE
  5
5866
330
1F
100
AcDbEntity
  8
0
100
AcDbLine
 10
131.1695595826461
 20
609.0884977633525
 30
0.0
 11
133.6695595826461
 21
609.0884977633525
 31
0.0
  0
LINE
  5
5867
330
1F
100
AcDbEntity
  8
0
100
AcDbLine
 10
131.1695595826461
 20
600.0884977633525
 30
0.0
 11
135.1695595826461
 21
600.0884977633525
 31
0.0
  0
LINE
  5
5868
330
1F
100
AcDbEntity
  8
0
100
AcDbLine
 10
135.6695595826461
 20
641.0884977633525
 30
0.0
 11
131.1695595826461
 21
641.0884977633525
 31
0.0
  0
LINE
  5
5869
330
1F
100
AcDbEntity
  8
0
100
AcDbLine
 10
133.6695595826461
 20
639.0884977633525
 30
0.0
 11
131.1695595826461
 21
639.0884977633525
 31
0.0
  0
LINE
  5
586A
330
1F
100
AcDbEntity
  8
0
100
AcDbLine
 10
131.2135485775145
 20
597.0884977633525
 30
0.0
 11
160.1695595826461
 21
597.0884977633468
 31
0.0
  0
LINE
  5
586B
330
1F
100
AcDbEntity
  8
kijun
100
AcDbLine
 10
130.4635485775145
 20
604.5884977633525
 30
0.0
 11
140.2135485775145
 21
604.5884977633525
 31
0.0
  0
ARC
  5
586C
330
1F
100
AcDbEntity
  8
0
100
AcDbCircle
 10
138.0418409059205
 20
606.5884977633524
 30
0.0
 40
1.0
100
AcDbArc
 50
214.8499045789725
 51
34.84990457897252
  0
ARC
  5
586D
330
1F
100
AcDbEntity
  8
0
100
AcDbCircle
 10
135.1695595826461
 20
604.5884977633525
 30
0.0
 40
2.5
100
AcDbArc
 50
34.84990457897252
 51
325.1500954210275
  0
LINE
  5
586E
330
1F
100
AcDbEntity
  8
kijun
100
AcDbLine
 10
135.1695595826461
 20
599.1884977633526
 30
0.0
 11
135.1695595826461
 21
609.9884977633555
 31
0.0
  0
ARC
  5
586F
330
1F
100
AcDbEntity
  8
0
100
AcDbCircle
 10
135.1695595826461
 20
604.5884977633525
 30
0.0
 40
4.5
100
AcDbArc
 50
270.0
 51
325.1500954210275
  0
ARC
  5
5870
330
1F
100
AcDbEntity
  8
0
100
AcDbCircle
 10
138.0418409059205
 20
602.5884977633524
 30
0.0
 40
1.0
100
AcDbArc
 50
325.1500954210275
 51
145.1500954210275
  0
ARC
  5
5871
330
1F
100
AcDbEntity
  8
0
100
AcDbCircle
 10
134.6695595826461
 20
612.0884977633525
 30
0.0
 40
1.0
100
AcDbArc
 50
0.0
 51
180.0
  0
ARC
  5
5872
330
1F
100
AcDbEntity
  8
0
100
AcDbCircle
 10
135.1695595826461
 20
604.5884977633525
 30
0.0
 40
4.5
100
AcDbArc
 50
34.84990457897252
 51
83.62062979155867
  0
LINE
  5
5873
330
1F
100
AcDbEntity
  8
0
100
AcDbLine
 10
133.6695595826461
 20
609.0884977633525
 30
0.0
 11
133.6695595826461
 21
612.0884977633525
 31
0.0
  0
LINE
  5
5874
330
1F
100
AcDbEntity
  8
0
100
AcDbLine
 10
135.6695595826461
 20
609.060633718349
 30
0.0
 11
135.6695595826461
 21
612.0884977633525
 31
0.0
  0
ARC
  5
5875
330
1F
100
AcDbEntity
  8
0
100
AcDbCircle
 10
134.6695595826461
 20
636.0884977633524
 30
0.0
 40
1.0
100
AcDbArc
 50
180.0
 51
0.0
  0
LINE
  5
5876
330
1F
100
AcDbEntity
  8
0
100
AcDbLine
 10
133.6695595826461
 20
636.0884977633524
 30
0.0
 11
133.6695595826461
 21
639.0884977633525
 31
0.0
  0
LINE
  5
5877
330
1F
100
AcDbEntity
  8
0
100
AcDbLine
 10
135.6695595826461
 20
636.0884977633524
 30
0.0
 11
135.6695595826461
 21
641.0884977633525
 31
0.0
  0
LINE
  5
5878
330
1F
100
AcDbEntity
  8
0
100
AcDbLine
 10
131.1695595826461
 20
639.0884977633525
 30
0.0
 11
131.1695595826461
 21
609.0884977633525
 31
0.0
  0
LINE
  5
5879
330
1F
100
AcDbEntity
  8
0
100
AcDbLine
 10
131.1695595826461
 20
600.0884977633525
 30
0.0
 11
131.1695595826461
 21
597.0884977633525
 31
0.0
  0
LINE
  5
587A
330
1F
100
AcDbEntity
  8
0
100
AcDbLine
 10
160.1695595826461
 20
617.0884977633525
 30
0.0
 11
160.1695595826461
 21
602.0884977633468
 31
0.0
  0
LINE
  5
587B
330
1F
100
AcDbEntity
  8
0
100
AcDbLine
 10
156.1695595826461
 20
600.0884977633525
 30
0.0
 11
160.1695595826461
 21
600.0884977633468
 31
0.0
  0
LINE
  5
587C
330
1F
100
AcDbEntity
  8
0
100
AcDbLine
 10
156.1695595826461
 20
602.0884977633524
 30
0.0
 11
160.1695595826461
 21
602.0884977633468
 31
0.0
  0
LINE
  5
587D
330
1F
100
AcDbEntity
  8
0
100
AcDbLine
 10
156.1695595826461
 20
602.0884977633524
 30
0.0
 11
156.1695595826461
 21
600.0884977633525
 31
0.0
  0
LINE
  5
587E
330
1F
100
AcDbEntity
  8
0
100
AcDbLine
 10
160.1695595826461
 20
600.0884977633468
 30
0.0
 11
160.1695595826461
 21
597.0884977633468
 31
0.0
  0
LINE
  5
587F
330
1F
100
AcDbEntity
  8
0
100
AcDbLine
 10
162.1695595826461
 20
617.0884977633525
 30
0.0
 11
160.1695595826461
 21
617.0884977633525
 31
0.0
  0
LINE
  5
5880
330
1F
100
AcDbEntity
  8
0
100
AcDbLine
 10
162.1695595826461
 20
695.0884977633527
 30
0.0
 11
162.1695595826461
 21
617.0884977633525
 31
0.0
  0
LINE
  5
5881
330
1F
100
AcDbEntity
  8
0
100
AcDbLine
 10
162.1695595826461
 20
695.0884977633527
 30
0.0
 11
131.1695595826461
 21
695.0884977633527
 31
0.0
  0
LINE
  5
5882
330
1F
100
AcDbEntity
  8
0
100
AcDbLine
 10
162.1695595826461
 20
697.0884977633527
 30
0.0
 11
131.1695595826461
 21
697.0884977633527
 31
0.0
  0
LINE
  5
5883
330
1F
100
AcDbEntity
  8
0
100
AcDbLine
 10
162.1695595826461
 20
727.0884977633527
 30
0.0
 11
162.1695595826461
 21
701.5884977633527
 31
0.0
  0
LINE
  5
5884
330
1F
100
AcDbEntity
  8
0
100
AcDbLine
 10
162.1695595826461
 20
699.5884977633527
 30
0.0
 11
162.1695595826461
 21
697.0884977633527
 31
0.0
  0
ARC
  5
5885
330
1F
100
AcDbEntity
  8
0
100
AcDbCircle
 10
159.1695595826461
 20
700.5884977633527
 30
0.0
 40
1.0
100
AcDbArc
 50
90.0
 51
270.0
  0
LINE
  5
5886
330
1F
100
AcDbEntity
  8
0
100
AcDbLine
 10
162.1695595826461
 20
701.5884977633527
 30
0.0
 11
159.1695595826461
 21
701.5884977633527
 31
0.0
  0
LINE
  5
5887
330
1F
100
AcDbEntity
  8
0
100
AcDbLine
 10
162.1695595826461
 20
699.5884977633527
 30
0.0
 11
159.1695595826461
 21
699.5884977633527
 31
0.0
  0
LINE
  5
5888
330
1F
100
AcDbEntity
  8
0
100
AcDbLine
 10
134.1695595826461
 20
699.5884977633527
 30
0.0
 11
131.1695595826461
 21
699.5884977633527
 31
0.0
  0
LINE
  5
5889
330
1F
100
AcDbEntity
  8
0
100
AcDbLine
 10
134.1695595826461
 20
701.5884977633527
 30
0.0
 11
131.1695595826461
 21
701.5884977633527
 31
0.0
  0
ARC
  5
588A
330
1F
100
AcDbEntity
  8
0
100
AcDbCircle
 10
134.1695595826461
 20
700.5884977633527
 30
0.0
 40
1.0
100
AcDbArc
 50
270.0
 51
90.0
  0
LINE
  5
588B
330
1F
100
AcDbEntity
  8
0
100
AcDbLine
 10
131.1695595826461
 20
720.0884977633527
 30
0.0
 11
131.1695595826461
 21
701.5884977633527
 31
0.0
  0
LINE
  5
588C
330
1F
100
AcDbEntity
  8
0
100
AcDbLine
 10
131.1695595826461
 20
699.5884977633527
 30
0.0
 11
131.1695595826461
 21
697.0884977633527
 31
0.0
  0
LINE
  5
588D
330
1F
100
AcDbEntity
  8
0
100
AcDbLine
 10
131.1695595826461
 20
720.0884977633527
 30
0.0
 11
136.1695595826461
 21
720.0884977633527
 31
0.0
  0
LINE
  5
588E
330
1F
100
AcDbEntity
  8
0
100
AcDbLine
 10
134.1695595826461
 20
722.0884977633527
 30
0.0
 11
134.1695595826461
 21
727.0884977633527
 31
0.0
  0
LINE
  5
588F
330
1F
100
AcDbEntity
  8
0
100
AcDbLine
 10
136.1695595826461
 20
720.0884977633527
 30
0.0
 11
136.1695595826461
 21
727.0884977633527
 31
0.0
  0
LINE
  5
5890
330
1F
100
AcDbEntity
  8
0
100
AcDbLine
 10
129.1695595826461
 20
722.0884977633527
 30
0.0
 11
134.1695595826461
 21
722.0884977633527
 31
0.0
  0
LINE
  5
5891
330
1F
100
AcDbEntity
  8
0
100
AcDbLine
 10
164.1695595826606
 20
725.0884977633527
 30
0.0
 11
182.1695595826606
 21
725.0884977633527
 31
0.0
  0
LINE
  5
5892
330
1F
100
AcDbEntity
  8
0
100
AcDbLine
 10
182.1695595826606
 20
725.0884977633527
 30
0.0
 11
182.1695595826606
 21
727.0884977633527
 31
0.0
  0
DIMENSION
  5
5893
330
1F
100
AcDbEntity
  8
sunpo
100
AcDbDimension
  2
*D35
 10
997.7455575868203
 20
580.4645628081482
 30
0.0
 11
977.7455575868259
 21
584.6645628081482
 31
0.0
 70
    32
 71
     5
 42
39.99999999998863
  3
dim2
100
AcDbAlignedDimension
 13
957.7455575868317
 23
614.4645628081482
 33
0.0
 14
997.7455575868203
 24
614.4645628081482
 34
0.0
100
AcDbRotatedDimension
  0
DIMENSION
  5
5894
330
1F
100
AcDbEntity
  8
sunpo
100
AcDbDimension
  2
*D36
 10
945.7455575868316
 20
580.4645628081482
 30
0.0
 11
952.655833108518
 21
574.5776904814593
 31
0.0
 70
   160
 71
     5
 42
12.0
  3
dim2
100
AcDbAlignedDimension
 13
957.7455575868317
 23
614.4645628081482
 33
0.0
 14
945.7455575868316
 24
614.4645628081482
 34
0.0
100
AcDbRotatedDimension
  0
DIMENSION
  5
5895
330
1F
100
AcDbEntity
  8
sunpo
100
AcDbDimension
  2
*D37
 10
940.7455575868317
 20
580.4645628081482
 30
0.0
 11
943.1200562808516
 21
585.7278856240518
 31
0.0
 70
   160
 71
     5
 42
5.0
  3
dim2
100
AcDbAlignedDimension
 13
945.7455575868316
 23
614.4645628081482
 33
0.0
 14
940.7455575868317
 24
614.574014548092
 34
0.0
100
AcDbRotatedDimension
  0
DIMENSION
  5
5896
330
1F
100
AcDbEntity
  8
sunpo
100
AcDbDimension
  2
*D38
 10
1017.74555758682
 20
604.4645628081482
 30
0.0
 11
1032.74555758682
 21
608.6645628081482
 31
0.0
 70
    32
 71
     5
 42
30.0
  3
dim2
100
AcDbAlignedDimension
 13
1047.74555758682
 23
614.4645628081482
 33
0.0
 14
1017.74555758682
 24
614.4645628081482
 34
0.0
 50
180.0
100
AcDbRotatedDimension
  0
DIMENSION
  5
5897
330
1F
100
AcDbEntity
  8
sunpo
100
AcDbDimension
  2
*D39
 10
1072.74555758682
 20
604.4645628081482
 30
0.0
 11
1060.24555758682
 21
608.6645628081482
 31
0.0
 70
    32
 71
     5
 42
25.0
  3
dim2
100
AcDbAlignedDimension
 13
1047.74555758682
 23
614.4645628081482
 33
0.0
 14
1072.74555758682
 24
614.4645628081482
 34
0.0
100
AcDbRotatedDimension
  0
DIMENSION
  5
5898
330
1F
100
AcDbEntity
  8
sunpo
100
AcDbDimension
  2
*D40
 10
1017.74555758682
 20
580.4645628081482
 30
0.0
 11
1007.74555758682
 21
584.6645628081482
 31
0.0
 70
    32
 71
     5
 42
20.0
  3
dim2
100
AcDbAlignedDimension
 13
997.7455575868203
 23
614.4645628081482
 33
0.0
 14
1017.74555758682
 24
614.4645628081482
 34
0.0
100
AcDbRotatedDimension
  0
DIMENSION
  5
5899
330
1F
100
AcDbEntity
  8
sunpo
100
AcDbDimension
  2
*D41
 10
1072.74555758682
 20
367.1114604256079
 30
0.0
 11
1006.745557586826
 21
371.3114604256079
 31
0.0
 70
    32
 71
     5
 42
131.9999999999886
  3
dim2
100
AcDbAlignedDimension
 13
940.7455575868317
 23
360.1114604256079
 33
0.0
 14
1072.74555758682
 24
344.1114604256079
 34
0.0
100
AcDbRotatedDimension
  0
DIMENSION
  5
589A
330
1F
100
AcDbEntity
  8
sunpo
100
AcDbDimension
  2
*D42
 10
940.7455575868317
 20
367.1114604256079
 30
0.0
 11
898.7455575868317
 21
371.3114604256079
 31
0.0
 70
    32
 71
     5
 42
84.0
  3
dim2
100
AcDbAlignedDimension
 13
856.7455575868317
 23
297.1742534224372
 33
0.0
 14
940.7455575868317
 24
360.1114604256079
 34
0.0
100
AcDbRotatedDimension
  0
DIMENSION
  5
589C
330
1F
100
AcDbEntity
  8
sunpo
100
AcDbDimension
  2
*D43
 10
164.169559582652
 20
403.0884977633584
 30
0.0
 11
146.669559582652
 21
407.2884977633584
 31
0.0
 70
    32
 71
     5
 42
35.0
  3
dim2
100
AcDbAlignedDimension
 13
129.169559582652
 23
501.0884977633584
 33
0.0
 14
164.169559582652
 24
501.0884977633584
 34
0.0
100
AcDbRotatedDimension
  0
MTEXT
  5
589D
330
1F
100
AcDbEntity
  8
sunpo
 62
     2
100
AcDbMText
 10
606.5256121898453
 20
409.4184977633515
 30
0.0
 40
6.0
 41
0.0
 71
     5
 72
     1
  1
W
  7
Std
 73
     1
 44
1.0
  0
LINE
  5
589F
330
1F
100
AcDbEntity
  8
kijun
100
AcDbLine
 10
970.5455575868214
 20
262.4525013464029
 30
0.0
 11
984.9455575868228
 21
262.4525013464029
 31
0.0
  0
LINE
  5
58A0
330
1F
100
AcDbEntity
  8
hasen
100
AcDbLine
 10
974.7455575868185
 20
274.4525013464029
 30
0.0
 11
974.7455575868185
 21
251.2098606592792
 31
0.0
  0
LINE
  5
58A1
330
1F
100
AcDbEntity
  8
hasen
100
AcDbLine
 10
980.7455575868257
 20
274.4525013464029
 30
0.0
 11
980.7455575868257
 21
251.2098606592792
 31
0.0
  0
LINE
  5
58A2
330
1F
100
AcDbEntity
  8
0
100
AcDbLine
 10
980.7455575868257
 20
250.4525013464029
 30
0.0
 11
980.7455575868257
 21
251.2098606592792
 31
0.0
  0
LINE
  5
58A3
330
1F
100
AcDbEntity
  8
0
100
AcDbLine
 10
974.7455575868185
 20
250.4525013464029
 30
0.0
 11
974.7455575868185
 21
251.2098606592792
 31
0.0
  0
ARC
  5
58A4
330
1F
100
AcDbEntity
  8
hasen
100
AcDbCircle
 10
977.7455575868184
 20
274.4525013464029
 30
0.0
 40
2.999999999999969
100
AcDbArc
 50
0.0
 51
180.0
  0
ARC
  5
58A5
330
1F
100
AcDbEntity
  8
0
100
AcDbCircle
 10
977.7455575868184
 20
250.4525013464029
 30
0.0
 40
2.999999999999969
100
AcDbArc
 50
180.0
 51
0.0
  0
LINE
  5
58A6
330
1F
100
AcDbEntity
  8
0
100
AcDbLine
 10
981.7455575868184
 20
250.2098606592865
 30
0.0
 11
983.7455575868258
 21
250.2098606592865
 31
0.0
  0
LINE
  5
58A7
330
1F
100
AcDbEntity
  8
0
100
AcDbLine
 10
978.7455575868184
 20
247.2098606592865
 30
0.0
 11
981.7455575868184
 21
250.2098606592865
 31
0.0
  0
LINE
  5
58A8
330
1F
100
AcDbEntity
  8
0
100
AcDbLine
 10
976.7455575868185
 20
247.2098606592865
 30
0.0
 11
973.7455575868256
 21
250.2098606592865
 31
0.0
  0
LINE
  5
58A9
330
1F
100
AcDbEntity
  8
0
100
AcDbLine
 10
978.7455575868257
 20
247.2098606592865
 30
0.0
 11
976.7455575868185
 21
247.2098606592865
 31
0.0
  0
LINE
  5
58AA
330
1F
100
AcDbEntity
  8
0
100
AcDbLine
 10
1016.245557586826
 20
246.9098606592836
 30
0.0
 11
1016.245557586826
 21
260.2098606592865
 31
0.0
  0
LINE
  5
58AB
330
1F
100
AcDbEntity
  8
0
100
AcDbLine
 10
1017.745557586818
 20
260.2098606592865
 30
0.0
 11
1016.245557586826
 21
260.2098606592865
 31
0.0
  0
LINE
  5
58AC
330
1F
100
AcDbEntity
  8
0
100
AcDbLine
 10
983.7455575868258
 20
250.2098606592865
 30
0.0
 11
983.7455575868258
 21
246.9098606592836
 31
0.0
  0
LINE
  5
58AD
330
1F
100
AcDbEntity
  8
0
100
AcDbLine
 10
971.7455575868184
 20
250.2098606592865
 30
0.0
 11
973.7455575868256
 21
250.2098606592865
 31
0.0
  0
LINE
  5
58AE
330
1F
100
AcDbEntity
  8
0
100
AcDbLine
 10
971.7455575868184
 20
245.2098606592865
 30
0.0
 11
971.7455575868184
 21
250.2098606592865
 31
0.0
  0
LINE
  5
58AF
330
1F
100
AcDbEntity
  8
0
100
AcDbLine
 10
1016.245557586826
 20
246.9098606592836
 30
0.0
 11
983.7455575868258
 21
246.9098606592836
 31
0.0
  0
LINE
  5
58B0
330
1F
100
AcDbEntity
  8
0
100
AcDbLine
 10
1023.64555758682
 20
660.2123797339231
 30
0.0
 11
1047.745557586819
 21
660.2123797339231
 31
0.0
  0
LINE
  5
58B1
330
1F
100
AcDbEntity
  8
saisen
100
AcDbLine
 10
1047.745557586819
 20
690.2123797339231
 30
0.0
 11
1023.64555758682
 21
660.2123797339231
 31
0.0
  0
LINE
  5
58B2
330
1F
100
AcDbEntity
  8
saisen
100
AcDbLine
 10
1047.745557586819
 20
695.2123797339232
 30
0.0
 11
1059.745557586819
 21
680.2123797339231
 31
0.0
  0
LINE
  5
58B3
330
1F
100
AcDbEntity
  8
0
100
AcDbLine
 10
996.7455575868184
 20
676.2123797339231
 30
0.0
 11
978.7455575868184
 21
676.2123797339231
 31
0.0
  0
LINE
  5
58B4
330
1F
100
AcDbEntity
  8
0
100
AcDbLine
 10
978.7455575868184
 20
682.2123797339231
 30
0.0
 11
996.7455575868184
 21
682.2123797339231
 31
0.0
  0
LINE
  5
58B5
330
1F
100
AcDbEntity
  8
0
100
AcDbLine
 10
978.7455575868184
 20
676.2123797339231
 30
0.0
 11
978.7455575868184
 21
682.2123797339231
 31
0.0
  0
LINE
  5
58B6
330
1F
100
AcDbEntity
  8
0
100
AcDbLine
 10
976.7455575868185
 20
676.2123797339231
 30
0.0
 11
958.7455575868185
 21
676.2123797339231
 31
0.0
  0
LINE
  5
58B7
330
1F
100
AcDbEntity
  8
0
100
AcDbLine
 10
976.7455575868185
 20
682.2123797339231
 30
0.0
 11
976.7455575868185
 21
676.2123797339231
 31
0.0
  0
LINE
  5
58B8
330
1F
100
AcDbEntity
  8
0
100
AcDbLine
 10
958.7455575868185
 20
682.2123797339231
 30
0.0
 11
976.7455575868185
 21
682.2123797339231
 31
0.0
  0
LINE
  5
58B9
330
1F
100
AcDbEntity
  8
0
100
AcDbLine
 10
1059.745557586819
 20
680.2123797339231
 30
0.0
 11
1047.745557586819
 21
680.2123797339231
 31
0.0
  0
LINE
  5
58BA
330
1F
100
AcDbEntity
  8
0
100
AcDbLine
 10
1059.745557586819
 20
695.2123797339232
 30
0.0
 11
1059.745557586819
 21
680.2123797339231
 31
0.0
  0
LINE
  5
58BB
330
1F
100
AcDbEntity
  8
0
100
AcDbLine
 10
1017.745557586818
 20
690.2123797339231
 30
0.0
 11
1047.745557586819
 21
690.2123797339231
 31
0.0
  0
LINE
  5
58BC
330
1F
100
AcDbEntity
  8
0
100
AcDbLine
 10
1047.745557586819
 20
695.2123797339232
 30
0.0
 11
1047.745557586819
 21
660.2123797339231
 31
0.0
  0
LINE
  5
58BD
330
1F
100
AcDbEntity
  8
0
100
AcDbLine
 10
199.1695595826534
 20
677.9884977633469
 30
0.0
 11
199.1695595826534
 21
702.0884977633468
 31
0.0
  0
LINE
  5
58BE
330
1F
100
AcDbEntity
  8
saisen
100
AcDbLine
 10
169.1695595826534
 20
702.0884977633468
 30
0.0
 11
199.1695595826534
 21
677.9884977633469
 31
0.0
  0
LINE
  5
58BF
330
1F
100
AcDbEntity
  8
0
100
AcDbLine
 10
164.9695595826563
 20
671.2884977633525
 30
0.0
 11
179.1695595826534
 21
671.2884977633525
 31
0.0
  0
LINE
  5
58C0
330
1F
100
AcDbEntity
  8
0
100
AcDbLine
 10
164.9695595826563
 20
657.0884977633525
 30
0.0
 11
164.9695595826563
 21
671.2884977633525
 31
0.0
  0
LINE
  5
58C1
330
1F
100
AcDbEntity
  8
0
100
AcDbLine
 10
164.9695595826563
 20
657.0884977633525
 30
0.0
 11
164.1695595826534
 21
657.0884977633525
 31
0.0
  0
LINE
  5
58C2
330
1F
100
AcDbEntity
  8
0
100
AcDbLine
 10
179.1695595826534
 20
672.0884977633527
 30
0.0
 11
179.1695595826534
 21
671.2884977633525
 31
0.0
  0
LINE
  5
58C3
330
1F
100
AcDbEntity
  8
0
100
AcDbLine
 10
164.1695595826534
 20
702.0884977633468
 30
0.0
 11
199.1695595826534
 21
702.0884977633468
 31
0.0
  0
LINE
  5
58C4
330
1F
100
AcDbEntity
  8
0
100
AcDbLine
 10
164.1695595826534
 20
672.0884977633527
 30
0.0
 11
309.0195595826519
 21
672.0884977633527
 31
0.0
  0
LINE
  5
58C5
330
1F
100
AcDbEntity
  8
0
100
AcDbLine
 10
329.0195595826519
 20
677.9884977633469
 30
0.0
 11
531.2244938236692
 21
677.9884977633469
 31
0.0
  0
LINE
  5
58C6
330
1F
100
AcDbEntity
  8
saisen
100
AcDbLine
 10
329.0195595826519
 20
702.0884977633468
 30
0.0
 11
531.2244938236692
 21
702.0884977633468
 31
0.0
  0
LINE
  5
58C7
330
1F
100
AcDbEntity
  8
0
100
AcDbLine
 10
329.0195595826519
 20
672.0884977633527
 30
0.0
 11
531.2244938236692
 21
672.0884977633468
 31
0.0
  0
LINE
  5
58C8
330
1F
100
AcDbEntity
  8
0
100
AcDbLine
 10
164.1695595826534
 20
626.0884977633525
 30
0.0
 11
309.0195595826519
 21
626.0884977633525
 31
0.0
  0
LINE
  5
58C9
330
1F
100
AcDbEntity
  8
0
100
AcDbLine
 10
164.1695595826534
 20
638.0884977633525
 30
0.0
 11
309.0195595826519
 21
638.0884977633525
 31
0.0
  0
LINE
  5
58CA
330
1F
100
AcDbEntity
  8
0
100
AcDbLine
 10
329.0195595826519
 20
626.0884977633468
 30
0.0
 11
439.1695595826534
 21
626.0884977633468
 31
0.0
  0
LINE
  5
58CB
330
1F
100
AcDbEntity
  8
0
100
AcDbLine
 10
164.1695595826534
 20
628.0884977633525
 30
0.0
 11
309.0195595826519
 21
628.0884977633525
 31
0.0
  0
LINE
  5
58CC
330
1F
100
AcDbEntity
  8
0
100
AcDbLine
 10
164.1695595826534
 20
631.0884977633524
 30
0.0
 11
309.0195595826519
 21
631.0884977633524
 31
0.0
  0
LINE
  5
58CD
330
1F
100
AcDbEntity
  8
0
100
AcDbLine
 10
164.1695595826534
 20
633.0884977633525
 30
0.0
 11
309.0195595826519
 21
633.0884977633525
 31
0.0
  0
LINE
  5
58CE
330
1F
100
AcDbEntity
  8
0
100
AcDbLine
 10
164.1695595826534
 20
636.0884977633524
 30
0.0
 11
309.0195595826519
 21
636.0884977633524
 31
0.0
  0
LINE
  5
58CF
330
1F
100
AcDbEntity
  8
0
100
AcDbLine
 10
169.1695595826534
 20
702.0884977633468
 30
0.0
 11
169.1695595826534
 21
672.0884977633527
 31
0.0
  0
LINE
  5
58D0
330
1F
100
AcDbEntity
  8
0
100
AcDbLine
 10
164.1695595826534
 20
714.0884977633468
 30
0.0
 11
179.1695595826534
 21
714.0884977633468
 31
0.0
  0
LINE
  5
58D1
330
1F
100
AcDbEntity
  8
0
100
AcDbLine
 10
179.1695595826534
 20
714.0884977633468
 30
0.0
 11
179.1695595826534
 21
702.0884977633468
 31
0.0
  0
LINE
  5
58D2
330
1F
100
AcDbEntity
  8
saisen
100
AcDbLine
 10
164.1695595826534
 20
702.0884977633468
 30
0.0
 11
179.1695595826534
 21
714.0884977633468
 31
0.0
  0
LINE
  5
58D3
330
1F
100
AcDbEntity
  8
0
100
AcDbLine
 10
329.0195595826519
 20
638.0884977633468
 30
0.0
 11
439.1695595826534
 21
638.0884977633468
 31
0.0
  0
LINE
  5
58D4
330
1F
100
AcDbEntity
  8
0
100
AcDbLine
 10
329.0195595826519
 20
636.0884977633467
 30
0.0
 11
439.1695595826534
 21
636.0884977633467
 31
0.0
  0
LINE
  5
58D5
330
1F
100
AcDbEntity
  8
0
100
AcDbLine
 10
329.0195595826519
 20
633.0884977633468
 30
0.0
 11
439.1695595826534
 21
633.0884977633468
 31
0.0
  0
LINE
  5
58D6
330
1F
100
AcDbEntity
  8
0
100
AcDbLine
 10
329.0195595826519
 20
631.0884977633468
 30
0.0
 11
439.1695595826534
 21
631.0884977633468
 31
0.0
  0
LINE
  5
58D7
330
1F
100
AcDbEntity
  8
0
100
AcDbLine
 10
329.0195595826519
 20
628.0884977633468
 30
0.0
 11
439.1695595826534
 21
628.0884977633468
 31
0.0
  0
LINE
  5
58D8
330
1F
100
AcDbEntity
  8
0
100
AcDbLine
 10
958.7455575868185
 20
682.2123797339231
 30
0.0
 11
958.7455575868185
 21
676.2123797339231
 31
0.0
  0
LINE
  5
58D9
330
1F
100
AcDbEntity
  8
kijun
100
AcDbLine
 10
967.7455575868185
 20
666.6123797339261
 30
0.0
 11
967.7455575868185
 21
682.2123797339231
 31
0.0
  0
LINE
  5
58DA
330
1F
100
AcDbEntity
  8
0
100
AcDbLine
 10
996.7455575868184
 20
676.2123797339231
 30
0.0
 11
996.7455575868184
 21
682.2123797339231
 31
0.0
  0
LINE
  5
58DB
330
1F
100
AcDbEntity
  8
kijun
100
AcDbLine
 10
987.7455575868184
 20
666.6123797339261
 30
0.0
 11
987.7455575868184
 21
682.2123797339231
 31
0.0
  0
LINE
  5
58DC
330
1F
100
AcDbEntity
  8
saisen
100
AcDbLine
 10
199.1695595826534
 20
702.0884977633468
 30
0.0
 11
309.0195595826519
 21
702.0884977633468
 31
0.0
  0
LINE
  5
58DD
330
1F
100
AcDbEntity
  8
saisen
100
AcDbLine
 10
1047.745557586819
 20
660.2123797339231
 30
0.0
 11
1047.745557586819
 21
245.2098606592865
 31
0.0
  0
LINE
  5
58DE
330
1F
100
AcDbEntity
  8
0
100
AcDbLine
 10
1017.745557586818
 20
690.2123797339231
 30
0.0
 11
1017.745557586818
 21
245.2098606592792
 31
0.0
  0
LINE
  5
58DF
330
1F
100
AcDbEntity
  8
0
100
AcDbLine
 10
439.1695595826534
 20
641.3677385432979
 30
0.0
 11
439.1695595826534
 21
622.809256983413
 31
0.0
  0
LINE
  5
58E0
330
1F
100
AcDbEntity
  8
0
100
AcDbLine
 10
439.8533318166376
 20
621.8605736853569
 30
0.0
 11
454.1695595826533
 21
617.0884977633525
 31
0.0
  0
LINE
  5
58E1
330
1F
100
AcDbEntity
  8
0
100
AcDbLine
 10
439.8533318166376
 20
642.3164218413453
 30
0.0
 11
454.1695595826533
 21
647.0884977633525
 31
0.0
  0
ARC
  5
58E2
330
1F
100
AcDbEntity
  8
0
100
AcDbCircle
 10
440.1695595826534
 20
622.809256983413
 30
0.0
 40
1.0
100
AcDbArc
 50
180.0
 51
251.5650511769762
  0
ARC
  5
58E3
330
1F
100
AcDbEntity
  8
0
100
AcDbCircle
 10
440.1695595826534
 20
641.3677385432979
 30
0.0
 40
1.0
100
AcDbArc
 50
108.4349488230238
 51
180.0
  0
LINE
  5
58E5
330
1F
100
AcDbEntity
  8
0
100
AcDbLine
 10
956.2455575868185
 20
695.2123797339232
 30
0.0
 11
1016.245557586826
 21
695.2123797339232
 31
0.0
  0
LINE
  5
58E6
330
1F
100
AcDbEntity
  8
0
100
AcDbLine
 10
957.7455575868183
 20
693.7123797339231
 30
0.0
 11
957.7455575868183
 21
673.2123797339231
 31
0.0
  0
LINE
  5
58E7
330
1F
100
AcDbEntity
  8
0
100
AcDbLine
 10
957.7455575868183
 20
673.2123797339231
 30
0.0
 11
945.7455575868184
 21
673.2123797339231
 31
0.0
  0
LINE
  5
58E8
330
1F
100
AcDbEntity
  8
0
100
AcDbLine
 10
945.7455575868184
 20
673.2123797339231
 30
0.0
 11
945.7455575868184
 21
697.2123797339231
 31
0.0
  0
LINE
  5
58E9
330
1F
100
AcDbEntity
  8
0
100
AcDbLine
 10
947.2455575868185
 20
697.2123797339231
 30
0.0
 11
947.2455575868185
 21
674.7123797339232
 31
0.0
  0
LINE
  5
58EA
330
1F
100
AcDbEntity
  8
0
100
AcDbLine
 10
945.7455575868184
 20
674.7123797339232
 30
0.0
 11
945.7455575868184
 21
697.2123797339231
 31
0.0
  0
LINE
  5
58EB
330
1F
100
AcDbEntity
  8
0
100
AcDbLine
 10
956.2455575868185
 20
695.2123797339232
 30
0.0
 11
956.2455575868185
 21
674.7123797339232
 31
0.0
  0
LINE
  5
58EC
330
1F
100
AcDbEntity
  8
0
100
AcDbLine
 10
956.2455575868185
 20
674.7123797339232
 30
0.0
 11
947.2455575868185
 21
674.7123797339232
 31
0.0
  0
LINE
  5
58ED
330
1F
100
AcDbEntity
  8
0
100
AcDbLine
 10
997.7455575868184
 20
693.7123797339231
 30
0.0
 11
957.7455575868183
 21
693.7123797339231
 31
0.0
  0
LINE
  5
58EE
330
1F
100
AcDbEntity
  8
0
100
AcDbLine
 10
997.7455575868184
 20
693.7123797339231
 30
0.0
 11
997.7455575868184
 21
673.2123797339231
 31
0.0
  0
LINE
  5
58EF
330
1F
100
AcDbEntity
  8
0
100
AcDbLine
 10
997.7455575868184
 20
673.2123797339231
 30
0.0
 11
1017.745557586818
 21
673.2123797339231
 31
0.0
  0
LINE
  5
58F0
330
1F
100
AcDbEntity
  8
0
100
AcDbLine
 10
1017.745557586818
 20
695.2123797339232
 30
0.0
 11
1017.745557586818
 21
673.2123797339231
 31
0.0
  0
LINE
  5
58F1
330
1F
100
AcDbEntity
  8
0
100
AcDbLine
 10
999.2455575868184
 20
695.2123797339232
 30
0.0
 11
999.2455575868184
 21
674.7123797339232
 31
0.0
  0
LINE
  5
58F2
330
1F
100
AcDbEntity
  8
0
100
AcDbLine
 10
999.2455575868184
 20
674.7123797339232
 30
0.0
 11
1016.245557586818
 21
674.7123797339232
 31
0.0
  0
LINE
  5
58F3
330
1F
100
AcDbEntity
  8
0
100
AcDbLine
 10
1016.245557586818
 20
695.2123797339232
 30
0.0
 11
1016.245557586818
 21
674.7123797339232
 31
0.0
  0
DIMENSION
  5
58F4
330
1F
100
AcDbEntity
  8
sunpo
100
AcDbDimension
  2
*D44
 10
800.0172276805916
 20
673.2123797339234
 30
0.0
 11
795.8172276805913
 21
685.2123797339236
 31
0.0
 70
    32
 71
     5
 42
24.0
  3
dim2
100
AcDbAlignedDimension
 13
910.7455575868316
 23
697.2123797339234
 33
0.0
 14
910.7455575868316
 24
673.2123797339234
 34
0.0
 50
270.0
100
AcDbRotatedDimension
  0
DIMENSION
  5
58F5
330
1F
100
AcDbEntity
  8
sunpo
100
AcDbDimension
  2
*D45
 10
1072.74555758682
 20
580.4645628081482
 30
0.0
 11
1045.24555758682
 21
584.6645628081482
 31
0.0
 70
    32
 71
     5
 42
55.0
  3
dim2
100
AcDbAlignedDimension
 13
1017.74555758682
 23
614.4645628081482
 33
0.0
 14
1072.74555758682
 24
614.4645628081482
 34
0.0
100
AcDbRotatedDimension
  0
LINE
  5
58F6
330
1F
100
AcDbEntity
  8
hojo
100
AcDbLine
 10
413.3695595826577
 20
595.0884977633468
 30
0.0
 11
413.3695595826577
 21
727.0884977633468
 31
0.0
  0
DIMENSION
  5
58F7
330
1F
100
AcDbEntity
  8
sunpo
100
AcDbDimension
  2
*D46
 10
384.570056154547
 20
672.0884977633586
 30
0.0
 11
380.3700561545469
 21
660.5878410655643
 31
0.0
 70
    32
 71
     5
 42
23.0013133955888
  3
dim2
100
AcDbAlignedDimension
 13
413.3695595826636
 23
649.0871843677698
 33
0.0
 14
413.3695595826636
 24
672.0884977633586
 34
0.0
 50
90.0
100
AcDbRotatedDimension
  0
DIMENSION
  5
58F8
330
1F
100
AcDbEntity
  8
sunpo
100
AcDbDimension
  2
*D47
 10
384.570056154547
 20
595.0884977633468
 30
0.0
 11
380.370056154547
 21
605.0878410655585
 31
0.0
 70
    32
 71
     5
 42
19.99868660442303
  3
dim2
100
AcDbAlignedDimension
 13
413.3695595826636
 23
615.0871843677698
 33
0.0
 14
413.3695595826636
 24
595.0884977633468
 34
0.0
 50
90.0
100
AcDbRotatedDimension
  0
DIMENSION
  5
58F9
330
1F
100
AcDbEntity
  8
sunpo
100
AcDbDimension
  2
*D48
 10
384.570056154547
 20
615.0871843677698
 30
0.0
 11
377.047161000359
 21
632.6543297931712
 31
0.0
 70
   160
 71
     5
 42
34.0
  3
dim2
100
AcDbAlignedDimension
 13
413.3695595826636
 23
649.0871843677698
 33
0.0
 14
413.3695595826636
 24
615.0871843677698
 34
0.0
 50
90.0
100
AcDbRotatedDimension
  0
DIMENSION
  5
58FA
330
1F
100
AcDbEntity
  8
sunpo
100
AcDbDimension
  2
*D49
 10
384.570056154547
 20
672.0884977633586
 30
0.0
 11
380.3700561545469
 21
699.5884977633529
 31
0.0
 70
    32
 71
     5
 42
54.99999999998817
  3
dim2
100
AcDbAlignedDimension
 13
413.3695595826636
 23
727.0884977633468
 33
0.0
 14
413.3695595826636
 24
672.0884977633586
 34
0.0
 50
90.0
100
AcDbRotatedDimension
  0
DIMENSION
  5
58FB
330
1F
100
AcDbEntity
  8
sunpo
100
AcDbDimension
  2
*D50
 10
408.570056154547
 20
727.0884977633468
 30
0.0
 11
404.3700561545469
 21
714.5884977633469
 31
0.0
 70
    32
 71
     5
 42
25.0
  3
dim2
100
AcDbAlignedDimension
 13
413.3695595826636
 23
702.0884977633468
 33
0.0
 14
413.3695595826636
 24
727.0884977633468
 34
0.0
 50
90.0
100
AcDbRotatedDimension
  0
DIMENSION
  5
58FC
330
1F
100
AcDbEntity
  8
sunpo
100
AcDbDimension
  2
*D51
 10
408.570056154547
 20
672.0884977633586
 30
0.0
 11
404.3700561545469
 21
687.0884977633529
 31
0.0
 70
    32
 71
     5
 42
29.99999999998818
  3
dim2
100
AcDbAlignedDimension
 13
413.3695595826636
 23
702.0884977633468
 33
0.0
 14
413.3695595826636
 24
672.0884977633586
 34
0.0
 50
90.0
100
AcDbRotatedDimension
  0
LINE
  5
58FD
330
1F
100
AcDbEntity
  8
0
100
AcDbLine
 10
940.7455575868256
 20
702.2123797339231
 30
0.0
 11
940.7455575868256
 21
699.2123797339232
 31
0.0
  0
LINE
  5
58FE
330
1F
100
AcDbEntity
  8
2tensasen
100
AcDbLine
 10
1052.745557586819
 20
697.2123797339231
 30
0.0
 11
1052.745557586819
 21
699.2123797339232
 31
0.0
  0
LINE
  5
58FF
330
1F
100
AcDbEntity
  8
2tensasen
100
AcDbLine
 10
1070.745557586819
 20
717.2123797339231
 30
0.0
 11
1072.745557586819
 21
717.2123797339231
 31
0.0
  0
LINE
  5
5900
330
1F
100
AcDbEntity
  8
2tensasen
100
AcDbLine
 10
1070.745557586819
 20
717.2123797339231
 30
0.0
 11
1070.745557586819
 21
699.2123797339232
 31
0.0
  0
LINE
  5
5901
330
1F
100
AcDbEntity
  8
2tensasen
100
AcDbLine
 10
1070.745557586819
 20
699.2123797339232
 30
0.0
 11
1052.745557586819
 21
699.2123797339232
 31
0.0
  0
DIMENSION
  5
5903
330
1F
100
AcDbEntity
  8
sunpo
100
AcDbDimension
  2
*D53
 10
454.169559582652
 20
566.7249201987273
 30
0.0
 11
446.669559582652
 21
570.9249201987274
 31
0.0
 70
    32
 71
     5
 42
15.0
  3
dim2
100
AcDbAlignedDimension
 13
439.169559582652
 23
617.0884977633586
 33
0.0
 14
454.169559582652
 24
617.0871843677698
 34
0.0
100
AcDbRotatedDimension
  0
LINE
  5
5904
330
1F
100
AcDbEntity
  8
0
100
AcDbLine
 10
329.0195595826519
 20
672.4884977633469
 30
0.0
 11
531.2244938236692
 21
672.488497763341
 31
0.0
  0
LINE
  5
5905
330
1F
100
AcDbEntity
  8
0
100
AcDbLine
 10
994.7455575868184
 20
251.2098606592792
 30
0.0
 11
959.9455575868228
 21
251.2098606592792
 31
0.0
  0
LINE
  5
5906
330
1F
100
AcDbEntity
  8
kijun
100
AcDbLine
 10
1067.045557586807
 20
223.5098606592822
 30
0.0
 11
1112.449671049489
 21
223.5098606592822
 31
0.0
  0
LINE
  5
5907
330
1F
100
AcDbEntity
  8
0
100
AcDbLine
 10
1072.745557586819
 20
760.2123797339174
 30
0.0
 11
1072.745557586811
 21
730.2123797339175
 31
0.0
  0
LINE
  5
5908
330
1F
100
AcDbEntity
  8
0
100
AcDbLine
 10
1072.745557586811
 20
730.2123797339234
 30
0.0
 11
1072.745557586811
 21
772.7123797339234
 31
0.0
  0
LINE
  5
5909
330
1F
100
AcDbEntity
  8
saisen
100
AcDbLine
 10
990.345557586817
 20
414.3986130412163
 30
0.0
 11
990.345557586817
 21
252.0098606592821
 31
0.0
  0
LINE
  5
590A
330
1F
100
AcDbEntity
  8
saisen
100
AcDbLine
 10
990.345557586817
 20
672.6123797339173
 30
0.0
 11
990.345557586817
 21
436.179638357122
 31
0.0
  0
LINE
  5
590B
330
1F
100
AcDbEntity
  8
0
100
AcDbLine
 10
994.3455575868169
 20
414.3986130412163
 30
0.0
 11
994.3455575868169
 21
252.0098606592821
 31
0.0
  0
LINE
  5
590C
330
1F
100
AcDbEntity
  8
0
100
AcDbLine
 10
994.3455575868169
 20
672.6123797339173
 30
0.0
 11
994.3455575868169
 21
436.179638357122
 31
0.0
  0
LINE
  5
590D
330
1F
100
AcDbEntity
  8
0
100
AcDbLine
 10
994.7455575868184
 20
673.4123797339232
 30
0.0
 11
994.7455575868184
 21
436.179638357122
 31
0.0
  0
LINE
  5
590E
330
1F
100
AcDbEntity
  8
0
100
AcDbLine
 10
961.1455575868198
 20
436.179638357122
 30
0.0
 11
961.1455575868198
 21
672.6123797339173
 31
0.0
  0
LINE
  5
590F
330
1F
100
AcDbEntity
  8
saisen
100
AcDbLine
 10
965.1455575868199
 20
436.179638357122
 30
0.0
 11
965.1455575868199
 21
672.6123797339173
 31
0.0
  0
LINE
  5
5910
330
1F
100
AcDbEntity
  8
0
100
AcDbLine
 10
960.7455575868184
 20
436.179638357122
 30
0.0
 11
960.7455575868184
 21
672.6123797339173
 31
0.0
  0
LINE
  5
5911
330
1F
100
AcDbEntity
  8
0
100
AcDbLine
 10
1018.14555758682
 20
690.2123797339231
 30
0.0
 11
1018.14555758682
 21
245.2098606592865
 31
0.0
  0
LINE
  5
5912
330
1F
100
AcDbEntity
  8
0
100
AcDbLine
 10
1023.64555758682
 20
690.2123797339231
 30
0.0
 11
1023.64555758682
 21
245.2098606592865
 31
0.0
  0
LINE
  5
5913
330
1F
100
AcDbEntity
  8
0
100
AcDbLine
 10
959.9455575868228
 20
665.4123797339232
 30
0.0
 11
959.9455575868228
 21
673.4123797339232
 31
0.0
  0
LINE
  5
5914
330
1F
100
AcDbEntity
  8
0
100
AcDbLine
 10
960.7455575868184
 20
665.4123797339232
 30
0.0
 11
959.9455575868228
 21
665.4123797339232
 31
0.0
  0
LINE
  5
5915
330
1F
100
AcDbEntity
  8
0
100
AcDbLine
 10
960.7455575868184
 20
672.6123797339173
 30
0.0
 11
994.7455575868184
 21
672.6123797339173
 31
0.0
  0
LINE
  5
5916
330
1F
100
AcDbEntity
  8
0
100
AcDbLine
 10
959.2455575868184
 20
673.4123797339232
 30
0.0
 11
959.2455575868184
 21
675.7123797339231
 31
0.0
  0
LINE
  5
5917
330
1F
100
AcDbEntity
  8
0
100
AcDbLine
 10
959.2455575868184
 20
675.7123797339231
 30
0.0
 11
996.2455575868185
 21
675.7123797339231
 31
0.0
  0
LINE
  5
5918
330
1F
100
AcDbEntity
  8
0
100
AcDbLine
 10
996.2455575868185
 20
675.7123797339231
 30
0.0
 11
996.2455575868185
 21
673.4123797339232
 31
0.0
  0
LINE
  5
5919
330
1F
100
AcDbEntity
  8
0
100
AcDbLine
 10
996.2455575868185
 20
673.4123797339232
 30
0.0
 11
959.2455575868184
 21
673.4123797339232
 31
0.0
  0
LINE
  5
591A
330
1F
100
AcDbEntity
  8
saisen
100
AcDbLine
 10
990.345557586817
 20
672.6123797339173
 30
0.0
 11
965.1455575868199
 21
642.6123797339173
 31
0.0
  0
LINE
  5
591B
330
1F
100
AcDbEntity
  8
saisen
100
AcDbLine
 10
965.1455575868199
 20
642.6123797339173
 30
0.0
 11
990.345557586817
 21
642.6123797339173
 31
0.0
  0
LINE
  5
591C
330
1F
100
AcDbEntity
  8
0
100
AcDbLine
 10
960.7455575868184
 20
252.0098606592821
 30
0.0
 11
960.7455575868184
 21
414.3986130412163
 31
0.0
  0
LINE
  5
591D
330
1F
100
AcDbEntity
  8
0
100
AcDbLine
 10
994.7455575868184
 20
414.3986130412163
 30
0.0
 11
994.7455575868184
 21
251.2098606592792
 31
0.0
  0
LINE
  5
591E
330
1F
100
AcDbEntity
  8
0
100
AcDbLine
 10
961.1455575868198
 20
252.0098606592821
 30
0.0
 11
961.1455575868198
 21
414.3986130412163
 31
0.0
  0
LINE
  5
591F
330
1F
100
AcDbEntity
  8
saisen
100
AcDbLine
 10
965.1455575868199
 20
252.0098606592821
 30
0.0
 11
965.1455575868199
 21
414.3986130412163
 31
0.0
  0
LINE
  5
5920
330
1F
100
AcDbEntity
  8
0
100
AcDbLine
 10
994.7455575868184
 20
252.0098606592821
 30
0.0
 11
960.7455575868184
 21
252.0098606592821
 31
0.0
  0
LINE
  5
5921
330
1F
100
AcDbEntity
  8
0
100
AcDbLine
 10
959.9455575868228
 20
251.2098606592792
 30
0.0
 11
959.9455575868228
 21
259.2098606592792
 31
0.0
  0
LINE
  5
5922
330
1F
100
AcDbEntity
  8
0
100
AcDbLine
 10
959.9455575868228
 20
259.2098606592792
 30
0.0
 11
960.7455575868184
 21
259.2098606592792
 31
0.0
  0
LINE
  5
5923
330
1F
100
AcDbEntity
  8
saisen
100
AcDbLine
 10
965.1455575868199
 20
282.0098606592821
 30
0.0
 11
990.345557586817
 21
282.0098606592821
 31
0.0
  0
LINE
  5
5924
330
1F
100
AcDbEntity
  8
saisen
100
AcDbLine
 10
990.345557586817
 20
282.0098606592821
 30
0.0
 11
965.1455575868199
 21
252.0098606592821
 31
0.0
  0
LINE
  5
5925
330
1F
100
AcDbEntity
  8
0
100
AcDbLine
 10
652.1695595826534
 20
614.5871843677755
 30
0.0
 11
674.1695595826533
 21
614.5871843677755
 31
0.0
  0
LINE
  5
5926
330
1F
100
AcDbEntity
  8
0
  6
Continuous
 62
     2
100
AcDbLine
 10
674.1695595826533
 20
614.5871843677755
 30
0.0
 11
674.1695595826533
 21
615.0871843677755
 31
0.0
  0
LINE
  5
5927
330
1F
100
AcDbEntity
  8
0
100
AcDbLine
 10
614.1695595826607
 20
614.5871843677755
 30
0.0
 11
614.1695595826607
 21
615.0871843677755
 31
0.0
  0
LINE
  5
5928
330
1F
100
AcDbEntity
  8
0
100
AcDbLine
 10
636.1695595826606
 20
614.5871843677755
 30
0.0
 11
614.1695595826607
 21
614.5871843677755
 31
0.0
  0
LINE
  5
5929
330
1F
100
AcDbEntity
  8
hasen
100
AcDbLine
 10
633.1695595826606
 20
623.0871843677755
 30
0.0
 11
617.1695595826606
 21
623.0871843677755
 31
0.0
  0
LINE
  5
592A
330
1F
100
AcDbEntity
  8
hasen
100
AcDbLine
 10
633.1695595826606
 20
614.5871843677755
 30
0.0
 11
633.1695595826606
 21
623.0871843677755
 31
0.0
  0
LINE
  5
592B
330
1F
100
AcDbEntity
  8
hasen
100
AcDbLine
 10
617.1695595826606
 20
614.5871843677755
 30
0.0
 11
617.1695595826606
 21
623.0871843677755
 31
0.0
  0
LINE
  5
592C
330
1F
100
AcDbEntity
  8
hasen
100
AcDbLine
 10
671.1695595826533
 20
614.5871843677755
 30
0.0
 11
671.1695595826533
 21
623.0871843677755
 31
0.0
  0
LINE
  5
592D
330
1F
100
AcDbEntity
  8
hasen
100
AcDbLine
 10
655.1695595826534
 20
614.5871843677755
 30
0.0
 11
655.1695595826534
 21
623.0871843677755
 31
0.0
  0
LINE
  5
592E
330
1F
100
AcDbEntity
  8
hasen
100
AcDbLine
 10
655.1695595826534
 20
623.0871843677755
 30
0.0
 11
671.1695595826533
 21
623.0871843677755
 31
0.0
  0
LINE
  5
592F
330
1F
100
AcDbEntity
  8
0
100
AcDbLine
 10
454.1695595826533
 20
614.2871843677697
 30
0.0
 11
454.1695595826533
 21
649.0871843677669
 31
0.0
  0
LINE
  5
5930
330
1F
100
AcDbEntity
  8
saisen
100
AcDbLine
 10
644.9695595826563
 20
619.4871843677697
 30
0.0
 11
694.1695595826534
 21
619.4871843677697
 31
0.0
  0
LINE
  5
5931
330
1F
100
AcDbEntity
  8
saisen
100
AcDbLine
 10
694.1695595826534
 20
644.6871843677727
 30
0.0
 11
644.9695595826563
 21
644.6871843677727
 31
0.0
  0
LINE
  5
5932
330
1F
100
AcDbEntity
  8
saisen
100
AcDbLine
 10
674.9695595826563
 20
644.6871843677727
 30
0.0
 11
644.9695595826563
 21
619.4871843677697
 31
0.0
  0
LINE
  5
5933
330
1F
100
AcDbEntity
  8
saisen
100
AcDbLine
 10
674.9695595826563
 20
619.4871843677697
 30
0.0
 11
674.9695595826563
 21
644.6871843677727
 31
0.0
  0
LINE
  5
5934
330
1F
100
AcDbEntity
  8
0
100
AcDbLine
 10
694.1695595826534
 20
648.6871843677727
 30
0.0
 11
644.9695595826563
 21
648.6871843677727
 31
0.0
  0
LINE
  5
5935
330
1F
100
AcDbEntity
  8
saisen
100
AcDbLine
 10
613.3695595826577
 20
619.4871843677697
 30
0.0
 11
613.3695595826577
 21
644.6871843677727
 31
0.0
  0
LINE
  5
5936
330
1F
100
AcDbEntity
  8
saisen
100
AcDbLine
 10
613.3695595826577
 20
644.6871843677727
 30
0.0
 11
643.3695595826577
 21
619.4871843677697
 31
0.0
  0
LINE
  5
5937
330
1F
100
AcDbEntity
  8
saisen
100
AcDbLine
 10
551.2244938236619
 20
644.6871843677727
 30
0.0
 11
643.3695595826577
 21
644.6871843677727
 31
0.0
  0
LINE
  5
5938
330
1F
100
AcDbEntity
  8
saisen
100
AcDbLine
 10
454.9695595826563
 20
644.6871843677727
 30
0.0
 11
531.2244938236692
 21
644.6871843677727
 31
0.0
  0
LINE
  5
5939
330
1F
100
AcDbEntity
  8
0
100
AcDbLine
 10
551.2244938236619
 20
648.6871843677727
 30
0.0
 11
643.3695595826577
 21
648.6871843677727
 31
0.0
  0
LINE
  5
593A
330
1F
100
AcDbEntity
  8
0
100
AcDbLine
 10
454.9695595826563
 20
648.6871843677727
 30
0.0
 11
531.2244938236692
 21
648.6871843677727
 31
0.0
  0
LINE
  5
593B
330
1F
100
AcDbEntity
  8
0
100
AcDbLine
 10
531.2244938236692
 20
615.4871843677697
 30
0.0
 11
454.9695595826563
 21
615.4871843677697
 31
0.0
  0
LINE
  5
593C
330
1F
100
AcDbEntity
  8
0
100
AcDbLine
 10
551.2244938236619
 20
649.0871843677669
 30
0.0
 11
644.1695595826534
 21
649.0871843677669
 31
0.0
  0
LINE
  5
593D
330
1F
100
AcDbEntity
  8
saisen
100
AcDbLine
 10
531.2244938236692
 20
619.4871843677697
 30
0.0
 11
454.9695595826563
 21
619.4871843677697
 31
0.0
  0
LINE
  5
593E
330
1F
100
AcDbEntity
  8
0
100
AcDbLine
 10
531.2244938236692
 20
615.0871843677755
 30
0.0
 11
454.9695595826563
 21
615.0871843677755
 31
0.0
  0
LINE
  5
593F
330
1F
100
AcDbEntity
  8
0
100
AcDbLine
 10
694.1695595826534
 20
649.0871843677669
 30
0.0
 11
644.1695595826534
 21
649.0871843677669
 31
0.0
  0
LINE
  5
5940
330
1F
100
AcDbEntity
  8
0
100
AcDbLine
 10
644.9695595826563
 20
615.4871843677697
 30
0.0
 11
694.1695595826534
 21
615.4871843677697
 31
0.0
  0
LINE
  5
5941
330
1F
100
AcDbEntity
  8
0
100
AcDbLine
 10
644.9695595826563
 20
615.0871843677755
 30
0.0
 11
694.1695595826534
 21
615.0871843677669
 31
0.0
  0
LINE
  5
5942
330
1F
100
AcDbEntity
  8
0
100
AcDbLine
 10
644.1695595826534
 20
614.2871843677697
 30
0.0
 11
644.1695595826534
 21
649.0871843677669
 31
0.0
  0
LINE
  5
5943
330
1F
100
AcDbEntity
  8
0
100
AcDbLine
 10
644.1695595826534
 20
614.2871843677697
 30
0.0
 11
636.1695595826533
 21
614.2871843677697
 31
0.0
  0
LINE
  5
5944
330
1F
100
AcDbEntity
  8
0
  6
Continuous
 62
     2
100
AcDbLine
 10
636.1695595826533
 20
614.2871843677697
 30
0.0
 11
636.1695595826533
 21
615.0871843677755
 31
0.0
  0
LINE
  5
5945
330
1F
100
AcDbEntity
  8
0
100
AcDbLine
 10
643.3695595826577
 20
649.0871843677669
 30
0.0
 11
643.3695595826577
 21
615.0871843677755
 31
0.0
  0
LINE
  5
5946
330
1F
100
AcDbEntity
  8
0
100
AcDbLine
 10
644.9695595826563
 20
649.0871843677669
 30
0.0
 11
644.9695595826563
 21
615.0871843677755
 31
0.0
  0
LINE
  5
5947
330
1F
100
AcDbEntity
  8
0
100
AcDbLine
 10
644.1695595826534
 20
614.2871843677697
 30
0.0
 11
652.1695595826534
 21
614.2871843677697
 31
0.0
  0
LINE
  5
5948
330
1F
100
AcDbEntity
  8
0
100
AcDbLine
 10
652.1695595826534
 20
614.2871843677697
 30
0.0
 11
652.1695595826534
 21
615.0871843677755
 31
0.0
  0
LINE
  5
5949
330
1F
100
AcDbEntity
  8
0
100
AcDbLine
 10
454.1695595826533
 20
649.0871843677669
 30
0.0
 11
531.2244938236692
 21
649.0871843677669
 31
0.0
  0
LINE
  5
594A
330
1F
100
AcDbEntity
  8
0
100
AcDbLine
 10
643.3695595826577
 20
615.0871843677755
 30
0.0
 11
551.2244938236619
 21
615.0871843677755
 31
0.0
  0
LINE
  5
594B
330
1F
100
AcDbEntity
  8
0
100
AcDbLine
 10
643.3695595826577
 20
615.4871843677697
 30
0.0
 11
551.2244938236619
 21
615.4871843677697
 31
0.0
  0
LINE
  5
594C
330
1F
100
AcDbEntity
  8
saisen
100
AcDbLine
 10
643.3695595826577
 20
619.4871843677697
 30
0.0
 11
551.2244938236619
 21
619.4871843677697
 31
0.0
  0
LINE
  5
594D
330
1F
100
AcDbEntity
  8
0
100
AcDbLine
 10
454.9695595826563
 20
615.0871843677755
 30
0.0
 11
454.9695595826563
 21
649.0871843677669
 31
0.0
  0
LINE
  5
594E
330
1F
100
AcDbEntity
  8
0
100
AcDbLine
 10
454.1695595826533
 20
614.2871843677697
 30
0.0
 11
462.1695595826606
 21
614.2871843677697
 31
0.0
  0
LINE
  5
594F
330
1F
100
AcDbEntity
  8
0
100
AcDbLine
 10
462.1695595826606
 20
614.2871843677697
 30
0.0
 11
462.1695595826606
 21
615.0871843677755
 31
0.0
  0
LINE
  5
5950
330
1F
100
AcDbEntity
  8
saisen
100
AcDbLine
 10
454.9695595826563
 20
644.6871843677727
 30
0.0
 11
484.9695595826562
 21
619.4871843677697
 31
0.0
  0
LINE
  5
5951
330
1F
100
AcDbEntity
  8
saisen
100
AcDbLine
 10
484.9695595826562
 20
619.4871843677697
 30
0.0
 11
484.9695595826562
 21
644.6871843677727
 31
0.0
  0
LWPOLYLINE
  5
5952
330
1F
100
AcDbEntity
  8
saisen
100
AcDbPolyline
 90
        4
 70
     1
 43
0.0
 10
809.9883409514751
 20
554.0960090455198
 10
838.9751181697084
 20
554.0960090455198
 10
838.9751181697084
 20
547.0960090455198
 10
809.9883409514751
 20
547.0960090455198
  0
LWPOLYLINE
  5
5953
330
1F
100
AcDbEntity
  8
hasen
100
AcDbPolyline
 90
        6
 70
     1
 43
0.0
 10
1072.74555758682
 20
703.7123797339233
 10
1068.24555758682
 20
703.7123797339233
 10
1068.24555758682
 20
730.2123797339234
 10
978.7455575868202
 20
730.2123797339234
 10
978.7455575868202
 20
734.7123797339234
 10
1072.74555758682
 20
734.7123797339234
  0
LWPOLYLINE
  5
5954
330
1F
100
AcDbEntity
  8
hasen
100
AcDbPolyline
 90
        6
 70
     1
 43
0.0
 10
978.7455575868202
 20
205.7098606592822
 10
978.7455575868202
 20
210.2098606592822
 10
1068.24555758682
 20
210.2098606592822
 10
1068.24555758682
 20
236.7098606592822
 10
1072.74555758682
 20
236.7098606592822
 10
1072.74555758682
 20
205.7098606592822
  0
HATCH
  5
5956
330
1F
100
AcDbEntity
  8
hatch
100
AcDbHatch
 10
0.0
 20
0.0
 30
0.0
210
0.0
220
0.0
230
1.0
  2
ANSI37
 70
     0
 71
     0
 91
        1
 92
        7
 72
     1
 73
     1
 93
        6
 10
439.169559582652
 20
622.8092569834073
 42
0.322822806055214
 10
439.8533318166417
 20
621.8605736853541
 42
0.0
 10
454.169559582652
 20
617.0884977633586
 42
0.0
 10
454.169559582652
 20
647.0884977633586
 42
0.0
 10
439.8533318166417
 20
642.3164218413396
 42
0.3228228060550033
 10
439.169559582652
 20
641.3677385432979
 42
0.0
 97
        0
 75
     0
 76
     1
 52
0.0
 41
1.0
 77
     0
 78
     2
 53
45.0
 43
-188.0586981750878
 44
-598.7448355699788
 45
-2.245064030267287
 46
2.245064030267288
 79
     0
 53
135.0
 43
-188.0586981750878
 44
-598.7448355699788
 45
-2.245064030267288
 46
-2.245064030267287
 79
     0
 47
0.1197973506229596
 98
        1
 10
445.7456007105795
 20
635.2920057527939
  0
TEXT
  5
5957
330
1F
100
AcDbEntity
  8
ADD_LINE
 62
     2
100
AcDbText
 10
755.406043967177
 20
132.7210041702346
 30
0.0
 40
9.0
  1
FLﾏﾃﾞ
 50
90.0
 41
0.8
  7
Std
100
AcDbText
  0
LWPOLYLINE
  5
5958
330
1F
100
AcDbEntity
  8
ADD_LINE
 62
     3
370
     9
100
AcDbPolyline
 90
        4
 70
     0
 43
0.0
 10
757.2060439671859
 20
210.2098606592822
 10
757.2060439671859
 20
113.8277649205877
 10
754.2060439671859
 20
125.8277649205877
 10
758.7060439671859
 20
127.3277649205877
  0
LEADER
  5
5959
330
1F
100
AcDbEntity
  8
sunpo
100
AcDbLeader
  3
dim2
 76
     3
 10
960.7455575868202
 20
544.3960090455198
 30
0.0
 10
932.9780055537648
 20
544.3960090455198
 30
0.0
 10
809.9883409514751
 20
544.3960090455198
 30
0.0
  0
MTEXT
  5
595A
330
1F
100
AcDbEntity
  8
moji
100
AcDbMText
 10
365.8319113817038
 20
268.74074858825
 30
0.0
 40
6.0
 41
0.0
 71
     5
 72
     1
  1
引分式白板\P（内部白板）
  7
Std
 73
     1
 44
0.8
  0
MTEXT
  5
595B
330
1F
100
AcDbEntity
  8
moji
100
AcDbMText
 10
231.4619271081724
 20
268.74074858825
 30
0.0
 40
6.0
 41
0.0
 71
     5
 72
     1
  1
白板\P（固定）
  7
Std
 73
     1
 44
0.8
  0
MTEXT
  5
595C
330
1F
100
AcDbEntity
  8
moji
100
AcDbMText
 10
494.201895655246
 20
268.74074858825
 30
0.0
 40
6.0
 41
0.0
 71
     5
 72
     1
  1
白板\P（固定）
  7
Std
 73
     1
 44
0.8
  0
TEXT
  5
6647
330
1F
100
AcDbEntity
  8
moji
100
AcDbText
 10
56.74181693501054
 20
710.8884977633445
 30
0.0
 40
6.000000000000001
  1
壁 仕上面
  7
Std
100
AcDbText
  0
LWPOLYLINE
  5
6648
330
1F
100
AcDbEntity
  8
moji
100
AcDbPolyline
 90
        3
 70
     1
 43
0.0
 10
69.59085537770988
 20
719.8884977633468
 10
77.90469925404727
 20
719.8884977633468
 10
73.74777731587869
 20
727.0884977633468
  0
LEADER
  5
6649
330
1F
100
AcDbEntity
  8
sunpo
100
AcDbLeader
  3
dim2
 73
     0
 74
     0
 75
     1
 40
6.0
 41
22.12571428571429
 76
     3
 10
459.2828082367112
 20
614.2871843677697
 30
0.0
 10
473.1660310824807
 20
574.1616581557334
 30
0.0
 10
480.1660310824807
 20
574.1616581557334
 30
0.0
340
664A
213
0.0
223
-3.0
233
0.0
1001
ACAD
1000
DSTYLE
1002
{
1070
   147
1040
0.6
1070
    77
1070
     0
1002
}
  0
MTEXT
  5
664A
102
{ACAD_REACTORS
330
6649
102
}
330
1F
100
AcDbEntity
  8
sunpo
 62
     2
100
AcDbMText
 10
481.3660310824807
 20
577.1616581557334
 30
0.0
 40
6.0
 41
0.0
 71
     1
 72
     1
  1
アルミ枠
  7
Std
 73
     1
 44
1.0
  0
LEADER
  5
664B
330
1F
100
AcDbEntity
  8
sunpo
100
AcDbLeader
  3
dim2
 73
     0
 75
     1
 40
6.0
 41
39.68000000000002
 76
     3
 10
446.5858803622261
 20
619.6163908368298
 30
0.0
 10
429.5185612151469
 20
566.6030766527381
 30
0.0
 10
422.5185612151468
 20
566.6030766527381
 30
0.0
340
664C
213
0.0
223
3.0
233
0.0
1001
ACAD
1000
DSTYLE
1002
{
1070
   147
1040
0.6
1070
    77
1070
     0
1002
}
  0
MTEXT
  5
664C
102
{ACAD_REACTORS
330
664B
102
}
330
1F
100
AcDbEntity
  8
sunpo
 62
     2
100
AcDbMText
 10
421.3185612151469
 20
563.603076652738
 30
0.0
 40
6.0
 41
0.0
 71
     9
 72
     1
  1
ゴムクッション
  7
Std
 73
     1
 44
1.0
  0
LEADER
  5
664D
330
1F
100
AcDbEntity
  8
sunpo
100
AcDbLeader
  3
dim2
 73
     0
 74
     0
 75
     1
 40
6.000000000000002
 41
44.47999999999999
 76
     3
 10
213.8936527185113
 20
672.0884977633527
 30
0.0
 10
218.1652947626533
 20
647.944596482959
 30
0.0
 10
225.1652947626533
 20
647.944596482959
 30
0.0
340
664E
213
0.0
223
-3.0
233
0.0
1001
ACAD
1000
DSTYLE
1002
{
1070
   147
1040
0.6
1070
    77
1070
     0
1002
}
  0
MTEXT
  5
664E
102
{ACAD_REACTORS
330
664D
102
}
330
1F
100
AcDbEntity
  8
sunpo
 62
     2
100
AcDbMText
 10
226.3652947626533
 20
650.9445964829589
 30
0.0
 40
6.0
 41
0.0
 71
     1
 72
     1
  1
固定ホーロー白板
  7
Std
 73
     1
 44
1.0
  0
LEADER
  5
664F
330
1F
100
AcDbEntity
  8
sunpo
100
AcDbLeader
  3
dim2
 73
     0
 75
     1
 40
6.0
 41
16.31999999999999
 76
     3
 10
292.6509515114499
 20
628.0884977633525
 30
0.0
 10
288.7268624823516
 20
610.2200971550862
 30
0.0
 10
281.7268624823516
 20
610.2200971550862
 30
0.0
340
6650
213
0.0
223
3.0
233
0.0
1001
ACAD
1000
DSTYLE
1002
{
1070
   147
1040
0.6
1070
    77
1070
     0
1002
}
  0
MTEXT
  5
6650
102
{ACAD_REACTORS
330
664F
102
}
330
1F
100
AcDbEntity
  8
sunpo
 62
     2
100
AcDbMText
 10
280.5268624823516
 20
607.2200971550862
 30
0.0
 40
6.0
 41
0.0
 71
     9
 72
     1
  1
レール
  7
Std
 73
     1
 44
1.0
  0
LEADER
  5
6651
330
1F
100
AcDbEntity
  8
sunpo
100
AcDbLeader
  3
dim2
 73
     0
 74
     0
 75
     1
 40
6.0
 41
53.16571428571428
 76
     3
 10
164.9695595826563
 20
663.4455495173037
 30
0.0
 10
188.9520652651588
 20
572.5469817362479
 30
0.0
 10
195.9520652651588
 20
572.5469817362479
 30
0.0
340
6652
213
0.0
223
-3.0
233
0.0
1001
ACAD
1000
DSTYLE
1002
{
1070
   147
1040
0.6
1070
    77
1070
     0
1002
}
  0
MTEXT
  5
6652
102
{ACAD_REACTORS
330
6651
102
}
330
1F
100
AcDbEntity
  8
sunpo
 62
     2
100
AcDbMText
 10
197.1520652651588
 20
575.5469817362479
 30
0.0
 40
6.0
 41
0.0
 71
     1
 72
     1
  1
アルミ押縁 15x15
  7
Std
 73
     1
 44
1.0
  0
LEADER
  5
6653
330
1F
100
AcDbEntity
  8
sunpo
100
AcDbLeader
  3
dim2
 73
     0
 75
     1
 40
6.0
 41
39.54285714285715
 76
     3
 10
150.041275728199
 20
555.7997016864844
 30
0.0
 10
129.3048142841286
 20
523.1749351423839
 30
0.0
 10
122.3048142841287
 20
523.1749351423839
 30
0.0
340
6654
213
0.0
223
3.0
233
0.0
1001
ACAD
1000
DSTYLE
1002
{
1070
   147
1040
0.6
1070
    77
1070
     0
1002
}
  0
MTEXT
  5
6654
102
{ACAD_REACTORS
330
6653
102
}
330
1F
100
AcDbEntity
  8
sunpo
 62
     2
100
AcDbMText
 10
121.1048142841287
 20
520.1749351423838
 30
0.0
 40
6.0
 41
0.0
 71
     9
 72
     1
  1
サイドキャップ
  7
Std
 73
     1
 44
1.0
  0
LWPOLYLINE
  5
6655
330
1F
100
AcDbEntity
  8
saisen
370
    15
100
AcDbPolyline
 90
        4
 70
     1
 43
0.0
 10
424.8360397448709
 20
429.5439792364393
 10
481.6333225711775
 20
429.5439792364393
 10
481.6333225711775
 20
415.8971214580954
 10
424.8360397448709
 20
415.8971214580954
  0
LWPOLYLINE
  5
6656
330
1F
100
AcDbEntity
  8
saisen
370
    15
100
AcDbPolyline
 90
        4
 70
     1
 43
0.0
 10
425.3360397448707
 20
416.3971214580969
 10
425.3360397448707
 20
429.0439792364399
 10
481.133322571178
 20
429.0439792364399
 10
481.133322571178
 20
416.3971214580969
  0
TEXT
  5
6657
330
1F
100
AcDbEntity
  8
moji
100
AcDbText
 10
433.4224148457482
 20
419.4676114671207
 30
0.0
 40
6.0
  1
横 断 面 図
  7
kanji
 72
     4
 11
452.2224148457483
 21
422.4676114671207
 31
0.0
100
AcDbText
  0
LWPOLYLINE
  5
6658
330
1F
100
AcDbEntity
  8
saisen
100
AcDbPolyline
 90
        4
 70
     1
 43
0.0
 10
897.1201341738632
 20
147.3086585968006
 10
897.1201341738632
 20
160.9555163751431
 10
953.9174170001714
 20
160.9555163751431
 10
953.9174170001714
 20
147.3086585968006
  0
LWPOLYLINE
  5
6659
330
1F
100
AcDbEntity
  8
saisen
100
AcDbPolyline
 90
        4
 70
     1
 43
0.0
 10
897.6201341738633
 20
147.8086585968005
 10
897.6201341738633
 20
160.4555163751431
 10
953.4174170001715
 20
160.4555163751431
 10
953.4174170001715
 20
147.8086585968005
  0
TEXT
  5
665A
330
1F
100
AcDbEntity
  8
moji
100
AcDbText
 10
905.7065092747464
 20
150.8791486058219
 30
0.0
 40
6.0
  1
縦 断 面 図
  7
Std
 72
     4
 11
924.5065092747463
 21
153.8791486058219
 31
0.0
100
AcDbText
  0
TEXT
  5
665B
330
1F
100
AcDbEntity
  8
moji
100
AcDbText
 10
351.4196450697415
 20
147.3703195343005
 30
0.0
 40
6.0
  1
正 面 図
  7
kanji
 72
     4
 11
364.8196450697414
 21
150.1703195343005
 31
0.0
100
AcDbText
  0
LWPOLYLINE
  5
665C
330
1F
100
AcDbEntity
  8
saisen
370
    15
100
AcDbPolyline
 90
        4
 70
     1
 43
0.0
 10
393.7305527951726
 20
156.7466873036232
 10
393.7305527951726
 20
144.0998295252801
 10
337.9332699688598
 20
144.0998295252801
 10
337.9332699688598
 20
156.7466873036232
  0
LWPOLYLINE
  5
665D
330
1F
100
AcDbEntity
  8
saisen
370
    15
100
AcDbPolyline
 90
        4
 70
     1
 43
0.0
 10
337.4332699688602
 20
157.2466873036246
 10
394.2305527951721
 20
157.2466873036246
 10
394.2305527951721
 20
143.5998295252808
 10
337.4332699688602
 20
143.5998295252808
  0
MTEXT
  5
6663
102
{ACAD_REACTORS
330
6664
102
}
330
1F
100
AcDbEntity
  8
sunpo
 62
     2
100
AcDbMText
 10
250.7096753057115
 20
339.3451196324918
 30
0.0
 40
6.0
 41
0.0
 71
     9
 72
     1
  1
ゴムクッション
  7
Std
 73
     1
 44
1.0
  0
LEADER
  5
6664
330
1F
100
AcDbEntity
  8
sunpo
100
AcDbLeader
  3
dim2
 73
     0
 75
     1
 40
6.0
 41
39.68000000000002
 76
     3
 10
274.4124939613284
 20
321.0649651042057
 30
0.0
 10
258.9096753057114
 20
342.3451196324919
 30
0.0
 10
251.9096753057115
 20
342.3451196324919
 30
0.0
340
6663
213
0.0
223
3.0
233
0.0
1001
ACAD
1000
DSTYLE
1002
{
1070
   147
1040
0.6
1070
    77
1070
     0
1002
}
  0
MTEXT
  5
6665
102
{ACAD_REACTORS
330
6666
102
}
330
1F
100
AcDbEntity
  8
sunpo
 62
     2
100
AcDbMText
 10
256.2235655794014
 20
251.1847042550601
 30
0.0
 40
6.0
 41
0.0
 71
     3
 72
     1
  1
アルミ枠
  7
Std
 73
     1
 44
1.0
  0
LEADER
  5
6666
330
1F
100
AcDbEntity
  8
sunpo
100
AcDbLeader
  3
dim2
 73
     0
 75
     1
 40
6.0
 41
22.12571428571429
 76
     3
 10
275.7919113815933
 20
269.8007962402178
 30
0.0
 10
264.4235655794013
 20
248.1847042550601
 30
0.0
 10
257.4235655794013
 20
248.1847042550601
 30
0.0
340
6665
213
0.0
223
-3.0
233
0.0
1001
ACAD
1000
DSTYLE
1002
{
1070
   147
1040
0.6
1070
    77
1070
     0
1002
}
  0
TEXT
  5
6676
330
1F
100
AcDbEntity
  8
sunpo
 62
     2
100
AcDbText
 10
812.4883409514749
 20
536.8960090455198
 30
0.0
 40
5.000000000000001
  1
耐水ラワン合板 ァ4mm(裏 ァ4mm)
  7
Std
100
AcDbText
  0
LINE
  5
6677
330
1F
100
AcDbEntity
  8
sunpo
 62
     3
370
     9
100
AcDbLine
 10
922.3119154418345
 20
535.3960090455197
 30
0.0
 11
809.9883409514751
 21
535.3960090455197
 31
0.0
  0
LINE
  5
6678
330
1F
100
AcDbEntity
  8
sunpo
 62
     3
370
     9
100
AcDbLine
 10
922.3119154418345
 20
526.3960090455197
 30
0.0
 11
809.9883409514751
 21
526.3960090455197
 31
0.0
  0
TEXT
  5
6679
330
1F
100
AcDbEntity
  8
sunpo
 62
     2
100
AcDbText
 10
812.4883409514749
 20
527.8960090455198
 30
0.0
 40
5.000000000000001
  1
ハニカム芯材入 フラッシュ下地
  7
Std
100
AcDbText
  0
TEXT
  5
667A
330
1F
100
AcDbEntity
  8
sunpo
 62
     2
100
AcDbText
 10
812.4883409514749
 20
509.8960090455197
 30
0.0
 40
5.000000000000001
  1
規格塗板仕上
  7
Std
100
AcDbText
  0
LINE
  5
667B
330
1F
100
AcDbEntity
  8
sunpo
 62
     3
370
     9
100
AcDbLine
 10
922.3119154418345
 20
517.3960090455198
 30
0.0
 11
809.9883409514751
 21
517.3960090455198
 31
0.0
  0
LINE
  5
667C
330
1F
100
AcDbEntity
  8
sunpo
 62
     3
370
     9
100
AcDbLine
 10
922.3119154418345
 20
508.3960090455198
 30
0.0
 11
809.9883409514751
 21
508.3960090455198
 31
0.0
  0
TEXT
  5
667D
330
1F
100
AcDbEntity
  8
sunpo
 62
     2
100
AcDbText
 10
812.4883409514749
 20
518.8960090455197
 30
0.0
 40
5.000000000000001
  1
鉄板厚 t0.4鋼板　両面貼
  7
Std
100
AcDbText
  0
LINE
  5
66A3
330
1F
100
AcDbEntity
  8
sunpo
 62
     3
370
     9
100
AcDbLine
 10
1052.59256609191
 20
772.0776638363455
 30
0.0
 11
1123.851660864454
 21
772.0776638363455
 31
0.0
  0
LEADER
  5
66A4
330
1F
100
AcDbEntity
  8
sunpo
100
AcDbLeader
  3
Std2
 73
     0
 74
     0
 75
     1
 40
13.33333333333333
 41
69.18095238095237
 76
     3
 10
1025.625613342135
 20
734.9615621655388
 30
0.0
 10
1051.673406786561
 20
780.0776638363455
 30
0.0
 10
1056.273406786561
 20
780.0776638363455
 30
0.0
340
66A5
213
4.983536133055622
223
8.81845329122197
233
0.0
1001
ACAD
1000
DSTYLE
1002
{
1070
   147
1040
1.0
1070
    77
1070
     3
1002
}
  0
MTEXT
  5
66A5
102
{ACAD_REACTORS
330
66A4
102
}
330
1F
100
AcDbEntity
  8
sunpo
 62
     2
100
AcDbMText
 10
1053.289870653505
 20
786.5925438784569
 30
0.0
 40
5.0
 41
0.0
 71
     1
 72
     1
  1
ブラケット　@900以内\P FB-t4.5x100 L-31x94
  7
Std
 73
     1
 44
1.0
  0
LINE
  5
66A6
330
1F
100
AcDbEntity
  8
sunpo
 62
     3
370
     9
100
AcDbLine
 10
1077.184378448239
 20
651.8978293421168
 30
0.0
 11
1148.443473220783
 21
651.8978293421168
 31
0.0
  0
LEADER
  5
66A7
330
1F
100
AcDbEntity
  8
sunpo
100
AcDbLeader
  3
Std2
 73
     0
 74
     0
 75
     1
 40
13.33333333333333
 41
65.18095238095236
 76
     3
 10
1061.745557586819
 20
699.2123797339232
 30
0.0
 10
1076.265219142889
 20
659.8978293421168
 30
0.0
 10
1080.865219142889
 20
659.8978293421168
 30
0.0
340
66A8
213
4.983536133055622
223
8.81845329122197
233
0.0
1001
ACAD
1000
DSTYLE
1002
{
1070
   147
1040
1.0
1070
    77
1070
     3
1002
}
  0
MTEXT
  5
66A8
102
{ACAD_REACTORS
330
66A7
102
}
330
1F
100
AcDbEntity
  8
sunpo
 62
     2
100
AcDbMText
 10
1077.881683009834
 20
666.4127093842282
 30
0.0
 40
5.0
 41
0.0
 71
     1
 72
     1
  1
ブラケット　@900以内\P FB-t2.0x98 L-20x20
  7
Std
 73
     1
 44
1.0
  0
LEADER
  5
66A9
330
1F
100
AcDbEntity
  8
sunpo
100
AcDbLeader
  3
dim2
 73
     0
 75
     1
 40
6.0
 41
16.96
 76
     3
 10
171.6695595826534
 20
708.0884977633468
 30
0.0
 10
154.155704666751
 20
733.6443880562235
 30
0.0
 10
147.155704666751
 20
733.6443880562235
 30
0.0
340
66AA
213
0.0
223
3.0
233
0.0
1001
ACAD
1000
DSTYLE
1002
{
1070
   147
1040
0.6
1070
    77
1070
     0
1002
}
  0
MTEXT
  5
66AA
102
{ACAD_REACTORS
330
66A9
102
}
330
1F
100
AcDbEntity
  8
sunpo
 62
     2
100
AcDbMText
 10
145.955704666751
 20
730.6443880562235
 30
0.0
 40
6.0
 41
0.0
 71
     9
 72
     1
  1
当たり
  7
Std
 73
     1
 44
1.0
  0
MTEXT
  5
66AB
102
{ACAD_REACTORS
330
66AC
102
}
330
1F
100
AcDbEntity
  8
sunpo
 62
     2
100
AcDbMText
 10
1078.440259703078
 20
282.9460758389796
 30
0.0
 40
6.0
 41
0.0
 71
     7
 72
     1
  1
当たり
  7
Std
 73
     1
 44
1.0
  0
LEADER
  5
66AC
330
1F
100
AcDbEntity
  8
sunpo
100
AcDbLeader
  3
dim2
 73
     0
 74
     0
 75
     1
 40
6.0
 41
16.96
 76
     3
 10
1053.745557586819
 20
252.7098606592865
 30
0.0
 10
1070.240259703078
 20
285.9460758389796
 30
0.0
 10
1077.240259703078
 20
285.9460758389796
 30
0.0
340
66AB
213
0.0
223
3.0
233
0.0
1001
ACAD
1000
DSTYLE
1002
{
1070
   147
1040
0.6
1070
    77
1070
     0
1002
}
  0
MTEXT
  5
66AD
102
{ACAD_REACTORS
330
66AE
102
}
330
1F
100
AcDbEntity
  8
sunpo
 62
     2
100
AcDbMText
 10
988.1977275794042
 20
170.3555216410719
 30
0.0
 40
5.0
 41
0.0
 71
     1
 72
     1
  1
ブラケット　@900以内\P FB-t4.5x100 L-31x94
  7
Std
 73
     1
 44
1.0
  0
LEADER
  5
66AE
330
1F
100
AcDbEntity
  8
sunpo
100
AcDbLeader
  3
Std2
 73
     0
 74
     0
 75
     1
 40
13.33333333333333
 41
69.18095238095237
 76
     3
 10
995.7776141263931
 20
205.7098606592822
 30
0.0
 10
986.5812637124598
 20
163.8406415989606
 30
0.0
 10
991.1812637124599
 20
163.8406415989606
 30
0.0
340
66AD
213
4.983536133055622
223
8.81845329122197
233
0.0
1001
ACAD
1000
DSTYLE
1002
{
1070
   147
1040
1.0
1070
    77
1070
     3
1002
}
  0
LINE
  5
66AF
330
1F
100
AcDbEntity
  8
sunpo
 62
     3
370
     9
100
AcDbLine
 10
987.5004230178092
 20
155.8406415989606
 30
0.0
 11
1058.759517790353
 21
155.8406415989606
 31
0.0
  0
LEADER
  5
66B0
330
1F
100
AcDbEntity
  8
sunpo
100
AcDbLeader
  3
Std2
 76
     3
 10
1072.786080936232
 20
136.4147682592083
 30
0.0
 10
1052.440932219355
 20
136.4147682592083
 30
0.0
 10
1009.611360427197
 20
136.4147682592083
 30
0.0
1001
ACAD
1000
DSTYLE
1002
{
1070
   147
1040
1.0
1070
    77
1070
     0
1002
}
  0
TEXT
  5
66B1
330
1F
100
AcDbEntity
  8
sunpo
 62
     2
100
AcDbText
 10
1011.126292669418
 20
138.2536188428573
 30
0.0
 40
5.0
  1
壁仕上面
 41
0.9
  7
Std
100
AcDbText
  0
LEADER
  5
66B2
330
1F
100
AcDbEntity
  8
sunpo
100
AcDbLeader
  3
dim2
 73
     0
 74
     0
 75
     1
 40
6.0
 41
23.04
 76
     3
 10
663.1695595826534
 20
614.5871843677755
 30
0.0
 10
675.8535836253939
 20
562.8583576287034
 30
0.0
 10
682.8535836253938
 20
562.8583576287034
 30
0.0
340
66B3
213
0.0
223
-3.0
233
0.0
1001
ACAD
1000
DSTYLE
1002
{
1070
   147
1040
0.6
1070
    77
1070
     0
1002
}
  0
MTEXT
  5
66B3
102
{ACAD_REACTORS
330
66B2
102
}
330
1F
100
AcDbEntity
  8
sunpo
 62
     2
100
AcDbMText
 10
684.0535836253939
 20
565.8583576287035
 30
0.0
 40
6.0
 41
0.0
 71
     1
 72
     1
  1
舟底引手
  7
Std
 73
     1
 44
1.0
  0
MTEXT
  5
670E
102
{ACAD_REACTORS
330
670F
102
}
330
1F
100
AcDbEntity
  8
sunpo
 62
     2
100
AcDbMText
 10
880.8635560753792
 20
250.9294953112715
 30
0.0
 40
6.0
 41
0.0
 71
     9
 72
     1
  1
サイドキャップパーツ
  7
Std
 73
     1
 44
1.0
  0
LEADER
  5
670F
330
1F
100
AcDbEntity
  8
sunpo
100
AcDbLeader
  3
dim2
 73
     0
 75
     1
 40
6.0
 41
56.59428571428574
 76
     3
 10
901.7455575868257
 20
233.2038507468553
 30
0.0
 10
889.0635560753791
 20
253.9294953112715
 30
0.0
 10
882.0635560753792
 20
253.9294953112715
 30
0.0
340
670E
213
0.0
223
3.0
233
0.0
1001
ACAD
1000
DSTYLE
1002
{
1070
   147
1040
0.6
1070
    77
1070
     0
1002
}
  0
MTEXT
  5
687E
102
{ACAD_REACTORS
330
687F
102
}
330
1F
100
AcDbEntity
  8
sunpo
 62
     2
100
AcDbMText
 10
939.9096415613477
 20
302.9398997832059
 30
0.0
 40
6.0
 41
0.0
 71
     3
 72
     1
  1
戸車φ30
  7
Std
 73
     1
 44
1.0
  0
LEADER
  5
687F
330
1F
100
AcDbEntity
  8
sunpo
100
AcDbLeader
  3
dim2
 73
     0
 75
     1
 40
6.0
 41
25.73714285714285
 76
     3
 10
974.8316512343521
 20
274.3366028238233
 30
0.0
 10
948.1096415613478
 20
299.9398997832059
 30
0.0
 10
941.1096415613478
 20
299.9398997832059
 30
0.0
340
687E
213
0.0
223
-3.0
233
0.0
1001
ACAD
1000
DSTYLE
1002
{
1070
   147
1040
0.6
1070
    77
1070
     0
1002
}
  0
LEADER
  5
6880
330
1F
100
AcDbEntity
  8
sunpo
100
AcDbLeader
  3
dim2
 73
     0
 40
6.000000000000002
 41
44.47999999999999
 76
     2
 10
1017.745557586818
 20
467.7111201966011
 30
0.0
 10
936.1665607351184
 20
467.782310108665
 30
0.0
340
6881
213
0.0
223
3.0
233
0.0
1001
ACAD
1000
DSTYLE
1002
{
1070
   147
1040
0.6
1070
    77
1070
     0
1002
}
  0
MTEXT
  5
6881
102
{ACAD_REACTORS
330
6880
102
}
330
1F
100
AcDbEntity
  8
sunpo
 62
     2
100
AcDbMText
 10
934.9665607351184
 20
464.7823101086649
 30
0.0
 40
6.0
 41
0.0
 71
     9
 72
     1
  1
固定ホーロー白板
  7
Std
 73
     1
 44
1.0
  0
MTEXT
  5
688F
102
{ACAD_REACTORS
330
6890
102
}
330
1F
100
AcDbEntity
  8
sunpo
 62
     2
100
AcDbMText
 10
934.2493960805654
 20
638.1020771813386
 30
0.0
 40
6.0
 41
0.0
 71
     9
 72
     1
  1
ガイドローラー
  7
Std
 73
     1
 44
1.0
  0
LEADER
  5
6890
330
1F
100
AcDbEntity
  8
sunpo
100
AcDbLeader
  3
dim2
 73
     0
 75
     1
 40
6.000000000000001
 41
39.31428571428572
 76
     3
 10
961.8449353570433
 20
678.2089989595529
 30
0.0
 10
942.4493960805655
 20
641.1020771813386
 30
0.0
 10
935.4493960805655
 20
641.1020771813386
 30
0.0
340
688F
213
0.0
223
3.0
233
0.0
1001
ACAD
1000
DSTYLE
1002
{
1070
   147
1040
0.6
1070
    77
1070
     0
1002
}
  0
LINE
  5
68C2
330
1F
100
AcDbEntity
  8
sunpo
 62
     3
370
     9
100
AcDbLine
 10
1123.851660864454
 20
764.0776638363455
 30
0.0
 11
1052.59256609191
 21
764.0776638363455
 31
0.0
  0
TEXT
  5
68C3
330
1F
100
AcDbEntity
  8
sunpo
 62
     2
100
AcDbText
 10
1044.788547505336
 20
765.5776638363455
 30
0.0
 40
5.0
  1
　　　　　　ユニクロメッキ
  7
kanji
100
AcDbText
  0
TEXT
  5
68C4
330
1F
100
AcDbEntity
  8
sunpo
 62
     2
100
AcDbText
 10
1069.380359861665
 20
645.3978293421169
 30
0.0
 40
5.0
  1
　　　　　　ユニクロメッキ
  7
kanji
100
AcDbText
  0
LINE
  5
68C5
330
1F
100
AcDbEntity
  8
sunpo
 62
     3
370
     9
100
AcDbLine
 10
1148.443473220783
 20
643.8978293421168
 30
0.0
 11
1077.184378448239
 21
643.8978293421168
 31
0.0
  0
MTEXT
  5
68C6
330
1F
100
AcDbEntity
  8
wakumoji
100
AcDbMText
 10
509.7500000000004
 20
52.875
 30
0.0
 40
6.0
 41
0.0
 71
     5
 72
     5
  1
 年    月    日
  7
gothic
 73
     1
 44
1.0
  0
LINE
  5
68C7
330
1F
100
AcDbEntity
  8
sunpo
 62
     3
370
     9
100
AcDbLine
 10
1058.759517790353
 20
147.8406415989606
 30
0.0
 11
987.5004230178092
 21
147.8406415989606
 31
0.0
  0
TEXT
  5
68C8
330
1F
100
AcDbEntity
  8
sunpo
 62
     2
100
AcDbText
 10
979.6964044312353
 20
149.3406415989606
 30
0.0
 40
5.0
  1
　　　　　　ユニクロメッキ
  7
kanji
100
AcDbText
  0
VIEWPORT
  5
24C
330
1B
100
AcDbEntity
 67
     1
  8
0
100
AcDbViewport
 10
579.0621378589341
 20
383.550019396431
 30
0.0
 40
1411.597673073116
 41
880.2002074220428
 68
     1
 69
     1
 12
579.0621378589341
 22
383.550019396431
 13
0.0
 23
0.0
 14
10.0
 24
10.0
 15
10.0
 25
10.0
 16
0.0
 26
0.0
 36
1.0
 17
0.0
 27
0.0
 37
0.0
 42
50.0
 43
0.0
 44
0.0
 45
880.2002074220428
 50
0.0
 51
0.0
 72
   100
 90
    32800
  1

281
     0
 71
     1
 74
     0
110
0.0
120
0.0
130
0.0
111
1.0
121
0.0
131
0.0
112
0.0
122
1.0
132
0.0
 79
     0
146
0.0
170
     0
  0
VIEWPORT
  5
2C4
330
1B
100
AcDbEntity
 67
     1
  8
0
100
AcDbViewport
 10
579.0698083852025
 20
383.5379149631606
 30
0.0
 40
1209.974379128347
 41
873.1909598778374
 68
     2
 69
     2
 12
594.0
 22
420.0
 13
0.0
 23
0.0
 14
10.0
 24
10.0
 15
10.0
 25
10.0
 16
0.0
 26
0.0
 36
1.0
 17
0.0
 27
0.0
 37
0.0
 42
50.0
 43
0.0
 44
0.0
 45
873.1909598778374
 50
0.0
 51
0.0
 72
   100
 90
    32864
  1

281
     0
 71
     1
 74
     0
110
0.0
120
0.0
130
0.0
111
1.0
121
0.0
131
0.0
112
0.0
122
1.0
132
0.0
 79
     0
146
0.0
170
     0
  0
ENDSEC
  0
SECTION
  2
OBJECTS
  0
DICTIONARY
  5
C
330
0
100
AcDbDictionary
281
     1
  3
ACAD_COLOR
350
2F1
  3
ACAD_GROUP
350
D
  3
ACAD_LAYOUT
350
1A
  3
ACAD_MATERIAL
350
2F0
  3
ACAD_MLINESTYLE
350
17
  3
ACAD_PLOTSETTINGS
350
19
  3
ACAD_PLOTSTYLENAME
350
E
  3
AcadDim
350
4E46
  0
DICTIONARY
  5
307
330
2
100
AcDbDictionary
280
     1
281
     1
  3
ACAD_LAYERFILTERS
360
3AA
  3
ACAD_LAYERSTATES
360
308
  0
DICTIONARY
  5
1934
330
1933
100
AcDbDictionary
280
     1
281
     1
  3
ACAD_SORTENTS
360
1935
  0
DICTIONARY
  5
193F
330
193E
100
AcDbDictionary
280
     1
281
     1
  3
ACAD_SORTENTS
360
1940
  0
DICTIONARY
  5
1954
330
1953
100
AcDbDictionary
280
     1
281
     1
  3
ACAD_SORTENTS
360
1955
  0
DICTIONARY
  5
2F1
102
{ACAD_REACTORS
330
C
102
}
330
C
100
AcDbDictionary
281
     1
  0
DICTIONARY
  5
D
102
{ACAD_REACTORS
330
C
102
}
330
C
100
AcDbDictionary
281
     1
  0
DICTIONARY
  5
1A
102
{ACAD_REACTORS
330
C
102
}
330
C
100
AcDbDictionary
281
     1
  3
Model
350
22
  3
ﾚｲｱｳﾄ1
350
1E
  3
ﾚｲｱｳﾄ2
350
26
  0
DICTIONARY
  5
2F0
102
{ACAD_REACTORS
330
C
102
}
330
C
100
AcDbDictionary
281
     1
  0
DICTIONARY
  5
17
102
{ACAD_REACTORS
330
C
102
}
330
C
100
AcDbDictionary
281
     1
  3
Standard
350
18
  0
DICTIONARY
  5
19
102
{ACAD_REACTORS
330
C
102
}
330
C
100
AcDbDictionary
281
     1
  0
ACDBDICTIONARYWDFLT
  5
E
102
{ACAD_REACTORS
330
C
102
}
330
C
100
AcDbDictionary
281
     1
  3
Normal
350
F
100
AcDbDictionaryWithDefault
340
F
  0
XRECORD
  5
4E46
102
{ACAD_REACTORS
330
C
102
}
330
C
100
AcDbXrecord
280
     1
 90
   990106
  3

 60
     0
 61
     0
 62
     1
 63
     3
 64
     0
 65
     0
 66
     0
 67
     3
 68
     1
 69
     0
 70
     0
 71
     0
 72
     0
 40
0.0
170
     0
340
66B3
  0
DICTIONARY
  5
3AA
102
{ACAD_REACTORS
330
307
102
}
330
307
100
AcDbDictionary
281
     1
  0
DICTIONARY
  5
308
102
{ACAD_REACTORS
330
307
102
}
330
307
100
AcDbDictionary
281
     1
  0
SORTENTSTABLE
  5
1935
102
{ACAD_REACTORS
330
1934
102
}
330
1934
100
AcDbSortentsTable
330
1933
  0
SORTENTSTABLE
  5
1940
102
{ACAD_REACTORS
330
193F
102
}
330
193F
100
AcDbSortentsTable
330
193E
  0
SORTENTSTABLE
  5
1955
102
{ACAD_REACTORS
330
1954
102
}
330
1954
100
AcDbSortentsTable
330
1953
  0
LAYOUT
  5
22
102
{ACAD_REACTORS
330
1A
102
}
330
1A
100
AcDbPlotSettings
  1

  2
HP DesignJet 800 24 by HP
  4
User1294
  6

 40
4.995333194732666
 41
16.97565841674804
 42
4.99530029296875
 43
16.97567749023437
 44
593.97900390625
 45
419.9466552734374
 46
-75.48
 47
-19.34
 48
0.0
 49
0.0
140
0.0
141
0.0
142
1.0
143
2.0
 70
 11956
 72
     1
 73
     2
 74
     0
  7

 75
    17
147
0.5
 76
     0
 77
     2
 78
   300
148
140.9399608439263
149
4.666800044856984
100
AcDbLayout
  1
Model
 70
     1
 71
     0
 10
0.0
 20
0.0
 11
12.0
 21
9.0
 12
0.0
 22
0.0
 32
0.0
 14
0.0
 24
0.0
 34
0.0
 15
0.0
 25
0.0
 35
0.0
146
0.0
 13
0.0
 23
0.0
 33
0.0
 16
1.0
 26
0.0
 36
0.0
 17
0.0
 27
1.0
 37
0.0
 76
     0
330
1F
  0
LAYOUT
  5
1E
102
{ACAD_REACTORS
330
1A
102
}
330
1A
100
AcDbPlotSettings
  1

  2
HP DesignJet 800 24 by HP
  4
User1294
  6

 40
4.995333194732666
 41
16.97565841674804
 42
4.99530029296875
 43
16.97567749023437
 44
593.97900390625
 45
419.9466552734374
 46
0.0
 47
0.0
 48
0.0
 49
0.0
140
0.0
141
0.0
142
1.0
143
2.0
 70
   688
 72
     1
 73
     2
 74
     5
  7
monochrome.ctb
 75
    17
147
0.5
 76
     1
 77
     2
 78
   300
148
0.0
149
0.0
100
AcDbLayout
  1
ﾚｲｱｳﾄ1
 70
     1
 71
     1
 10
-9.9906005859375
 20
-33.95135498046875
 11
1177.967407226562
 21
805.9419555664062
 12
0.0
 22
0.0
 32
0.0
 14
-25.93123167385193
 24
-53.05770098799053
 34
-0.000000000000013
 15
1184.147841776788
 25
820.157747913802
 35
0.0000000000000023
146
0.0
 13
0.0
 23
0.0
 33
0.0
 16
1.0
 26
0.0
 36
0.0
 17
0.0
 27
1.0
 37
0.0
 76
     0
330
1B
331
24C
  0
LAYOUT
  5
26
102
{ACAD_REACTORS
330
1A
102
}
330
1A
100
AcDbPlotSettings
  1

  2
C:\PROGRAM FILES\AUTOCAD LT 2000I\plotters\DWF Classic.pc3
  4

  6

 40
0.0
 41
0.0
 42
0.0
 43
0.0
 44
0.0
 45
0.0
 46
0.0
 47
0.0
 48
0.0
 49
0.0
140
0.0
141
0.0
142
1.0
143
1.0
 70
   688
 72
     0
 73
     0
 74
     5
  7
monochrome.ctb
 75
    16
147
1.0
 76
     0
 77
     2
 78
   300
148
0.0
149
0.0
100
AcDbLayout
  1
ﾚｲｱｳﾄ2
 70
     1
 71
     2
 10
0.0
 20
0.0
 11
12.0
 21
9.0
 12
0.0
 22
0.0
 32
0.0
 14
0.0
 24
0.0
 34
0.0
 15
0.0
 25
0.0
 35
0.0
146
0.0
 13
0.0
 23
0.0
 33
0.0
 16
1.0
 26
0.0
 36
0.0
 17
0.0
 27
1.0
 37
0.0
 76
     0
330
23
  0
MLINESTYLE
  5
18
102
{ACAD_REACTORS
330
17
102
}
330
17
100
AcDbMlineStyle
  2
STANDARD
 70
     0
  3

 62
   256
 51
90.0
 52
90.0
 71
     2
 49
0.5
 62
   256
  6
BYLAYER
 49
-0.5
 62
   256
  6
BYLAYER
  0
ACDBPLACEHOLDER
  5
F
102
{ACAD_REACTORS
330
E
102
}
330
E
  0
ENDSEC
  0
EOF
