  0
SECTION
  2
HEADER
  9
$ACADVER
  1
AC1018
  9
$ACADMAINTVER
 70
     0
  9
$DWGCODEPAGE
  3
ANSI_932
  9
$INSBASE
 10
0.0
 20
0.0
 30
0.0
  9
$EXTMIN
 10
-0.0543679398720087
 20
-0.038441977687171
 30
-0.0000000000000076
  9
$EXTMAX
 10
1188.054390069279
 20
840.038457624743
 30
0.0000000000000076
  9
$LIMMIN
 10
0.0
 20
0.0
  9
$LIMMAX
 10
594.0
 20
420.0
  9
$ORTHOMODE
 70
     1
  9
$REGENMODE
 70
     1
  9
$FILLMODE
 70
     1
  9
$QTEXTMODE
 70
     0
  9
$MIRRTEXT
 70
     0
  9
$LTSCALE
 40
2.0
  9
$ATTMODE
 70
     1
  9
$TEXTSIZE
 40
2.5
  9
$TRACEWID
 40
1.0
  9
$TEXTSTYLE
  7
Std
  9
$CLAYER
  8
sunpo
  9
$CELTYPE
  6
ByLayer
  9
$CECOLOR
 62
   256
  9
$CELTSCALE
 40
1.0
  9
$DISPSILH
 70
     0
  9
$DIMSCALE
 40
2.0
  9
$DIMASZ
 40
3.5
  9
$DIMEXO
 40
2.0
  9
$DIMDLI
 40
8.0
  9
$DIMRND
 40
0.0
  9
$DIMDLE
 40
0.0
  9
$DIMEXE
 40
1.0
  9
$DIMTP
 40
0.0
  9
$DIMTM
 40
0.0
  9
$DIMTXT
 40
3.0
  9
$DIMCEN
 40
0.0
  9
$DIMTSZ
 40
0.0
  9
$DIMTOL
 70
     0
  9
$DIMLIM
 70
     0
  9
$DIMTIH
 70
     0
  9
$DIMTOH
 70
     0
  9
$DIMSE1
 70
     0
  9
$DIMSE2
 70
     0
  9
$DIMTAD
 70
     1
  9
$DIMZIN
 70
     8
  9
$DIMBLK
  1
DotSmall
  9
$DIMASO
 70
     1
  9
$DIMSHO
 70
     1
  9
$DIMPOST
  1

  9
$DIMAPOST
  1

  9
$DIMALT
 70
     0
  9
$DIMALTD
 70
     3
  9
$DIMALTF
 40
0.03937007874016
  9
$DIMLFAC
 40
1.0
  9
$DIMTOFL
 70
     1
  9
$DIMTVP
 40
0.0
  9
$DIMTIX
 70
     0
  9
$DIMSOXD
 70
     0
  9
$DIMSAH
 70
     0
  9
$DIMBLK1
  1

  9
$DIMBLK2
  1

  9
$DIMSTYLE
  2
dim2
  9
$DIMCLRD
 70
     3
  9
$DIMCLRE
 70
     3
  9
$DIMCLRT
 70
     2
  9
$DIMTFAC
 40
1.0
  9
$DIMGAP
 40
0.6
  9
$DIMJUST
 70
     0
  9
$DIMSD1
 70
     0
  9
$DIMSD2
 70
     0
  9
$DIMTOLJ
 70
     0
  9
$DIMTZIN
 70
     8
  9
$DIMALTZ
 70
     0
  9
$DIMALTTZ
 70
     0
  9
$DIMUPT
 70
     0
  9
$DIMDEC
 70
     1
  9
$DIMTDEC
 70
     1
  9
$DIMALTU
 70
     2
  9
$DIMALTTD
 70
     3
  9
$DIMTXSTY
  7
Std
  9
$DIMAUNIT
 70
     0
  9
$DIMADEC
 70
     0
  9
$DIMALTRND
 40
0.0
  9
$DIMAZIN
 70
     0
  9
$DIMDSEP
 70
    46
  9
$DIMATFIT
 70
     3
  9
$DIMFRAC
 70
     0
  9
$DIMLDRBLK
  1
Open30
  9
$DIMLUNIT
 70
     6
  9
$DIMLWD
 70
     9
  9
$DIMLWE
 70
     9
  9
$DIMTMOVE
 70
     2
  9
$LUNITS
 70
     2
  9
$LUPREC
 70
     2
  9
$SKETCHINC
 40
1.0
  9
$FILLETRAD
 40
50.0
  9
$AUNITS
 70
     0
  9
$AUPREC
 70
     2
  9
$MENU
  1
.
  9
$ELEVATION
 40
0.0
  9
$PELEVATION
 40
0.0
  9
$THICKNESS
 40
0.0
  9
$LIMCHECK
 70
     0
  9
$CHAMFERA
 40
10.0
  9
$CHAMFERB
 40
10.0
  9
$CHAMFERC
 40
20.0
  9
$CHAMFERD
 40
0.0
  9
$SKPOLY
 70
     0
  9
$TDCREATE
 40
2451935.570731713
  9
$TDUCREATE
 40
2451935.195731713
  9
$TDUPDATE
 40
2455741.469171180
  9
$TDUUPDATE
 40
2455741.094171180
  9
$TDINDWG
 40
3.8155946412
  9
$TDUSRTIMER
 40
3.8155946412
  9
$USRTIMER
 70
     1
  9
$ANGBASE
 50
0.0
  9
$ANGDIR
 70
     0
  9
$PDMODE
 70
     0
  9
$PDSIZE
 40
0.0
  9
$PLINEWID
 40
0.0
  9
$SPLFRAME
 70
     0
  9
$SPLINETYPE
 70
     6
  9
$SPLINESEGS
 70
     8
  9
$HANDSEED
  5
312B2
  9
$SURFTAB1
 70
     6
  9
$SURFTAB2
 70
     6
  9
$SURFTYPE
 70
     6
  9
$SURFU
 70
     6
  9
$SURFV
 70
     6
  9
$UCSBASE
  2

  9
$UCSNAME
  2

  9
$UCSORG
 10
0.0
 20
0.0
 30
0.0
  9
$UCSXDIR
 10
1.0
 20
0.0
 30
0.0
  9
$UCSYDIR
 10
0.0
 20
1.0
 30
0.0
  9
$UCSORTHOREF
  2

  9
$UCSORTHOVIEW
 70
     0
  9
$UCSORGTOP
 10
0.0
 20
0.0
 30
0.0
  9
$UCSORGBOTTOM
 10
0.0
 20
0.0
 30
0.0
  9
$UCSORGLEFT
 10
0.0
 20
0.0
 30
0.0
  9
$UCSORGRIGHT
 10
0.0
 20
0.0
 30
0.0
  9
$UCSORGFRONT
 10
0.0
 20
0.0
 30
0.0
  9
$UCSORGBACK
 10
0.0
 20
0.0
 30
0.0
  9
$PUCSBASE
  2

  9
$PUCSNAME
  2

  9
$PUCSORG
 10
0.0
 20
0.0
 30
0.0
  9
$PUCSXDIR
 10
1.0
 20
0.0
 30
0.0
  9
$PUCSYDIR
 10
0.0
 20
1.0
 30
0.0
  9
$PUCSORTHOREF
  2

  9
$PUCSORTHOVIEW
 70
     0
  9
$PUCSORGTOP
 10
0.0
 20
0.0
 30
0.0
  9
$PUCSORGBOTTOM
 10
0.0
 20
0.0
 30
0.0
  9
$PUCSORGLEFT
 10
0.0
 20
0.0
 30
0.0
  9
$PUCSORGRIGHT
 10
0.0
 20
0.0
 30
0.0
  9
$PUCSORGFRONT
 10
0.0
 20
0.0
 30
0.0
  9
$PUCSORGBACK
 10
0.0
 20
0.0
 30
0.0
  9
$USERI1
 70
     0
  9
$USERI2
 70
     0
  9
$USERI3
 70
     0
  9
$USERI4
 70
     0
  9
$USERI5
 70
     0
  9
$USERR1
 40
0.0
  9
$USERR2
 40
0.0
  9
$USERR3
 40
0.0
  9
$USERR4
 40
0.0
  9
$USERR5
 40
0.0
  9
$WORLDVIEW
 70
     1
  9
$SHADEDGE
 70
     3
  9
$SHADEDIF
 70
    70
  9
$TILEMODE
 70
     1
  9
$MAXACTVP
 70
    64
  9
$PINSBASE
 10
0.0
 20
0.0
 30
0.0
  9
$PLIMCHECK
 70
     0
  9
$PEXTMIN
 10
-13.47440845624715
 20
-22.21867993191836
 30
-0.000000000000013
  9
$PEXTMAX
 10
601.5572178000511
 20
405.7592843052872
 30
0.0000000000000023
  9
$PLIMMIN
 10
-4.99530029296875
 20
-16.97567749023437
  9
$PLIMMAX
 10
588.9837036132812
 20
402.9709777832031
  9
$UNITMODE
 70
     0
  9
$VISRETAIN
 70
     1
  9
$PLINEGEN
 70
     0
  9
$PSLTSCALE
 70
     1
  9
$TREEDEPTH
 70
  3020
  9
$CMLSTYLE
  2
Standard
  9
$CMLJUST
 70
     0
  9
$CMLSCALE
 40
20.0
  9
$PROXYGRAPHICS
 70
     1
  9
$MEASUREMENT
 70
     1
  9
$CELWEIGHT
370
    -1
  9
$ENDCAPS
280
     0
  9
$JOINSTYLE
280
     0
  9
$LWDISPLAY
290
     0
  9
$INSUNITS
 70
     4
  9
$HYPERLINKBASE
  1

  9
$STYLESHEET
  1
monochrome.ctb
  9
$XEDIT
290
     1
  9
$CEPSNTYPE
380
     0
  9
$PSTYLEMODE
290
     1
  9
$FINGERPRINTGUID
  2
{1128C918-EA32-49CA-A447-4FB40908B966}
  9
$VERSIONGUID
  2
{D87A6D57-2237-476D-8062-E442B5E9892F}
  9
$EXTNAMES
290
     1
  9
$PSVPSCALE
 40
0.0
  9
$OLESTARTUP
290
     0
  9
$SORTENTS
280
   127
  9
$INDEXCTL
280
     0
  9
$HIDETEXT
280
     0
  9
$XCLIPFRAME
290
     0
  9
$HALOGAP
280
     0
  9
$OBSCOLOR
 70
   257
  9
$OBSLTYPE
280
     0
  9
$INTERSECTIONDISPLAY
280
     0
  9
$INTERSECTIONCOLOR
 70
   257
  9
$DIMASSOC
280
     1
  9
$PROJECTNAME
  1

  0
ENDSEC
  0
SECTION
  2
CLASSES
  0
CLASS
  1
ACDBDICTIONARYWDFLT
  2
AcDbDictionaryWithDefault
  3
ObjectDBX Classes
 90
        0
 91
        1
280
     0
281
     0
  0
CLASS
  1
DICTIONARYVAR
  2
AcDbDictionaryVar
  3
ObjectDBX Classes
 90
        0
 91
        0
280
     0
281
     0
  0
CLASS
  1
PLOTSETTINGS
  2
AcDbPlotSettings
  3
ObjectDBX Classes
 90
        0
 91
        0
280
     0
281
     0
  0
CLASS
  1
SORTENTSTABLE
  2
AcDbSortentsTable
  3
ObjectDBX Classes
 90
        0
 91
        0
280
     0
281
     0
  0
CLASS
  1
MATERIAL
  2
AcDbMaterial
  3
ObjectDBX Classes
 90
        0
 91
        1
280
     0
281
     0
  0
ENDSEC
  0
SECTION
  2
TABLES
  0
TABLE
  2
VPORT
  5
8
330
0
100
AcDbSymbolTable
 70
     3
  0
VPORT
  5
312B1
330
8
100
AcDbSymbolTableRecord
100
AcDbViewportTableRecord
  2
*Active
 70
     0
 10
0.0
 20
0.0
 11
1.0
 21
1.0
 12
594.0000110647035
 22
420.0000078235279
 13
0.0
 23
0.0
 14
10.0
 24
10.0
 15
10.0
 25
10.0
 16
0.0
 26
0.0
 36
1.0
 17
0.0
 27
0.0
 37
0.0
 40
846.4411185388124
 41
1.458912768647282
 42
50.0
 43
0.0
 44
0.0
 50
0.0
 51
0.0
 71
     0
 72
   100
 73
     1
 74
     3
 75
     0
 76
     0
 77
     0
 78
     0
281
     0
 65
     1
110
0.0
120
0.0
130
0.0
111
1.0
121
0.0
131
0.0
112
0.0
122
1.0
132
0.0
 79
     0
146
0.0
  0
ENDTAB
  0
TABLE
  2
LTYPE
  5
5
330
0
100
AcDbSymbolTable
 70
    30
  0
LTYPE
  5
14
330
5
100
AcDbSymbolTableRecord
100
AcDbLinetypeTableRecord
  2
ByBlock
 70
     0
  3

 72
    65
 73
     0
 40
0.0
  0
LTYPE
  5
15
330
5
100
AcDbSymbolTableRecord
100
AcDbLinetypeTableRecord
  2
ByLayer
 70
     0
  3

 72
    65
 73
     0
 40
0.0
  0
LTYPE
  5
16
330
5
100
AcDbSymbolTableRecord
100
AcDbLinetypeTableRecord
  2
Continuous
 70
     0
  3
Solid line
 72
    65
 73
     0
 40
0.0
  0
LTYPE
  5
36CB
330
5
100
AcDbSymbolTableRecord
100
AcDbLinetypeTableRecord
  2
HOJO
 70
     0
  3
-----------------------------------------------
 72
    65
 73
     2
 40
0.0
 49
0.0
 74
     0
 49
0.0
 74
     0
  0
LTYPE
  5
3DD2
330
5
100
AcDbSymbolTableRecord
100
AcDbLinetypeTableRecord
  2
HIDS
 70
     0
  3
(破線１)- - - - - - - - - - - - - - - - - - - -
 72
    65
 73
     2
 40
2.5
 49
1.5
 74
     0
 49
-1.0
 74
     0
  0
LTYPE
  5
3DD3
330
5
100
AcDbSymbolTableRecord
100
AcDbLinetypeTableRecord
  2
PHAS
 70
     0
  3
(二点鎖線１)---- - - ---- - - ---- - - ---- - -
 72
    65
 73
     6
 40
15.0
 49
10.0
 74
     0
 49
-1.0
 74
     0
 49
1.0
 74
     0
 49
-1.0
 74
     0
 49
1.0
 74
     0
 49
-1.0
 74
     0
  0
LTYPE
  5
3DD4
330
5
100
AcDbSymbolTableRecord
100
AcDbLinetypeTableRecord
  2
CENL
 70
     0
  3
(一点鎖線２)------ - ------ - ------ - ------ -
 72
    65
 73
     4
 40
19.5
 49
15.0
 74
     0
 49
-1.5
 74
     0
 49
1.5
 74
     0
 49
-1.5
 74
     0
  0
LTYPE
  5
3DD5
330
5
100
AcDbSymbolTableRecord
100
AcDbLinetypeTableRecord
  2
DOT
 70
     0
  3
...............................................
 72
    65
 73
     2
 40
0.25
 49
0.0
 74
     0
 49
-0.25
 74
     0
  0
LTYPE
  5
4BF4
330
5
100
AcDbSymbolTableRecord
100
AcDbLinetypeTableRecord
  2
CENS
 70
     0
  3
(一点鎖線１)---- - ---- - ---- - ---- - ---- - 
 72
    65
 73
     4
 40
13.0
 49
10.0
 74
     0
 49
-1.0
 74
     0
 49
1.0
 74
     0
 49
-1.0
 74
     0
  0
LTYPE
  5
4C06
330
5
100
AcDbSymbolTableRecord
100
AcDbLinetypeTableRecord
  2
AXIS
 70
     0
  3
ｰｰｰｰｰｰｰｰ . ｰｰｰｰｰｰｰｰ . ｰｰｰｰｰｰｰｰ . ｰｰｰｰｰｰｰｰ
 72
    65
 73
     4
 40
2.299999999999999
 49
2.0
 74
     0
 49
-0.15
 74
     0
 49
0.0
 74
     0
 49
-0.15
 74
     0
  0
LTYPE
  5
4C07
330
5
100
AcDbSymbolTableRecord
100
AcDbLinetypeTableRecord
  2
BORDER2
 70
     0
  3
Border (.5x) __.__.__.__.__.__.__.__.__.__.__.
 72
    65
 73
     6
 40
0.875
 49
0.25
 74
     0
 49
-0.125
 74
     0
 49
0.25
 74
     0
 49
-0.125
 74
     0
 49
0.0
 74
     0
 49
-0.125
 74
     0
  0
LTYPE
  5
4C08
330
5
100
AcDbSymbolTableRecord
100
AcDbLinetypeTableRecord
  2
CENTER
 70
     0
  3
Center ____ _ ____ _ ____ _ ____ _ ____ _ ____
 72
    65
 73
     4
 40
2.0
 49
1.25
 74
     0
 49
-0.25
 74
     0
 49
0.25
 74
     0
 49
-0.25
 74
     0
  0
LTYPE
  5
4C09
330
5
100
AcDbSymbolTableRecord
100
AcDbLinetypeTableRecord
  2
CENTER1
 70
     0
  3
----- - ----- - ----- - ----- - 
 72
    65
 73
     4
 40
10.0
 49
6.25
 74
     0
 49
-1.25
 74
     0
 49
1.25
 74
     0
 49
-1.25
 74
     0
  0
LTYPE
  5
4C0A
330
5
100
AcDbSymbolTableRecord
100
AcDbLinetypeTableRecord
  2
CENTER2
 70
     0
  3
----------  --  ----------  --  
 72
    65
 73
     4
 40
20.0
 49
12.5
 74
     0
 49
-2.5
 74
     0
 49
2.5
 74
     0
 49
-2.5
 74
     0
  0
LTYPE
  5
4C0B
330
5
100
AcDbSymbolTableRecord
100
AcDbLinetypeTableRecord
  2
CENTERX2
 70
     0
  3
Center (2x) ________  __  ________  __  _____
 72
    65
 73
     4
 40
101.6
 49
63.5
 74
     0
 49
-12.7
 74
     0
 49
12.7
 74
     0
 49
-12.7
 74
     0
  0
LTYPE
  5
4C0C
330
5
100
AcDbSymbolTableRecord
100
AcDbLinetypeTableRecord
  2
CHAIN
 70
     0
  3
-------------- -- --------------
 72
    65
 73
     4
 40
18.5
 49
12.0
 74
     0
 49
-1.5
 74
     0
 49
3.5
 74
     0
 49
-1.5
 74
     0
  0
LTYPE
  5
4C0D
330
5
100
AcDbSymbolTableRecord
100
AcDbLinetypeTableRecord
  2
DASHDOT
 70
     0
  3
Dash dot __ . __ . __ . __ . __ . __ . __ . __
 72
    65
 73
     4
 40
25.4
 49
12.7
 74
     0
 49
-6.349999999999998
 74
     0
 49
0.0
 74
     0
 49
-6.349999999999998
 74
     0
  0
LTYPE
  5
4C0E
330
5
100
AcDbSymbolTableRecord
100
AcDbLinetypeTableRecord
  2
DASHDOT2
 70
     0
  3
Dash dot (.5x) _._._._._._._._._._._._._._._.
 72
    65
 73
     4
 40
0.5
 49
0.25
 74
     0
 49
-0.125
 74
     0
 49
0.0
 74
     0
 49
-0.125
 74
     0
  0
LTYPE
  5
4C0F
330
5
100
AcDbSymbolTableRecord
100
AcDbLinetypeTableRecord
  2
DASHED
 70
     0
  3
__ __ __ __ __ __ __ __ __ __ __ __ __ __ __
 72
    65
 73
     2
 40
0.75
 49
0.5
 74
     0
 49
-0.25
 74
     0
  0
LTYPE
  5
4C10
330
5
100
AcDbSymbolTableRecord
100
AcDbLinetypeTableRecord
  2
DASHED1
 70
     0
  3
--  --  --  --  --  --  --  --  
 72
    65
 73
     2
 40
2.5
 49
1.25
 74
     0
 49
-1.25
 74
     0
  0
LTYPE
  5
4C11
330
5
100
AcDbSymbolTableRecord
100
AcDbLinetypeTableRecord
  2
DASHED2
 70
     0
  3
CADPAC LINETYPE
 72
    65
 73
     2
 40
14.22744361
 49
9.484962409999999
 74
     0
 49
-4.7424812
 74
     0
  0
LTYPE
  5
4C12
330
5
100
AcDbSymbolTableRecord
100
AcDbLinetypeTableRecord
  2
DASHED3
 70
     0
  3
------  ------  ------  ------  
 72
    65
 73
     2
 40
5.0
 49
3.75
 74
     0
 49
-1.25
 74
     0
  0
LTYPE
  5
4C13
330
5
100
AcDbSymbolTableRecord
100
AcDbLinetypeTableRecord
  2
DIVIDE
 70
     0
  3
Divide ____ . . ____ . . ____ . . ____ . . ____
 72
    65
 73
     6
 40
1.25
 49
0.5
 74
     0
 49
-0.25
 74
     0
 49
0.0
 74
     0
 49
-0.25
 74
     0
 49
0.0
 74
     0
 49
-0.25
 74
     0
  0
LTYPE
  5
4C14
330
5
100
AcDbSymbolTableRecord
100
AcDbLinetypeTableRecord
  2
DOT_18
 70
     0
  3
----        --------        ----
 72
    65
 73
     2
 40
1.6
 49
0.8
 74
     0
 49
-0.8
 74
     0
  0
LTYPE
  5
4C15
330
5
100
AcDbSymbolTableRecord
100
AcDbLinetypeTableRecord
  2
DOT2
 70
     0
  3
Dot (.5x) .....................................
 72
    65
 73
     2
 40
3.174999999999998
 49
0.0
 74
     0
 49
-3.174999999999998
 74
     0
  0
LTYPE
  5
4C16
330
5
100
AcDbSymbolTableRecord
100
AcDbLinetypeTableRecord
  2
DOTTED
 70
     0
  3
   -       -       -       -    
 72
    65
 73
     2
 40
1.75
 49
0.25
 74
     0
 49
-1.5
 74
     0
  0
LTYPE
  5
4C18
330
5
100
AcDbSymbolTableRecord
100
AcDbLinetypeTableRecord
  2
HIDDEN
 70
     0
  3
Hidden __ __ __ __ __ __ __ __ __ __ __ __ __ _
 72
    65
 73
     2
 40
0.375
 49
0.25
 74
     0
 49
-0.125
 74
     0
  0
LTYPE
  5
4C19
330
5
100
AcDbSymbolTableRecord
100
AcDbLinetypeTableRecord
  2
HIDDEN2
 70
     0
  3
Hidden (.5x) _ _ _ _ _ _ _ _ _ _ _ _ _ _ _ _ _
 72
    65
 73
     2
 40
4.762499999999999
 49
3.174999999999999
 74
     0
 49
-1.587499999999999
 74
     0
  0
LTYPE
  5
4C1A
330
5
100
AcDbSymbolTableRecord
100
AcDbLinetypeTableRecord
  2
HIDDEN3
 70
     0
  3
DASH 0.10
 72
    65
 73
     2
 40
0.2
 49
0.1
 74
     0
 49
-0.1
 74
     0
  0
LTYPE
  5
4C20
330
5
100
AcDbSymbolTableRecord
100
AcDbLinetypeTableRecord
  2
PHANTOM
 70
     0
  3
______  __  __  ______  __  __  _____
 72
    65
 73
     6
 40
2.5
 49
1.25
 74
     0
 49
-0.25
 74
     0
 49
0.25
 74
     0
 49
-0.25
 74
     0
 49
0.25
 74
     0
 49
-0.25
 74
     0
  0
LTYPE
  5
4C21
330
5
100
AcDbSymbolTableRecord
100
AcDbLinetypeTableRecord
  2
PHANTOM1
 70
     0
  3
--- - - --- - - --- - - --- - - 
 72
    65
 73
     6
 40
10.0
 49
3.25
 74
     0
 49
-1.25
 74
     0
 49
1.25
 74
     0
 49
-1.25
 74
     0
 49
1.25
 74
     0
 49
-1.25
 74
     0
  0
LTYPE
  5
4C22
330
5
100
AcDbSymbolTableRecord
100
AcDbLinetypeTableRecord
  2
PHANTOM2
 70
     0
  3
--------  -  -  --------  -  -  
 72
    65
 73
     6
 40
20.0
 49
10.0
 74
     0
 49
-2.5
 74
     0
 49
1.25
 74
     0
 49
-2.5
 74
     0
 49
1.25
 74
     0
 49
-2.5
 74
     0
  0
ENDTAB
  0
TABLE
  2
LAYER
  5
2
102
{ACAD_XDICTIONARY
360
1B46
102
}
330
0
100
AcDbSymbolTable
 70
    17
  0
LAYER
  5
10
330
2
100
AcDbSymbolTableRecord
100
AcDbLayerTableRecord
  2
0
 70
     0
 62
     7
  6
Continuous
370
    -3
390
F
  0
LAYER
  5
32
330
2
100
AcDbSymbolTableRecord
100
AcDbLayerTableRecord
  2
Defpoints
 70
     0
 62
   177
  6
Continuous
290
     0
370
    20
390
F
  0
LAYER
  5
33
330
2
100
AcDbSymbolTableRecord
100
AcDbLayerTableRecord
  2
hojo
 70
     0
 62
     6
  6
Continuous
290
     0
370
     9
390
F
  0
LAYER
  5
35
330
2
100
AcDbSymbolTableRecord
100
AcDbLayerTableRecord
  2
moji
 70
     0
 62
     7
  6
Continuous
370
    20
390
F
  0
LAYER
  5
36
330
2
100
AcDbSymbolTableRecord
100
AcDbLayerTableRecord
  2
size
 70
     0
 62
     7
  6
Continuous
370
    20
390
F
  0
LAYER
  5
36CC
330
2
100
AcDbSymbolTableRecord
100
AcDbLayerTableRecord
  2
sunpo
 70
     0
 62
   111
  6
Continuous
370
    18
390
F
  0
LAYER
  5
3765
330
2
100
AcDbSymbolTableRecord
100
AcDbLayerTableRecord
  2
ADD_LINE
 70
     0
 62
   223
  6
Continuous
290
     0
370
    -3
390
F
  0
LAYER
  5
3834
330
2
100
AcDbSymbolTableRecord
100
AcDbLayerTableRecord
  2
wakumoji
 70
     0
 62
     7
  6
Continuous
370
    20
390
F
  0
LAYER
  5
3DD6
330
2
100
AcDbSymbolTableRecord
100
AcDbLayerTableRecord
  2
kijun
 70
     0
 62
   242
  6
CENL
370
     9
390
F
  0
LAYER
  5
3DD7
330
2
100
AcDbSymbolTableRecord
100
AcDbLayerTableRecord
  2
2tensasen
 70
     0
 62
   131
  6
PHAS
370
     9
390
F
  0
LAYER
  5
3DD8
330
2
100
AcDbSymbolTableRecord
100
AcDbLayerTableRecord
  2
saisen
 70
     0
 62
   134
  6
Continuous
370
     9
390
F
  0
LAYER
  5
3DD9
330
2
100
AcDbSymbolTableRecord
100
AcDbLayerTableRecord
  2
sunpo2
 70
     0
 62
   111
  6
Continuous
370
    18
390
F
  0
LAYER
  5
3DDA
330
2
100
AcDbSymbolTableRecord
100
AcDbLayerTableRecord
  2
hatch
 70
     0
 62
     8
  6
Continuous
370
     5
390
F
  0
LAYER
  5
3DDB
330
2
100
AcDbSymbolTableRecord
100
AcDbLayerTableRecord
  2
hasen
 70
     0
 62
    41
  6
HIDS
370
     9
390
F
  0
LAYER
  5
4BF5
330
2
100
AcDbSymbolTableRecord
100
AcDbLayerTableRecord
  2
KUTAI
 70
     0
 62
     9
  6
Continuous
370
    15
390
F
  0
LAYER
  5
CFA6
330
2
100
AcDbSymbolTableRecord
100
AcDbLayerTableRecord
  2
塗板・掲示板
 70
     0
 62
     7
  6
Continuous
370
    20
390
F
  0
LAYER
  5
2FADA
102
{ACAD_XDICTIONARY
360
2FADB
102
}
330
2
100
AcDbSymbolTableRecord
100
AcDbLayerTableRecord
  2
SIAGE
 70
     0
 62
     9
  6
Continuous
370
    13
390
F
  0
ENDTAB
  0
TABLE
  2
STYLE
  5
3
330
0
100
AcDbSymbolTable
 70
    11
  0
STYLE
  5
11
330
3
100
AcDbSymbolTableRecord
100
AcDbTextStyleTableRecord
  2
Standard
 70
     0
 40
0.0
 41
1.0
 50
0.0
 71
     0
 42
2.5
  3
txt.shx
  4
bigfont.shx
  0
STYLE
  5
41
330
3
100
AcDbSymbolTableRecord
100
AcDbTextStyleTableRecord
  2
gothic
 70
     0
 40
0.0
 41
1.0
 50
0.0
 71
     0
 42
2.5
  3
MS PGothic.ttf
  4

1001
ACAD
1000
MS PGothic
1071
    32818
  0
STYLE
  5
43
330
3
100
AcDbSymbolTableRecord
100
AcDbTextStyleTableRecord
  2
dim
 70
     0
 40
0.0
 41
0.75
 50
0.0
 71
     0
 42
2.5
  3
txt.shx
  4
bigfont.shx
  0
STYLE
  5
36CD
330
3
100
AcDbSymbolTableRecord
100
AcDbTextStyleTableRecord
  2
Std
 70
     0
 40
0.0
 41
0.8
 50
0.0
 71
     0
 42
2.5
  3
romans.shx
  4
bigfont.shx
  0
STYLE
  5
36CE
330
3
100
AcDbSymbolTableRecord
100
AcDbTextStyleTableRecord
  2
StdW
 70
     0
 40
0.0
 41
1.0
 50
0.0
 71
     0
 42
2.5
  3
romans.shx
  4
bigfont.shx
  0
STYLE
  5
3835
330
3
100
AcDbSymbolTableRecord
100
AcDbTextStyleTableRecord
  2
kanji
 70
     0
 40
0.0
 41
1.0
 50
0.0
 71
     0
 42
2.5
  3
romans.shx
  4
bigfont.shx
  0
STYLE
  5
3DDD
330
3
100
AcDbSymbolTableRecord
100
AcDbTextStyleTableRecord
  2
mincho
 70
     0
 40
0.0
 41
1.0
 50
0.0
 71
     0
 42
2.5
  3
MS PMincho.ttf
  4

1001
ACAD
1000
MS PMincho
1071
    32786
  0
STYLE
  5
4BFD
330
3
100
AcDbSymbolTableRecord
100
AcDbTextStyleTableRecord
  2
StdS
 70
     0
 40
0.0
 41
0.7
 50
0.0
 71
     0
 42
2.5
  3
romans.shx
  4
bigfont.shx
  0
STYLE
  5
4C27
330
3
100
AcDbSymbolTableRecord
100
AcDbTextStyleTableRecord
  2
moji
 70
     0
 40
0.0
 41
0.8
 50
0.0
 71
     0
 42
115.0
  3
romans.shx
  4
extfont.shx
  0
STYLE
  5
4C28
330
3
100
AcDbSymbolTableRecord
100
AcDbTextStyleTableRecord
  2
TATEGAKI
 70
     4
 40
0.0
 41
1.0
 50
0.0
 71
     0
 42
1.0
  3
romans.shx
  4
bigfont.shx
  0
STYLE
  5
30257
330
3
100
AcDbSymbolTableRecord
100
AcDbTextStyleTableRecord
  2
丸ゴシック
 70
     0
 40
0.0
 41
1.0
 50
0.0
 71
     0
 42
2.5
  3
HGRSMP.TTF
  4

1001
ACAD
1000
HGMaruGothicMPRO
1071
    32818
  0
ENDTAB
  0
TABLE
  2
VIEW
  5
6
330
0
100
AcDbSymbolTable
 70
     0
  0
ENDTAB
  0
TABLE
  2
UCS
  5
7
330
0
100
AcDbSymbolTable
 70
     0
  0
ENDTAB
  0
TABLE
  2
APPID
  5
9
330
0
100
AcDbSymbolTable
 70
    26
  0
APPID
  5
12
330
9
100
AcDbSymbolTableRecord
100
AcDbRegAppTableRecord
  2
ACAD
 70
     0
  0
APPID
  5
1AD5
330
9
100
AcDbSymbolTableRecord
100
AcDbRegAppTableRecord
  2
CONTENTTABDATA
 70
     0
  0
APPID
  5
1AD6
330
9
100
AcDbSymbolTableRecord
100
AcDbRegAppTableRecord
  2
CONTENTCURRENTTAB
 70
     0
  0
APPID
  5
1AD7
330
9
100
AcDbSymbolTableRecord
100
AcDbRegAppTableRecord
  2
CONTENTBLOCKDESCRIPTION
 70
     0
  0
APPID
  5
1AD8
330
9
100
AcDbSymbolTableRecord
100
AcDbRegAppTableRecord
  2
CONTENTBLOCKICON
 70
     0
  0
APPID
  5
1AD9
330
9
100
AcDbSymbolTableRecord
100
AcDbRegAppTableRecord
  2
EX_DIM
 70
     0
  0
APPID
  5
1ADA
330
9
100
AcDbSymbolTableRecord
100
AcDbRegAppTableRecord
  2
EX_ETC
 70
     0
  0
APPID
  5
1ADB
330
9
100
AcDbSymbolTableRecord
100
AcDbRegAppTableRecord
  2
EX_TSTY
 70
     0
  0
APPID
  5
1ADC
330
9
100
AcDbSymbolTableRecord
100
AcDbRegAppTableRecord
  2
EX_TSTYL
 70
     0
  0
APPID
  5
1ADD
330
9
100
AcDbSymbolTableRecord
100
AcDbRegAppTableRecord
  2
EX_TCON
 70
     0
  0
APPID
  5
1ADE
330
9
100
AcDbSymbolTableRecord
100
AcDbRegAppTableRecord
  2
EX_TCONL
 70
     0
  0
APPID
  5
1ADF
330
9
100
AcDbSymbolTableRecord
100
AcDbRegAppTableRecord
  2
DRAWINGVARIABLESXDATA
 70
     0
  0
APPID
  5
1F70
330
9
100
AcDbSymbolTableRecord
100
AcDbRegAppTableRecord
  2
X_OBJNAME
 70
     0
  0
APPID
  5
1F71
330
9
100
AcDbSymbolTableRecord
100
AcDbRegAppTableRecord
  2
X_PARAM_BALLOON
 70
     0
  0
APPID
  5
1F72
330
9
100
AcDbSymbolTableRecord
100
AcDbRegAppTableRecord
  2
X_PARAM_TXTPATERN
 70
     0
  0
APPID
  5
1F73
330
9
100
AcDbSymbolTableRecord
100
AcDbRegAppTableRecord
  2
X_PARAM_CTXTPATERN
 70
     0
  0
APPID
  5
1F74
330
9
100
AcDbSymbolTableRecord
100
AcDbRegAppTableRecord
  2
X_PARAM_SYSVAL
 70
     0
  0
APPID
  5
1F75
330
9
100
AcDbSymbolTableRecord
100
AcDbRegAppTableRecord
  2
X_DEFINELIST
 70
     0
  0
APPID
  5
1F76
330
9
100
AcDbSymbolTableRecord
100
AcDbRegAppTableRecord
  2
X_UNIONHANDLE
 70
     0
  0
APPID
  5
1F77
330
9
100
AcDbSymbolTableRecord
100
AcDbRegAppTableRecord
  2
X_PARENTHANDLE
 70
     0
  0
APPID
  5
1F78
330
9
100
AcDbSymbolTableRecord
100
AcDbRegAppTableRecord
  2
X_OBJDATA
 70
     0
  0
APPID
  5
1F79
330
9
100
AcDbSymbolTableRecord
100
AcDbRegAppTableRecord
  2
DCO15
 70
     0
  0
APPID
  5
1F7A
330
9
100
AcDbSymbolTableRecord
100
AcDbRegAppTableRecord
  2
PRODULE_A
 70
     0
  0
APPID
  5
1F7B
330
9
100
AcDbSymbolTableRecord
100
AcDbRegAppTableRecord
  2
TOGO
 70
     0
  0
APPID
  5
16B03
330
9
100
AcDbSymbolTableRecord
100
AcDbRegAppTableRecord
  2
AcAecLayerStandard
 70
     0
  0
APPID
  5
26E49
330
9
100
AcDbSymbolTableRecord
100
AcDbRegAppTableRecord
  2
ACAD_PSEXT
 70
     0
  0
ENDTAB
  0
TABLE
  2
DIMSTYLE
  5
A
330
0
100
AcDbSymbolTable
 70
     9
100
AcDbDimStyleTable
 71
     4
340
2FADF
340
11F18
340
2FADE
340
2FAE1
  0
DIMSTYLE
105
4A
330
A
100
AcDbSymbolTableRecord
100
AcDbDimStyleTableRecord
  2
dim
 70
     0
 41
2.5
 42
3.0
 43
5.0
 44
1.0
 73
     0
 74
     0
 77
     1
 78
     8
140
2.5
141
0.0
143
0.03937007874016
147
0.3
171
     3
172
     1
271
     2
272
     2
274
     3
277
     6
279
     2
283
     0
284
     8
340
43
341
46
342
46
  0
DIMSTYLE
105
1AD4
330
A
100
AcDbSymbolTableRecord
100
AcDbDimStyleTableRecord
  2
Standard
 70
     0
340
11
  0
DIMSTYLE
105
4C00
330
A
100
AcDbSymbolTableRecord
100
AcDbDimStyleTableRecord
  2
ISO-25
 70
     0
 41
2.5
 42
0.625
 43
3.75
 44
1.25
 73
     0
 74
     0
 77
     1
 78
     8
140
2.5
141
2.5
143
0.03937007874016
147
0.625
171
     3
172
     1
271
     2
272
     2
274
     3
283
     0
284
     8
340
11
  0
DIMSTYLE
105
11F18
330
A
100
AcDbSymbolTableRecord
100
AcDbDimStyleTableRecord
  2
Std2
 70
     0
 40
2.0
 41
2.299999999999999
 42
2.0
 43
8.0
 44
1.0
 73
     0
 74
     0
 77
     1
 78
     8
140
3.0
141
0.0
143
0.03937007874016
147
1.0
171
     3
172
     1
176
     3
177
     3
178
     2
271
     1
272
     1
274
     3
277
     6
279
     2
283
     0
284
     8
340
36CD
341
36C5
342
36C5
371
     9
372
     9
  0
DIMSTYLE
105
2FADE
102
{ACAD_REACTORS
330
30748
330
3074F
330
3079A
330
3079E
330
3079F
330
307A0
330
307A3
330
307A5
330
307C1
330
307C2
330
307C3
330
307CA
330
307DB
330
307DF
330
307E1
330
307E9
330
307EA
330
307EB
330
307F2
330
307FF
330
30802
330
30812
330
3081A
330
3081B
330
30822
330
30840
102
}
330
A
100
AcDbSymbolTableRecord
100
AcDbDimStyleTableRecord
  2
dim2
 70
     0
 40
2.0
 41
3.5
 42
2.0
 43
8.0
 44
1.0
 73
     0
 74
     0
 77
     1
 78
     8
140
3.0
141
0.0
143
0.03937007874016
147
0.6
171
     3
172
     1
176
     3
177
     3
178
     2
271
     1
272
     1
274
     3
277
     6
279
     2
283
     0
284
     8
340
36CD
341
2F99B
342
46
371
     9
372
     9
  0
DIMSTYLE
105
2FADF
330
A
100
AcDbSymbolTableRecord
100
AcDbDimStyleTableRecord
  2
dim2de
 70
     0
 40
2.0
 41
3.5
 42
2.0
 43
8.0
 44
1.0
 73
     0
 74
     0
 77
     1
 78
     8
140
3.0
141
0.0
143
0.03937007874016
147
0.5
171
     3
172
     1
176
   256
177
   256
178
   256
271
     1
272
     1
274
     3
277
     6
279
     2
283
     0
284
     8
340
36CD
341
46
342
46
371
     9
372
     9
  0
DIMSTYLE
105
2FAE0
102
{ACAD_REACTORS
330
30754
102
}
330
A
100
AcDbSymbolTableRecord
100
AcDbDimStyleTableRecord
  2
Std2de
 70
     0
 40
2.0
 41
2.299999999999999
 42
2.0
 43
8.0
 44
1.0
 73
     0
 74
     0
 77
     1
 78
     8
140
3.0
141
0.0
143
0.03937007874016
147
1.0
171
     3
172
     1
271
     1
272
     1
274
     3
277
     6
279
     2
283
     0
284
     8
340
36CD
341
36C5
342
36C5
371
     9
372
     9
  0
DIMSTYLE
105
2FAE1
330
A
100
AcDbSymbolTableRecord
100
AcDbDimStyleTableRecord
  2
dim2_20
 70
     0
 40
2.0
 41
3.5
 42
2.0
 43
8.0
 44
1.0
 73
     0
 74
     0
 77
     1
 78
     8
140
3.0
141
0.0
143
0.03937007874016
144
10.0
147
0.5
171
     3
172
     1
176
     3
177
     3
178
     2
271
     1
272
     1
274
     3
277
     6
279
     2
283
     0
284
     8
340
36CD
341
46
342
46
371
     9
372
     9
  0
DIMSTYLE
105
30258
102
{ACAD_REACTORS
330
30781
330
3085F
330
30708
102
}
330
A
100
AcDbSymbolTableRecord
100
AcDbDimStyleTableRecord
  2
dim2_30
 70
     0
 40
2.0
 41
3.5
 42
2.0
 43
8.0
 44
1.0
 73
     0
 74
     0
 77
     1
 78
     8
140
3.0
141
0.0
143
0.03937007874016
144
15.0
147
0.5
171
     3
172
     1
176
     3
177
     3
178
     2
271
     1
272
     1
274
     3
277
     6
279
     2
283
     0
284
     8
340
36CD
341
46
342
46
371
     9
372
     9
  0
ENDTAB
  0
TABLE
  2
BLOCK_RECORD
  5
1
330
0
100
AcDbSymbolTable
 70
    36
  0
BLOCK_RECORD
  5
1F
330
1
100
AcDbSymbolTableRecord
100
AcDbBlockTableRecord
  2
*Model_Space
340
22
  0
BLOCK_RECORD
  5
1B
330
1
100
AcDbSymbolTableRecord
100
AcDbBlockTableRecord
  2
*Paper_Space
340
1E
  0
BLOCK_RECORD
  5
23
330
1
100
AcDbSymbolTableRecord
100
AcDbBlockTableRecord
  2
*Paper_Space0
340
26
  0
BLOCK_RECORD
  5
46
330
1
100
AcDbSymbolTableRecord
100
AcDbBlockTableRecord
  2
_DotSmall
340
0
102
{BLKREFS
331
30FE9
331
30FEA
331
30FF3
331
30FF4
331
30FFC
331
30FFD
331
31005
331
31006
331
3100F
331
31010
331
31018
331
31019
331
3115B
331
3115C
331
31164
331
31165
331
3117F
331
31180
331
311CE
331
311CF
331
311D6
331
311D7
331
311DF
331
311E0
331
311E8
331
311E9
331
311F1
331
311F2
331
311FA
331
311FB
331
31204
331
31205
331
3120C
331
3120D
331
31215
331
31216
331
3121E
331
3121F
331
31228
331
31229
331
31230
331
31238
331
31239
331
31242
331
31243
331
3124A
331
3124B
331
31253
331
31254
331
3125C
331
3125D
331
31266
331
31267
331
3126E
331
3126F
331
3127F
331
31280
102
}
  0
BLOCK_RECORD
  5
36C5
330
1
100
AcDbSymbolTableRecord
100
AcDbBlockTableRecord
  2
ARRI
340
0
310
2800000020000000200000000100080000000000000400000000000000000000000000000000000000000000000080000080000000808000800000008000800080800000C0C0C000C0DCC000F0CAA6000020400000206000002080000020A0000020C0000020E00000400000004020000040400000406000004080000040A0
310
000040C0000040E00000600000006020000060400000606000006080000060A0000060C0000060E00000800000008020000080400000806000008080000080A0000080C0000080E00000A0000000A0200000A0400000A0600000A0800000A0A00000A0C00000A0E00000C0000000C0200000C0400000C0600000C0800000C0
310
A00000C0C00000C0E00000E0000000E0200000E0400000E0600000E0800000E0A00000E0C00000E0E00040000000400020004000400040006000400080004000A0004000C0004000E00040200000402020004020400040206000402080004020A0004020C0004020E000404000004040200040404000404060004040800040
310
40A0004040C0004040E00040600000406020004060400040606000406080004060A0004060C0004060E00040800000408020004080400040806000408080004080A0004080C0004080E00040A0000040A0200040A0400040A0600040A0800040A0A00040A0C00040A0E00040C0000040C0200040C0400040C0600040C08000
310
40C0A00040C0C00040C0E00040E0000040E0200040E0400040E0600040E0800040E0A00040E0C00040E0E00080000000800020008000400080006000800080008000A0008000C0008000E00080200000802020008020400080206000802080008020A0008020C0008020E00080400000804020008040400080406000804080
310
008040A0008040C0008040E00080600000806020008060400080606000806080008060A0008060C0008060E00080800000808020008080400080806000808080008080A0008080C0008080E00080A0000080A0200080A0400080A0600080A0800080A0A00080A0C00080A0E00080C0000080C0200080C0400080C0600080C0
310
800080C0A00080C0C00080C0E00080E0000080E0200080E0400080E0600080E0800080E0A00080E0C00080E0E000C0000000C0002000C0004000C0006000C0008000C000A000C000C000C000E000C0200000C0202000C0204000C0206000C0208000C020A000C020C000C020E000C0400000C0402000C0404000C0406000C0
310
408000C040A000C040C000C040E000C0600000C0602000C0604000C0606000C0608000C060A000C060C000C060E000C0800000C0802000C0804000C0806000C0808000C080A000C080C000C080E000C0A00000C0A02000C0A04000C0A06000C0A08000C0A0A000C0A0C000C0A0E000C0C00000C0C02000C0C04000C0C06000
310
C0C08000C0C0A000F0FBFF00A4A0A000808080000000FF0000FF000000FFFF00FF000000FF00FF00FFFF0000FFFFFF0000000000000000000000000000000000000000000000000000000000000000000000000000000000000000000000000000000000000000000000000000000000000000000000000000000000000000
310
00000000000000000000000000000000000000000000000000000000000000000000000000000000000000000000000000000000000000000000000000000000000000000000000000000000000000000000000000000000000000000000000000000000000000000000000000000000000000000000000000000000000000
310
00000000000000000000000000000000000000000000000000000000000000000000000000000000000000000000000000000000000000000000000000000000000000000000000000000000000000000000000000000000000000000000000000000000000000000000000000000000000000FFFFFF000000000000000000
310
0000000000000000000000000000000000000000000000FFFFFFFFFF0000000000000000000000000000000000000000000000000000000000000000FFFFFFFFFF0000000000000000000000000000000000000000000000000000000000000000FFFFFFFF0000000000000000000000000000000000000000000000000000
310
000000000000FFFFFFFFFF0000000000000000000000000000000000000000000000000000000000000000FFFFFFFFFF0000000000FFFFFFFFFFFFFFFFFFFFFFFFFFFFFFFFFFFFFFFFFFFFFFFFFFFFFFFFFFFF0000000000000000000000000000000000000000000000FFFFFFFFFFFF000000000000000000000000000000
310
0000000000FFFFFFFFFFFF0000000000000000000000000000000000000000FFFFFFFFFFFF0000000000000000000000000000000000000000FFFFFFFFFFFF0000000000000000000000000000000000000000000000FFFFFF0000000000000000000000000000000000000000000000000000000000000000000000000000
310
00000000000000000000000000000000000000000000000000000000000000000000000000000000000000000000000000000000000000000000000000000000000000000000000000000000000000000000000000000000000000000000000000000000000000000000000000000000000000000000000000000000000000
310
00000000000000000000000000000000000000000000000000000000000000000000000000000000000000000000000000000000000000000000000000000000000000000000000000000000000000000000000000000000000000000000000000000000000000000000000000000000000000000000000000000000000000
310
0000000000000000000000000000000000000000000000000000000000000000000000000000000000000000000000000000000000000000
102
{BLKREFS
331
31278
331
31279
102
}
  0
BLOCK_RECORD
  5
3829
330
1
100
AcDbSymbolTableRecord
100
AcDbBlockTableRecord
  2
二葉ﾛｺﾞ
340
0
310
2800000020000000200000000100080000000000000400000000000000000000000000000000000000000000000080000080000000808000800000008000800080800000C0C0C000C0DCC000F0CAA6000020400000206000002080000020A0000020C0000020E00000400000004020000040400000406000004080000040A0
310
000040C0000040E00000600000006020000060400000606000006080000060A0000060C0000060E00000800000008020000080400000806000008080000080A0000080C0000080E00000A0000000A0200000A0400000A0600000A0800000A0A00000A0C00000A0E00000C0000000C0200000C0400000C0600000C0800000C0
310
A00000C0C00000C0E00000E0000000E0200000E0400000E0600000E0800000E0A00000E0C00000E0E00040000000400020004000400040006000400080004000A0004000C0004000E00040200000402020004020400040206000402080004020A0004020C0004020E000404000004040200040404000404060004040800040
310
40A0004040C0004040E00040600000406020004060400040606000406080004060A0004060C0004060E00040800000408020004080400040806000408080004080A0004080C0004080E00040A0000040A0200040A0400040A0600040A0800040A0A00040A0C00040A0E00040C0000040C0200040C0400040C0600040C08000
310
40C0A00040C0C00040C0E00040E0000040E0200040E0400040E0600040E0800040E0A00040E0C00040E0E00080000000800020008000400080006000800080008000A0008000C0008000E00080200000802020008020400080206000802080008020A0008020C0008020E00080400000804020008040400080406000804080
310
008040A0008040C0008040E00080600000806020008060400080606000806080008060A0008060C0008060E00080800000808020008080400080806000808080008080A0008080C0008080E00080A0000080A0200080A0400080A0600080A0800080A0A00080A0C00080A0E00080C0000080C0200080C0400080C0600080C0
310
800080C0A00080C0C00080C0E00080E0000080E0200080E0400080E0600080E0800080E0A00080E0C00080E0E000C0000000C0002000C0004000C0006000C0008000C000A000C000C000C000E000C0200000C0202000C0204000C0206000C0208000C020A000C020C000C020E000C0400000C0402000C0404000C0406000C0
310
408000C040A000C040C000C040E000C0600000C0602000C0604000C0606000C0608000C060A000C060C000C060E000C0800000C0802000C0804000C0806000C0808000C080A000C080C000C080E000C0A00000C0A02000C0A04000C0A06000C0A08000C0A0A000C0A0C000C0A0E000C0C00000C0C02000C0C04000C0C06000
310
C0C08000C0C0A000F0FBFF00A4A0A000808080000000FF0000FF000000FFFF00FF000000FF00FF00FFFF0000FFFFFF000000000000000000000000000000000000000000000000000000000000000000000000000000000000000000000000FFFFFF000000000000000000000000000000000000000000000000FFFFFFFFFF
310
000000FFFFFF0000000000000000000000000000000000000000FF0000FFFF000000FFFFFF00FFFF0000000000000000000000000000000000FF000000FFFF000000FFFFFFFF0000FFFF00000000000000000000000000FFFFFFFF000000FFFF0000FFFFFFFF00FFFF00FF0000000000000000000000FF00FFFFFFFF0000FF
310
FFFF00FFFFFF00FFFFFFFFFFFF000000000000000000FF0000FFFFFFFFFFFFFFFFFF00FFFF00FFFFFFFFFFFF00FF00000000000000FF000000FFFF00FFFF0000000000000000FFFFFFFFFFFF00FF00000000000000FF000000FFFFFF0000000000000000000000FFFFFF000000FFFF0000000000FF000000FFFFFFFF000000
310
000000000000000000000000FFFFFFFF0000000000FF00FFFFFFFFFF000000000000000000000000000000FFFFFFFFFFFF00000000FFFFFFFFFFFFFF000000000000000000000000000000FFFFFFFFFFFF000000FF00000000FFFF000000000000000000000000000000000000000000FF000000FF00000000000000000000
310
000000000000000000000000000000000000FF0000FF0000FFFFFFFFFFFFFFFFFFFFFFFFFFFFFFFFFFFFFFFFFFFFFFFFFF00FF0000FF00FFFFFFFFFFFFFFFFFFFFFFFFFFFFFFFFFFFFFFFFFFFFFFFFFFFF00FF0000FF00FFFFFFFFFFFFFFFFFFFFFFFFFFFFFFFFFFFFFFFFFFFFFFFFFFFF00FF0000FF00FFFFFFFFFFFFFFFF
310
FFFFFFFF0000FFFFFFFFFFFFFFFFFFFFFFFFFF00000000FF00FFFFFFFFFFFFFFFFFFFFFF000000FFFFFFFFFFFFFFFFFFFF00FF00000000FF00FFFFFFFFFFFFFFFFFFFF0000000000FFFFFFFFFFFFFFFFFF00FF00000000FF00FFFFFFFFFFFFFFFFFFFF0000000000FFFFFFFFFFFFFFFFFFFF000000000000FF00FFFFFFFFFF
310
FFFFFF000000000000FFFFFFFFFFFFFFFF00FF000000000000FF00FFFFFFFFFFFFFFFF00000000000000FFFFFFFFFFFFFFFF0000000000000000FF00FFFFFFFFFFFF000000000000000000FFFFFFFFFF00FF000000000000000000FF00FFFFFFFFFF000000000000000000FFFFFFFF00FF0000000000000000000000FFFFFF
310
FFFF0000000000000000000000FFFF00FF0000000000000000000000000000FF0000000000000000000000000000FFFF00000000000000000000000000000000FF0000000000000000000000FFFF00000000000000000000000000000000000000FFFFFFFFFF000000FFFFFF00000000000000000000000000000000000000
310
00000000000000FFFFFF00000000000000000000000000000000000000000000000000000000000000000000000000000000000000000000
102
{BLKREFS
331
306F1
102
}
1001
ACAD
1000
DesignCenter Data
1002
{
1070
     1
1070
     4
1002
}
  0
BLOCK_RECORD
  5
2C7EC
330
1
100
AcDbSymbolTableRecord
100
AcDbBlockTableRecord
  2
_ClosedBlank
340
0
102
{BLKREFS
331
31231
102
}
  0
BLOCK_RECORD
  5
2F99B
330
1
100
AcDbSymbolTableRecord
100
AcDbBlockTableRecord
  2
_Open30
340
0
  0
BLOCK_RECORD
  5
308B8
330
1
100
AcDbSymbolTableRecord
100
AcDbBlockTableRecord
  2
*D6
340
0
  0
BLOCK_RECORD
  5
308C3
330
1
100
AcDbSymbolTableRecord
100
AcDbBlockTableRecord
  2
*D7
340
0
  0
BLOCK_RECORD
  5
308CF
330
1
100
AcDbSymbolTableRecord
100
AcDbBlockTableRecord
  2
*D8
340
0
  0
BLOCK_RECORD
  5
308DA
330
1
100
AcDbSymbolTableRecord
100
AcDbBlockTableRecord
  2
*D9
340
0
  0
BLOCK_RECORD
  5
308E6
330
1
100
AcDbSymbolTableRecord
100
AcDbBlockTableRecord
  2
*D10
340
0
  0
BLOCK_RECORD
  5
308F2
330
1
100
AcDbSymbolTableRecord
100
AcDbBlockTableRecord
  2
*D11
340
0
  0
BLOCK_RECORD
  5
308FF
330
1
100
AcDbSymbolTableRecord
100
AcDbBlockTableRecord
  2
*D12
340
0
  0
BLOCK_RECORD
  5
3090B
330
1
100
AcDbSymbolTableRecord
100
AcDbBlockTableRecord
  2
*D13
340
0
  0
BLOCK_RECORD
  5
30917
330
1
100
AcDbSymbolTableRecord
100
AcDbBlockTableRecord
  2
*D14
340
0
  0
BLOCK_RECORD
  5
30924
330
1
100
AcDbSymbolTableRecord
100
AcDbBlockTableRecord
  2
*D15
340
0
  0
BLOCK_RECORD
  5
30930
330
1
100
AcDbSymbolTableRecord
100
AcDbBlockTableRecord
  2
*D16
340
0
  0
BLOCK_RECORD
  5
3093C
330
1
100
AcDbSymbolTableRecord
100
AcDbBlockTableRecord
  2
*D17
340
0
  0
BLOCK_RECORD
  5
30948
330
1
100
AcDbSymbolTableRecord
100
AcDbBlockTableRecord
  2
*D18
340
0
  0
BLOCK_RECORD
  5
30954
330
1
100
AcDbSymbolTableRecord
100
AcDbBlockTableRecord
  2
*D19
340
0
  0
BLOCK_RECORD
  5
30960
330
1
100
AcDbSymbolTableRecord
100
AcDbBlockTableRecord
  2
*D20
340
0
  0
BLOCK_RECORD
  5
3096C
330
1
100
AcDbSymbolTableRecord
100
AcDbBlockTableRecord
  2
*D21
340
0
  0
BLOCK_RECORD
  5
30978
330
1
100
AcDbSymbolTableRecord
100
AcDbBlockTableRecord
  2
*D22
340
0
  0
BLOCK_RECORD
  5
30984
330
1
100
AcDbSymbolTableRecord
100
AcDbBlockTableRecord
  2
*D23
340
0
  0
BLOCK_RECORD
  5
30990
330
1
100
AcDbSymbolTableRecord
100
AcDbBlockTableRecord
  2
*D24
340
0
  0
BLOCK_RECORD
  5
3099C
330
1
100
AcDbSymbolTableRecord
100
AcDbBlockTableRecord
  2
*D25
340
0
  0
BLOCK_RECORD
  5
309A8
330
1
100
AcDbSymbolTableRecord
100
AcDbBlockTableRecord
  2
*D26
340
0
  0
BLOCK_RECORD
  5
309B4
330
1
100
AcDbSymbolTableRecord
100
AcDbBlockTableRecord
  2
*D27
340
0
  0
BLOCK_RECORD
  5
309C0
330
1
100
AcDbSymbolTableRecord
100
AcDbBlockTableRecord
  2
*D28
340
0
  0
BLOCK_RECORD
  5
309CC
330
1
100
AcDbSymbolTableRecord
100
AcDbBlockTableRecord
  2
*D29
340
0
  0
BLOCK_RECORD
  5
309D8
330
1
100
AcDbSymbolTableRecord
100
AcDbBlockTableRecord
  2
*D30
340
0
  0
BLOCK_RECORD
  5
309E4
330
1
100
AcDbSymbolTableRecord
100
AcDbBlockTableRecord
  2
*D31
340
0
  0
BLOCK_RECORD
  5
309F0
330
1
100
AcDbSymbolTableRecord
100
AcDbBlockTableRecord
  2
*D32
340
0
  0
BLOCK_RECORD
  5
309FC
330
1
100
AcDbSymbolTableRecord
100
AcDbBlockTableRecord
  2
*D33
340
0
  0
BLOCK_RECORD
  5
30A08
330
1
100
AcDbSymbolTableRecord
100
AcDbBlockTableRecord
  2
*D34
340
0
  0
BLOCK_RECORD
  5
30A2C
330
1
100
AcDbSymbolTableRecord
100
AcDbBlockTableRecord
  2
*D35
340
0
  0
ENDTAB
  0
ENDSEC
  0
SECTION
  2
BLOCKS
  0
BLOCK
  5
20
330
1F
100
AcDbEntity
  8
0
100
AcDbBlockBegin
  2
*Model_Space
 70
     0
 10
0.0
 20
0.0
 30
0.0
  3
*Model_Space
  1

  0
ENDBLK
  5
21
330
1F
100
AcDbEntity
  8
0
100
AcDbBlockEnd
  0
BLOCK
  5
1C
330
1B
100
AcDbEntity
 67
     1
  8
0
100
AcDbBlockBegin
  2
*Paper_Space
 70
     0
 10
0.0
 20
0.0
 30
0.0
  3
*Paper_Space
  1

  0
ENDBLK
  5
1D
330
1B
100
AcDbEntity
 67
     1
  8
0
100
AcDbBlockEnd
  0
BLOCK
  5
24
330
23
100
AcDbEntity
  8
0
100
AcDbBlockBegin
  2
*Paper_Space0
 70
     0
 10
0.0
 20
0.0
 30
0.0
  3
*Paper_Space0
  1

  0
ENDBLK
  5
25
330
23
100
AcDbEntity
  8
0
100
AcDbBlockEnd
  0
BLOCK
  5
48
330
46
100
AcDbEntity
  8
0
100
AcDbBlockBegin
  2
_DotSmall
 70
     0
 10
0.0
 20
0.0
 30
0.0
  3
_DotSmall
  1

  0
LWPOLYLINE
  5
47
330
46
100
AcDbEntity
  8
0
  6
ByBlock
 62
     0
100
AcDbPolyline
 90
        2
 70
     1
 43
0.5
 10
-0.0625
 20
0.0
 42
1.0
 10
0.0625
 20
0.0
 42
1.0
  0
ENDBLK
  5
49
330
46
100
AcDbEntity
  8
0
100
AcDbBlockEnd
  0
BLOCK
  5
36C6
330
36C5
100
AcDbEntity
  8
0
100
AcDbBlockBegin
  2
ARRI
 70
     0
 10
0.0
 20
0.0
 30
0.0
  3
ARRI
  1

  0
LINE
  5
36C7
330
36C5
100
AcDbEntity
  8
0
  6
ByBlock
 62
     0
100
AcDbLine
 10
-0.9999999999995168
 20
-0.2125565616699987
 30
0.0
 11
0.0000000000005826
 21
0.0000000000000142
 31
0.0
  0
LINE
  5
36C8
330
36C5
100
AcDbEntity
  8
0
  6
ByBlock
 62
     0
100
AcDbLine
 10
0.0000000000005826
 20
0.0000000000000142
 30
0.0
 11
-0.9999999999995168
 21
0.2125565616699276
 31
0.0
  0
LINE
  5
36C9
330
36C5
100
AcDbEntity
  8
0
  6
ByBlock
 62
     0
100
AcDbLine
 10
0.0000000000004832
 20
0.0
 30
0.0
 11
-0.9999999999995168
 21
0.0000000000000284
 31
0.0
  0
ENDBLK
  5
36CA
330
36C5
100
AcDbEntity
  8
0
100
AcDbBlockEnd
  0
BLOCK
  5
382A
330
3829
100
AcDbEntity
  8
0
100
AcDbBlockBegin
  2
二葉ﾛｺﾞ
 70
     0
 10
0.0
 20
0.0
 30
0.0
  3
二葉ﾛｺﾞ
  1

  0
HATCH
  5
382B
330
3829
100
AcDbEntity
  8
0
  6
ByBlock
 62
     0
370
     0
100
AcDbHatch
 10
0.0
 20
0.0
 30
0.0
210
0.0
220
0.0
230
1.0
  2
SOLID
 70
     1
 71
     0
 91
        2
 92
       16
 93
        3
 72
     1
 10
76.73769930424715
 20
-36.71304457298436
 11
79.78414802696352
 21
-29.1412168510102
 72
     1
 10
79.78414802696534
 20
-29.14121685100997
 11
66.50084414551566
 21
-28.19627637481938
 72
     1
 10
66.50084414551748
 20
-28.19627637481915
 11
76.73769930424715
 21
-36.71304457298379
 97
        0
 92
        1
 93
        8
 72
     1
 10
84.6811051822242
 20
-43.32270634133806
 11
82.15388156491099
 21
-49.6075448210006
 72
     1
 10
82.15388156491099
 20
-49.60754482100004
 11
59.39410431416582
 21
-29.26425597551384
 72
     1
 10
59.39410431417127
 20
-29.2642559755144
 11
62.12557287816162
 21
-22.47249630289525
 72
     1
 10
62.12557287815798
 20
-22.47249630289502
 11
92.63189340767349
 21
-23.55277981603967
 72
     1
 10
92.63189340767349
 20
-23.55277981604013
 11
90.10466979036028
 21
-29.83761829570267
 72
     1
 10
90.10466979035482
 20
-29.83761829570301
 11
84.56544840518654
 21
-29.45619700974067
 72
     1
 10
84.56544840519018
 20
-29.45619700973987
 11
80.41902990940617
 21
-39.76441486068234
 72
     1
 10
80.41902990940434
 20
-39.76441486068291
 11
84.6811051822242
 21
-43.32270634133749
 97
        0
 75
     0
 76
     1
 98
        1
 10
-710.8849522954551
 20
-714.907159621347
450
        0
451
        0
460
0.0
461
0.0
452
        1
462
1.0
453
        2
463
0.0
 63
     5
421
      255
463
1.0
 63
    51
421
 16777113
470
LINEAR
  0
HATCH
  5
382C
330
3829
100
AcDbEntity
  8
0
  6
ByBlock
 62
     0
370
     0
100
AcDbHatch
 10
0.0
 20
0.0
 30
0.0
210
0.0
220
0.0
230
1.0
  2
SOLID
 70
     1
 71
     0
 91
        3
 92
        1
 93
        1
 72
     4
 94
        3
 73
     0
 74
     0
 95
       29
 96
       25
 40
0.0
 40
0.0
 40
0.0
 40
0.0
 40
1.0
 40
1.0
 40
1.0
 40
2.0
 40
2.0
 40
2.0
 40
3.0
 40
3.0
 40
3.0
 40
4.0
 40
4.0
 40
4.0
 40
5.0
 40
5.0
 40
5.0
 40
6.0
 40
6.0
 40
6.0
 40
7.0
 40
7.0
 40
7.0
 40
8.0
 40
8.0
 40
8.0
 40
8.0
 10
64.57897302076526
 20
-69.57925551048436
 10
64.57897302076526
 20
-69.57925551048436
 10
52.10280579606297
 20
-79.93422822873879
 10
52.10280579606297
 20
-79.93422822873879
 10
52.10280579606297
 20
-79.93422822873879
 10
33.77243702746091
 20
-57.84132303280569
 10
33.77243702746091
 20
-57.84132303280569
 10
33.77243702746091
 20
-57.84132303280569
 10
45.66047723703195
 20
-47.97850681256806
 10
45.66047723703195
 20
-47.97850681256806
 10
49.97668972463362
 20
-44.39806828950224
 10
54.5660490686314
 20
-44.565401498828
 10
57.30982154507183
 20
-47.87269316549429
 10
59.98469211178417
 20
-51.09631822749872
 10
58.48607557533068
 20
-53.85485539887724
 10
57.76752708822641
 20
-55.20828576842075
 10
59.02990850563583
 20
-54.68167831554456
 10
59.66971195305632
 20
-54.48235493384709
 10
60.7327699887719
 20
-54.45282554396658
 10
62.78752336798607
 20
-54.35931580934379
 10
64.88411004953741
 20
-55.17383481356012
 10
66.53529510037697
 20
-57.16460784803349
 10
69.67525355771977
 20
-60.94929131777576
 10
68.86811690097056
 20
-66.02342481231914
 10
64.57897302076526
 20
-69.57925551048436
 97
        0
 92
       16
 93
        1
 72
     4
 94
        3
 73
     0
 74
     0
 95
       20
 96
       16
 40
0.0
 40
0.0
 40
0.0
 40
0.0
 40
1.0
 40
1.0
 40
1.0
 40
2.0
 40
2.0
 40
2.0
 40
3.0
 40
3.0
 40
3.0
 40
4.0
 40
4.0
 40
4.0
 40
5.0
 40
5.0
 40
5.0
 40
5.0
 10
54.74568619040656
 20
-61.26919304148657
 10
54.74568619040656
 20
-61.26919304148657
 10
49.0538962908522
 20
-65.98897385745863
 10
49.0538962908522
 20
-65.98897385745863
 10
49.0538962908522
 20
-65.98897385745863
 10
53.96069657607404
 20
-71.90469496360936
 10
53.96069657607404
 20
-71.90469496360936
 10
53.96069657607404
 20
-71.90469496360936
 10
59.6549472581155
 20
-67.18245336514724
 10
59.6549472581155
 20
-67.18245336514724
 10
61.44639691089469
 20
-65.69367995864945
 10
62.56605294387918
 20
-63.39038754793512
 10
60.70570138137918
 20
-61.14861469947323
 10
58.65833034963362
 20
-58.68291064441291
 10
56.14833220975197
 20
-60.10524292367847
 10
54.74568619040656
 20
-61.26919304148657
 97
        0
 92
       16
 93
        1
 72
     4
 94
        3
 73
     0
 74
     0
 95
       20
 96
       16
 40
0.0
 40
0.0
 40
0.0
 40
0.0
 40
1.0
 40
1.0
 40
1.0
 40
2.0
 40
2.0
 40
2.0
 40
3.0
 40
3.0
 40
3.0
 40
4.0
 40
4.0
 40
4.0
 40
5.0
 40
5.0
 40
5.0
 40
5.0
 10
52.53344273182847
 20
-53.0674050020524
 10
51.74353155250719
 20
-52.11262139590167
 10
49.99637598455411
 20
-50.86500467343069
 10
47.72507374621091
 20
-52.74996406083142
 10
47.72507374621091
 20
-52.74996406083142
 10
42.00621523926383
 20
-57.49435270170522
 10
42.00621523926383
 20
-57.49435270170522
 10
42.00621523926383
 20
-57.49435270170522
 10
46.44792763385703
 20
-62.84901540011708
 10
46.44792763385703
 20
-62.84901540011708
 10
46.44792763385703
 20
-62.84901540011708
 10
52.16924692329303
 20
-58.1046267592443
 10
52.16924692329303
 20
-58.1046267592443
 10
54.24368656243132
 20
-56.38207901618864
 10
53.53498120528638
 20
-54.27318842219086
 10
52.53344273182847
 20
-53.0674050020524
 97
        0
 75
     0
 76
     1
 98
        1
 10
-710.8849522954551
 20
-714.907159621347
450
        0
451
        0
460
0.0
461
0.0
452
        0
462
0.0
453
        2
463
0.0
 63
     5
421
      255
463
1.0
 63
    51
421
 16777113
470

  0
HATCH
  5
382D
330
3829
100
AcDbEntity
  8
0
  6
ByBlock
 62
     0
370
     0
100
AcDbHatch
 10
0.0
 20
0.0
 30
0.0
210
0.0
220
0.0
230
1.0
  2
SOLID
 70
     1
 71
     0
 91
        2
 92
        1
 93
        8
 72
     1
 10
29.27658741808591
 20
-89.607564197241
 11
26.4663738144136
 21
-84.81642068905648
 72
     1
 10
26.46637381441542
 20
-84.8164206890557
 11
15.61678381565434
 21
-87.21322283439292
 72
     1
 10
15.61678381565434
 20
-87.21322283439281
 11
15.08279401530671
 21
-92.73767952462106
 72
     1
 10
15.08279401530854
 20
-92.73767952462151
 11
8.465749899487491
 21
-94.19938432372862
 72
     1
 10
8.465749899482034
 20
-94.19938432372873
 11
12.41776657855007
 21
-63.92929891326241
 72
     1
 10
12.41776657855371
 20
-63.92929891326218
 11
19.5688004947242
 21
-62.35193733712117
 72
     1
 10
19.5688004947242
 20
-62.35193733712151
 11
35.89363153391059
 21
-88.14585939813332
 72
     1
 10
35.89363153391242
 20
-88.14585939813275
 11
29.27658741809137
 21
-89.60756419723987
 97
        0
 92
       16
 93
        3
 72
     1
 10
16.05726388137918
 20
-82.45160871608936
 11
24.02773836674715
 21
-80.69214923568257
 72
     1
 10
24.02773836674533
 20
-80.6921492356829
 11
17.30980216882744
 21
-69.19291265954223
 72
     1
 10
17.3098021688329
 20
-69.19291265954234
 11
16.05726388138282
 21
-82.45160871608993
 97
        0
 75
     0
 76
     1
 98
        1
 10
-710.8849522954551
 20
-714.907159621347
450
        0
451
        0
460
0.0
461
0.0
452
        0
462
0.0
453
        2
463
0.0
 63
     5
421
      255
463
1.0
 63
    51
421
 16777113
470

  0
HATCH
  5
382E
330
3829
100
AcDbEntity
  8
0
  6
ByBlock
 62
     0
370
     0
100
AcDbHatch
 10
0.0
 20
0.0
 30
0.0
210
0.0
220
0.0
230
1.0
  2
SOLID
 70
     1
 71
     0
 91
        1
 92
        3
 72
     0
 73
     1
 93
        8
 10
-27.98459073481536
 20
-65.15722937581142
 10
-18.55610262407572
 20
-67.39408065929456
 10
-23.94767705984123
 20
-90.11202460770642
 10
-17.53118671696029
 20
-91.63524896906585
 10
-12.14084267243743
 20
-68.91730502065297
 10
-2.712354561701431
 20
-71.15169552164502
 10
-1.477041751681099
 20
-65.93975820765741
 10
-26.74927792479503
 20
-59.94529206182358
 97
        0
 75
     2
 76
     1
 98
        1
 10
0.5032729572103563
 20
0.4066288986183509
450
        0
451
        0
460
0.0
461
0.0
452
        0
462
0.0
453
        0
470

  0
HATCH
  5
382F
330
3829
100
AcDbEntity
  8
0
  6
ByBlock
 62
     0
370
     0
100
AcDbHatch
 10
0.0
 20
0.0
 30
0.0
210
0.0
220
0.0
230
1.0
  2
SOLID
 70
     1
 71
     0
 91
        1
 92
        1
 93
        1
 72
     4
 94
        3
 73
     0
 74
     0
 95
       35
 96
       31
 40
0.0
 40
0.0
 40
0.0
 40
0.0
 40
1.0
 40
1.0
 40
1.0
 40
2.0
 40
2.0
 40
2.0
 40
3.0
 40
3.0
 40
3.0
 40
4.0
 40
4.0
 40
4.0
 40
5.0
 40
5.0
 40
5.0
 40
6.0
 40
6.0
 40
6.0
 40
7.0
 40
7.0
 40
7.0
 40
8.0
 40
8.0
 40
8.0
 40
9.0
 40
9.0
 40
9.0
 40
10.0
 40
10.0
 40
10.0
 40
10.0
 10
-47.53304683600435
 20
-67.45560022154575
 10
-49.14485936701203
 20
-69.33809882645642
 10
-52.52351372588782
 20
-71.09509752437372
 10
-56.78189782497248
 20
-67.44575709158585
 10
-59.10610688684937
 20
-65.45252327462151
 10
-61.03412996782572
 20
-61.87946709902667
 10
-58.07011745852651
 20
-58.42206770046437
 10
-58.07011745852651
 20
-58.42206770046437
 10
-46.33464576333972
 20
-44.73273470815297
 10
-46.33464576333972
 20
-44.73273470815297
 10
-46.33464576333972
 20
-44.73273470815297
 10
-51.31280874076947
 20
-40.46573787035595
 10
-51.31280874076947
 20
-40.46573787035595
 10
-51.31280874076947
 20
-40.46573787035595
 10
-62.78743749200839
 20
-53.85239461638718
 10
-62.78743749200839
 20
-53.85239461638718
 10
-68.92832019600246
 20
-61.01573244500776
 10
-64.98491625565112
 20
-67.60816873593069
 10
-60.17285609629652
 20
-71.73490097179456
 10
-54.11687038821401
 20
-76.92715202586157
 10
-47.48998314242817
 20
-77.42669087134823
 10
-42.32110952201765
 20
-71.39777377065297
 10
-42.32110952201765
 20
-71.39777377065297
 10
-30.84771116202137
 20
-58.00865624213168
 10
-30.84771116202137
 20
-58.00865624213168
 10
-30.84771116202137
 20
-58.00865624213168
 10
-35.79757514081939
 20
-53.7638064467443
 10
-35.79757514081939
 20
-53.7638064467443
 10
-35.79757514081939
 20
-53.7638064467443
 10
-47.53304683600435
 20
-67.45560022154575
 10
-47.53304683600435
 20
-67.45560022154575
 97
        0
 75
     2
 76
     1
 98
        1
 10
0.5032729572103563
 20
0.4066288986183509
450
        0
451
        0
460
0.0
461
0.0
452
        0
462
0.0
453
        0
470

  0
HATCH
  5
3830
330
3829
100
AcDbEntity
  8
0
  6
ByBlock
 62
     0
370
     0
100
AcDbHatch
 10
0.0
 20
0.0
 30
0.0
210
0.0
220
0.0
230
1.0
  2
SOLID
 70
     1
 71
     0
 91
        1
 92
        3
 72
     0
 73
     1
 93
       10
 10
-65.75760195753173
 20
-23.80377963002798
 10
-59.46538113040151
 20
-37.10923055388719
 10
-54.62502197241701
 20
-34.82070283811367
 10
-63.71884366450467
 20
-15.58722689565297
 10
-89.67025580488188
 20
-27.85914917367847
 10
-86.86742454868181
 20
-33.78717419228019
 10
-76.69085856095444
 20
-28.97388364168512
 10
-71.27098512655539
 20
-40.43620848047431
 10
-66.59549839540523
 20
-38.22642580438389
 10
-72.01414143855981
 20
-26.7641009655938
 97
        0
 75
     2
 76
     1
 98
        1
 10
0.5032729572103563
 20
0.4066288986183509
450
        0
451
        0
460
0.0
461
0.0
452
        0
462
0.0
453
        0
470

  0
HATCH
  5
3831
330
3829
100
AcDbEntity
  8
0
  6
ByBlock
 62
     0
370
     0
100
AcDbHatch
 10
0.0
 20
0.0
 30
0.0
210
0.0
220
0.0
230
1.0
  2
SOLID
 70
     1
 71
     0
 91
        1
 92
        1
 93
        1
 72
     4
 94
        3
 73
     0
 74
     0
 95
       41
 96
       37
 40
0.0
 40
0.0
 40
0.0
 40
0.0
 40
1.0
 40
1.0
 40
1.0
 40
2.0
 40
2.0
 40
2.0
 40
3.0
 40
3.0
 40
3.0
 40
4.0
 40
4.0
 40
4.0
 40
5.0
 40
5.0
 40
5.0
 40
6.0
 40
6.0
 40
6.0
 40
7.0
 40
7.0
 40
7.0
 40
8.0
 40
8.0
 40
8.0
 40
9.0
 40
9.0
 40
9.0
 40
10.0
 40
10.0
 40
10.0
 40
11.0
 40
11.0
 40
11.0
 40
12.0
 40
12.0
 40
12.0
 40
12.0
 10
92.32675637890134
 20
2.068887470666368
 10
92.54330523802854
 20
7.006447537010217
 10
89.35905269586147
 20
26.5672075506518
 10
84.30214467875158
 20
36.93694496384592
 10
76.89026781863322
 20
52.12858566635055
 10
62.69155285087435
 20
70.84283650340399
 10
52.19385474819318
 20
75.56753888435719
 10
48.08926955474089
 20
77.41312575191637
 10
46.59803536575418
 20
75.9440386053393
 10
45.61618315221676
 20
74.22395164477348
 10
19.70168274918797
 20
28.8926470037768
 10
7.653691677754977
 20
10.01967569611281
 10
4.907458418832902
 20
6.840344718929713
 10
2.550028793333694
 20
4.111336937431929
 10
0.0105012635740423
 20
3.701616652833763
 10
-2.743114342827539
 20
6.584423339962086
 10
-6.052866791986161
 20
10.05043547723892
 10
-41.08456632075467
 20
76.38697945355364
 10
-41.08456632075467
 20
76.38697945355364
 10
-42.52904564242817
 20
78.57584547847887
 10
-44.38693642243925
 20
79.73118285757152
 10
-47.64993400429012
 20
78.32730644698108
 10
-57.16701028466559
 20
74.23256438348892
 10
-70.9449314466201
 20
59.53431057024443
 10
-78.35311713300507
 20
47.83328982991747
 10
-80.90248779272588
 20
43.80621928490177
 10
-91.01876460944367
 20
21.83266203973892
 10
-90.9178725273523
 20
8.621951241747751
 10
-90.89326470245032
 20
5.213767492987813
 10
-90.38757390073625
 20
1.616103492491106
 10
-82.51183954123916
 20
-0.4386498867243063
 10
-82.51183954123916
 20
-0.4386498867243063
 10
87.31168166411771
 20
-2.195648584640593
 10
87.31168166411771
 20
-2.195648584640593
 10
89.73309163435443
 20
-1.89297233836146
 10
92.17418786451526
 20
-1.453722663881649
 10
92.32675637890134
 20
2.068887470666368
 97
        0
 75
     2
 76
     1
 98
        1
 10
0.5032729572103563
 20
0.4066288986183509
450
        0
451
        0
460
0.0
461
0.0
452
        0
462
0.0
453
        0
470

  0
CIRCLE
  5
3832
330
3829
100
AcDbEntity
  8
0
  6
ByBlock
 62
     0
370
    -2
100
AcDbCircle
 10
0.0
 20
0.0
 30
0.0
 40
103.5714285714286
  0
ENDBLK
  5
3833
330
3829
100
AcDbEntity
  8
0
100
AcDbBlockEnd
  0
BLOCK
  5
2C7ED
330
2C7EC
100
AcDbEntity
  8
0
100
AcDbBlockBegin
  2
_ClosedBlank
 70
     0
 10
0.0
 20
0.0
 30
0.0
  3
_ClosedBlank
  1

  0
LINE
  5
2C7EE
330
2C7EC
100
AcDbEntity
  8
0
  6
ByBlock
 62
     0
370
    -2
100
AcDbLine
 10
-1.0
 20
0.1666666666666666
 30
0.0
 11
0.0
 21
0.0
 31
0.0
  0
LINE
  5
2C7EF
330
2C7EC
100
AcDbEntity
  8
0
  6
ByBlock
 62
     0
370
    -2
100
AcDbLine
 10
0.0
 20
0.0
 30
0.0
 11
-1.0
 21
-0.1666666666666666
 31
0.0
  0
LINE
  5
2C7F0
330
2C7EC
100
AcDbEntity
  8
0
  6
ByBlock
 62
     0
370
    -2
100
AcDbLine
 10
-1.0
 20
0.1666666666666666
 30
0.0
 11
-1.0
 21
-0.1666666666666666
 31
0.0
  0
ENDBLK
  5
2C7F1
330
2C7EC
100
AcDbEntity
  8
0
100
AcDbBlockEnd
  0
BLOCK
  5
2F99C
330
2F99B
100
AcDbEntity
  8
0
100
AcDbBlockBegin
  2
_Open30
 70
     0
 10
0.0
 20
0.0
 30
0.0
  3
_Open30
  1

  0
LINE
  5
2F99D
330
2F99B
100
AcDbEntity
  8
0
  6
ByBlock
 62
     0
370
    -2
100
AcDbLine
 10
-1.0
 20
0.26794919
 30
0.0
 11
0.0
 21
0.0
 31
0.0
  0
LINE
  5
2F99E
330
2F99B
100
AcDbEntity
  8
0
  6
ByBlock
 62
     0
370
    -2
100
AcDbLine
 10
0.0
 20
0.0
 30
0.0
 11
-1.0
 21
-0.26794919
 31
0.0
  0
LINE
  5
2F99F
330
2F99B
100
AcDbEntity
  8
0
  6
ByBlock
 62
     0
370
    -2
100
AcDbLine
 10
0.0
 20
0.0
 30
0.0
 11
-1.0
 21
0.0
 31
0.0
  0
ENDBLK
  5
2F9A0
330
2F99B
100
AcDbEntity
  8
0
100
AcDbBlockEnd
  0
BLOCK
  5
308C1
330
308B8
100
AcDbEntity
  8
0
100
AcDbBlockBegin
  2
*D6
 70
     1
 10
0.0
 20
0.0
 30
0.0
  3
*D6
  1

  0
LINE
  5
3122D
330
308B8
100
AcDbEntity
  8
sunpo
 62
     3
370
     9
100
AcDbLine
 10
911.7049563950864
 20
283.0000000000008
 30
0.0
 11
843.7049563950861
 21
283.0000000000008
 31
0.0
  0
LINE
  5
3122E
330
308B8
100
AcDbEntity
  8
sunpo
 62
     3
370
     9
100
AcDbLine
 10
845.704956395086
 20
283.0000000000008
 30
0.0
 11
845.7049563950858
 21
118.5000000000021
 31
0.0
  0
MTEXT
  5
3122F
330
308B8
100
AcDbEntity
  8
sunpo
 62
     2
100
AcDbMText
 10
838.8000310555458
 20
169.6378531008457
 30
0.0
 40
6.0
 41
0.0
 71
     5
 72
     1
  1
FLマデ
  7
Std
 11
0.0000000000000001
 21
1.0
 31
0.0
 73
     1
 44
1.0
  0
INSERT
  5
31230
330
308B8
100
AcDbEntity
  8
sunpo
 62
     3
370
     9
100
AcDbBlockReference
  2
_DotSmall
 10
845.704956395086
 20
283.0000000000008
 30
0.0
 41
7.0
 42
7.0
 43
7.0
 50
90.0
  0
INSERT
  5
31231
330
308B8
100
AcDbEntity
  8
sunpo
 62
     3
370
     9
100
AcDbBlockReference
  2
_ClosedBlank
 10
845.7049563950858
 20
111.5000000000021
 30
0.0
 41
7.0
 42
7.0
 43
7.0
 50
270.0
  0
POINT
  5
31232
330
308B8
100
AcDbEntity
  8
Defpoints
 62
     0
100
AcDbPoint
 10
915.7049563950863
 20
283.0000000000008
 30
0.0
  0
POINT
  5
31233
330
308B8
100
AcDbEntity
  8
Defpoints
 62
     0
100
AcDbPoint
 10
915.7049563950863
 20
111.5000000000021
 30
0.0
  0
POINT
  5
31234
330
308B8
100
AcDbEntity
  8
Defpoints
 62
     0
100
AcDbPoint
 10
845.7049563950858
 20
111.5000000000021
 30
0.0
  0
ENDBLK
  5
308C2
330
308B8
100
AcDbEntity
  8
0
100
AcDbBlockEnd
  0
BLOCK
  5
308CD
330
308C3
100
AcDbEntity
  8
0
100
AcDbBlockBegin
  2
*D7
 70
     1
 10
0.0
 20
0.0
 30
0.0
  3
*D7
  1

  0
LINE
  5
3127C
330
308C3
100
AcDbEntity
  8
sunpo
 62
     3
370
     9
100
AcDbLine
 10
376.9230812397236
 20
576.9999999999003
 30
0.0
 11
376.9230812397236
 21
572.9999999999003
 31
0.0
  0
LINE
  5
3127D
330
308C3
100
AcDbEntity
  8
sunpo
 62
     3
370
     9
100
AcDbLine
 10
441.923081239724
 20
576.9999999999003
 30
0.0
 11
441.923081239724
 21
572.9999999999003
 31
0.0
  0
LINE
  5
3127E
330
308C3
100
AcDbEntity
  8
sunpo
 62
     3
370
     9
100
AcDbLine
 10
376.9230812397236
 20
574.9999999999004
 30
0.0
 11
441.923081239724
 21
574.9999999999004
 31
0.0
  0
INSERT
  5
3127F
330
308C3
100
AcDbEntity
  8
sunpo
 62
     3
370
     9
100
AcDbBlockReference
  2
_DotSmall
 10
376.9230812397236
 20
574.9999999999004
 30
0.0
 41
7.0
 42
7.0
 43
7.0
 50
180.0
  0
INSERT
  5
31280
330
308C3
100
AcDbEntity
  8
sunpo
 62
     3
370
     9
100
AcDbBlockReference
  2
_DotSmall
 10
441.923081239724
 20
574.9999999999004
 30
0.0
 41
7.0
 42
7.0
 43
7.0
  0
MTEXT
  5
31281
330
308C3
100
AcDbEntity
  8
sunpo
 62
     2
100
AcDbMText
 10
409.4230812397238
 20
579.1999999999005
 30
0.0
 40
6.0
 41
0.0
 71
     5
 72
     1
  1
65
  7
Std
 73
     1
 44
1.0
  0
POINT
  5
31282
330
308C3
100
AcDbEntity
  8
Defpoints
 62
     0
100
AcDbPoint
 10
376.9230812397236
 20
580.9999999999003
 30
0.0
  0
POINT
  5
31283
330
308C3
100
AcDbEntity
  8
Defpoints
 62
     0
100
AcDbPoint
 10
441.923081239724
 20
580.9999999999003
 30
0.0
  0
POINT
  5
31284
330
308C3
100
AcDbEntity
  8
Defpoints
 62
     0
100
AcDbPoint
 10
441.923081239724
 20
574.9999999999004
 30
0.0
  0
ENDBLK
  5
308CE
330
308C3
100
AcDbEntity
  8
0
100
AcDbBlockEnd
  0
BLOCK
  5
308D8
330
308CF
100
AcDbEntity
  8
0
100
AcDbBlockBegin
  2
*D8
 70
     1
 10
0.0
 20
0.0
 30
0.0
  3
*D8
  1

  0
LINE
  5
31274
330
308CF
100
AcDbEntity
  8
sunpo
 62
     0
370
     9
100
AcDbLine
 10
391.7363776145909
 20
648.5426137984061
 30
0.0
 11
395.7212409668933
 21
650.8406268670106
 31
0.0
  0
LINE
  5
31275
330
308CF
100
AcDbEntity
  8
sunpo
 62
     0
370
     9
100
AcDbLine
 10
362.1097848648652
 20
631.4573862013905
 30
0.0
 11
358.1249215125627
 21
629.1593731327861
 31
0.0
  0
MTEXT
  5
31276
330
308CF
100
AcDbEntity
  8
sunpo
 62
     0
100
AcDbMText
 10
374.2752223469463
 20
642.9840402775746
 30
0.0
 40
6.0
 41
0.0
 71
     5
 72
     1
  1
\U+220525
  7
Std
 11
0.8662746418048749
 21
0.4995680583922837
 31
0.0
 73
     1
 44
1.0
  0
LINE
  5
31277
330
308CF
100
AcDbEntity
  8
sunpo
 62
     0
370
     9
100
AcDbLine
 10
387.7515142622885
 20
646.2446007298016
 30
0.0
 11
366.0946482171675
 21
633.7553992699951
 31
0.0
  0
INSERT
  5
31278
330
308CF
100
AcDbEntity
  8
sunpo
 62
     0
370
     9
100
AcDbBlockReference
  2
ARRI
 10
387.7515142622885
 20
646.2446007298016
 30
0.0
 41
4.599999999999999
 42
4.599999999999999
 43
4.599999999999999
 50
209.9714270854309
  0
INSERT
  5
31279
330
308CF
100
AcDbEntity
  8
sunpo
 62
     0
370
     9
100
AcDbBlockReference
  2
ARRI
 10
366.0946482171675
 20
633.7553992699951
 30
0.0
 41
4.599999999999999
 42
4.599999999999999
 43
4.599999999999999
 50
29.97142708543088
  0
POINT
  5
3127A
330
308CF
100
AcDbEntity
  8
Defpoints
 62
     0
100
AcDbPoint
 10
366.0946482171675
 20
633.7553992699951
 30
0.0
  0
POINT
  5
3127B
330
308CF
100
AcDbEntity
  8
Defpoints
 62
     0
100
AcDbPoint
 10
387.7515142622885
 20
646.2446007298016
 30
0.0
  0
ENDBLK
  5
308D9
330
308CF
100
AcDbEntity
  8
0
100
AcDbBlockEnd
  0
BLOCK
  5
308E4
330
308DA
100
AcDbEntity
  8
0
100
AcDbBlockBegin
  2
*D9
 70
     1
 10
0.0
 20
0.0
 30
0.0
  3
*D9
  1

  0
LINE
  5
31158
330
308DA
100
AcDbEntity
  8
sunpo
 62
     3
370
     9
100
AcDbLine
 10
181.9230812397236
 20
392.2178329231493
 30
0.0
 11
181.9230812397236
 21
412.9511662564842
 31
0.0
  0
LINE
  5
31159
330
308DA
100
AcDbEntity
  8
sunpo
 62
     3
370
     9
100
AcDbLine
 10
421.9230812397218
 20
392.2178329231493
 30
0.0
 11
421.9230812397218
 21
412.9511662564842
 31
0.0
  0
LINE
  5
3115A
330
308DA
100
AcDbEntity
  8
sunpo
 62
     3
370
     9
100
AcDbLine
 10
181.9230812397236
 20
410.9511662564841
 30
0.0
 11
421.9230812397218
 21
410.9511662564841
 31
0.0
  0
INSERT
  5
3115B
330
308DA
100
AcDbEntity
  8
sunpo
 62
     3
370
     9
100
AcDbBlockReference
  2
_DotSmall
 10
181.9230812397236
 20
410.9511662564841
 30
0.0
 41
7.0
 42
7.0
 43
7.0
 50
180.0
  0
INSERT
  5
3115C
330
308DA
100
AcDbEntity
  8
sunpo
 62
     3
370
     9
100
AcDbBlockReference
  2
_DotSmall
 10
421.9230812397218
 20
410.9511662564841
 30
0.0
 41
7.0
 42
7.0
 43
7.0
  0
MTEXT
  5
3115D
330
308DA
100
AcDbEntity
  8
sunpo
 62
     2
100
AcDbMText
 10
301.9230812397227
 20
414.9511662564841
 30
0.0
 40
6.0
 41
0.0
 71
     5
 72
     1
  1
W
  7
Std
 73
     1
 44
1.0
  0
POINT
  5
3115E
330
308DA
100
AcDbEntity
  8
Defpoints
 62
     0
100
AcDbPoint
 10
181.9230812397236
 20
388.2178329231493
 30
0.0
  0
POINT
  5
3115F
330
308DA
100
AcDbEntity
  8
Defpoints
 62
     0
100
AcDbPoint
 10
421.9230812397218
 20
388.2178329231493
 30
0.0
  0
POINT
  5
31160
330
308DA
100
AcDbEntity
  8
Defpoints
 62
     0
100
AcDbPoint
 10
421.9230812397218
 20
410.9511662564841
 30
0.0
  0
ENDBLK
  5
308E5
330
308DA
100
AcDbEntity
  8
0
100
AcDbBlockEnd
  0
BLOCK
  5
308F0
330
308E6
100
AcDbEntity
  8
0
100
AcDbBlockBegin
  2
*D10
 70
     1
 10
0.0
 20
0.0
 30
0.0
  3
*D10
  1

  0
LINE
  5
31015
330
308E6
100
AcDbEntity
  8
sunpo
 62
     3
370
     9
100
AcDbLine
 10
669.0545819549111
 20
389.0666472463347
 30
0.0
 11
669.0545819549111
 21
402.0666472463346
 31
0.0
  0
LINE
  5
31016
330
308E6
100
AcDbEntity
  8
sunpo
 62
     3
370
     9
100
AcDbLine
 10
625.0545819549111
 20
389.0666472463347
 30
0.0
 11
625.0545819549111
 21
402.0666472463346
 31
0.0
  0
LINE
  5
31017
330
308E6
100
AcDbEntity
  8
sunpo
 62
     3
370
     9
100
AcDbLine
 10
669.0545819549111
 20
400.0666472463347
 30
0.0
 11
625.0545819549111
 21
400.0666472463347
 31
0.0
  0
INSERT
  5
31018
330
308E6
100
AcDbEntity
  8
sunpo
 62
     3
370
     9
100
AcDbBlockReference
  2
_DotSmall
 10
669.0545819549111
 20
400.0666472463347
 30
0.0
 41
7.0
 42
7.0
 43
7.0
  0
INSERT
  5
31019
330
308E6
100
AcDbEntity
  8
sunpo
 62
     3
370
     9
100
AcDbBlockReference
  2
_DotSmall
 10
625.0545819549111
 20
400.0666472463347
 30
0.0
 41
7.0
 42
7.0
 43
7.0
 50
180.0
  0
MTEXT
  5
3101A
330
308E6
100
AcDbEntity
  8
sunpo
 62
     2
100
AcDbMText
 10
647.054581954911
 20
404.2666472463347
 30
0.0
 40
6.0
 41
0.0
 71
     5
 72
     1
  1
44
  7
Std
 73
     1
 44
1.0
  0
POINT
  5
3101B
330
308E6
100
AcDbEntity
  8
Defpoints
 62
     0
100
AcDbPoint
 10
669.0545819549111
 20
385.0666472463347
 30
0.0
  0
POINT
  5
3101C
330
308E6
100
AcDbEntity
  8
Defpoints
 62
     0
100
AcDbPoint
 10
625.0545819549111
 20
385.0666472463347
 30
0.0
  0
POINT
  5
3101D
330
308E6
100
AcDbEntity
  8
Defpoints
 62
     0
100
AcDbPoint
 10
625.0545819549111
 20
400.0666472463347
 30
0.0
  0
ENDBLK
  5
308F1
330
308E6
100
AcDbEntity
  8
0
100
AcDbBlockEnd
  0
BLOCK
  5
308FD
330
308F2
100
AcDbEntity
  8
0
100
AcDbBlockBegin
  2
*D11
 70
     1
 10
0.0
 20
0.0
 30
0.0
  3
*D11
  1

  0
LINE
  5
3100B
330
308F2
100
AcDbEntity
  8
sunpo
 62
     3
370
     9
100
AcDbLine
 10
628.0545819549083
 20
320.0666472463347
 30
0.0
 11
628.0545819549083
 21
318.0666472463347
 31
0.0
  0
LINE
  5
3100C
330
308F2
100
AcDbEntity
  8
sunpo
 62
     3
370
     9
100
AcDbLine
 10
625.0545819549111
 20
327.0666472463347
 30
0.0
 11
625.0545819549111
 21
314.0666472463347
 31
0.0
  0
LINE
  5
3100D
330
308F2
100
AcDbEntity
  8
sunpo
 62
     3
370
     9
100
AcDbLine
 10
628.0545819549083
 20
316.0666472463347
 30
0.0
 11
625.0545819549111
 21
316.0666472463347
 31
0.0
  0
LINE
  5
3100E
330
308F2
100
AcDbEntity
  8
sunpo
 62
     3
370
     9
100
AcDbLine
 10
625.0545819549111
 20
316.0666472463347
 30
0.0
 11
612.4545819549108
 21
316.0666472463347
 31
0.0
  0
INSERT
  5
3100F
330
308F2
100
AcDbEntity
  8
sunpo
 62
     3
370
     9
100
AcDbBlockReference
  2
_DotSmall
 10
628.0545819549083
 20
316.0666472463347
 30
0.0
 41
7.0
 42
7.0
 43
7.0
  0
INSERT
  5
31010
330
308F2
100
AcDbEntity
  8
sunpo
 62
     3
370
     9
100
AcDbBlockReference
  2
_DotSmall
 10
625.0545819549111
 20
316.0666472463347
 30
0.0
 41
7.0
 42
7.0
 43
7.0
 50
180.0
  0
MTEXT
  5
31011
330
308F2
100
AcDbEntity
  8
sunpo
 62
     2
100
AcDbMText
 10
615.2545819549109
 20
320.2666472463347
 30
0.0
 40
6.0
 41
0.0
 71
     5
 72
     1
  1
3
  7
Std
 73
     1
 44
1.0
  0
POINT
  5
31012
330
308F2
100
AcDbEntity
  8
Defpoints
 62
     0
100
AcDbPoint
 10
628.0545819549083
 20
316.0666472463347
 30
0.0
  0
POINT
  5
31013
330
308F2
100
AcDbEntity
  8
Defpoints
 62
     0
100
AcDbPoint
 10
625.0545819549111
 20
331.0666472463347
 30
0.0
  0
POINT
  5
31014
330
308F2
100
AcDbEntity
  8
Defpoints
 62
     0
100
AcDbPoint
 10
625.0545819549111
 20
316.0666472463347
 30
0.0
  0
ENDBLK
  5
308FE
330
308F2
100
AcDbEntity
  8
0
100
AcDbBlockEnd
  0
BLOCK
  5
30909
330
308FF
100
AcDbEntity
  8
0
100
AcDbBlockBegin
  2
*D12
 70
     1
 10
0.0
 20
0.0
 30
0.0
  3
*D12
  1

  0
LINE
  5
31002
330
308FF
100
AcDbEntity
  8
sunpo
 62
     3
370
     9
100
AcDbLine
 10
628.0545819549111
 20
320.0666472463347
 30
0.0
 11
628.0545819549111
 21
318.0666472463347
 31
0.0
  0
LINE
  5
31003
330
308FF
100
AcDbEntity
  8
sunpo
 62
     3
370
     9
100
AcDbLine
 10
648.0545819549111
 20
320.0666472463347
 30
0.0
 11
648.0545819549111
 21
318.0666472463347
 31
0.0
  0
LINE
  5
31004
330
308FF
100
AcDbEntity
  8
sunpo
 62
     3
370
     9
100
AcDbLine
 10
628.0545819549111
 20
316.0666472463347
 30
0.0
 11
648.0545819549111
 21
316.0666472463347
 31
0.0
  0
INSERT
  5
31005
330
308FF
100
AcDbEntity
  8
sunpo
 62
     3
370
     9
100
AcDbBlockReference
  2
_DotSmall
 10
628.0545819549111
 20
316.0666472463347
 30
0.0
 41
7.0
 42
7.0
 43
7.0
 50
180.0
  0
INSERT
  5
31006
330
308FF
100
AcDbEntity
  8
sunpo
 62
     3
370
     9
100
AcDbBlockReference
  2
_DotSmall
 10
648.0545819549111
 20
316.0666472463347
 30
0.0
 41
7.0
 42
7.0
 43
7.0
  0
MTEXT
  5
31007
330
308FF
100
AcDbEntity
  8
sunpo
 62
     2
100
AcDbMText
 10
638.054581954911
 20
320.2666472463347
 30
0.0
 40
6.0
 41
0.0
 71
     5
 72
     1
  1
20
  7
Std
 73
     1
 44
1.0
  0
POINT
  5
31008
330
308FF
100
AcDbEntity
  8
Defpoints
 62
     0
100
AcDbPoint
 10
628.0545819549111
 20
316.0666472463347
 30
0.0
  0
POINT
  5
31009
330
308FF
100
AcDbEntity
  8
Defpoints
 62
     0
100
AcDbPoint
 10
648.0545819549111
 20
316.0666472463347
 30
0.0
  0
POINT
  5
3100A
330
308FF
100
AcDbEntity
  8
Defpoints
 62
     0
100
AcDbPoint
 10
648.0545819549111
 20
316.0666472463347
 30
0.0
  0
ENDBLK
  5
3090A
330
308FF
100
AcDbEntity
  8
0
100
AcDbBlockEnd
  0
BLOCK
  5
30915
330
3090B
100
AcDbEntity
  8
0
100
AcDbBlockBegin
  2
*D13
 70
     1
 10
0.0
 20
0.0
 30
0.0
  3
*D13
  1

  0
LINE
  5
30FF9
330
3090B
100
AcDbEntity
  8
sunpo
 62
     3
370
     9
100
AcDbLine
 10
616.0545819549111
 20
336.0666472463347
 30
0.0
 11
603.0545819549111
 21
336.0666472463347
 31
0.0
  0
LINE
  5
30FFA
330
3090B
100
AcDbEntity
  8
sunpo
 62
     3
370
     9
100
AcDbLine
 10
616.0545819549111
 20
380.0666472463347
 30
0.0
 11
603.0545819549111
 21
380.0666472463347
 31
0.0
  0
LINE
  5
30FFB
330
3090B
100
AcDbEntity
  8
sunpo
 62
     3
370
     9
100
AcDbLine
 10
605.054581954911
 20
336.0666472463347
 30
0.0
 11
605.054581954911
 21
380.0666472463347
 31
0.0
  0
INSERT
  5
30FFC
330
3090B
100
AcDbEntity
  8
sunpo
 62
     3
370
     9
100
AcDbBlockReference
  2
_DotSmall
 10
605.054581954911
 20
336.0666472463347
 30
0.0
 41
7.0
 42
7.0
 43
7.0
 50
270.0
  0
INSERT
  5
30FFD
330
3090B
100
AcDbEntity
  8
sunpo
 62
     3
370
     9
100
AcDbBlockReference
  2
_DotSmall
 10
605.054581954911
 20
380.0666472463347
 30
0.0
 41
7.0
 42
7.0
 43
7.0
 50
90.0
  0
MTEXT
  5
30FFE
330
3090B
100
AcDbEntity
  8
sunpo
 62
     2
100
AcDbMText
 10
600.8545819549109
 20
358.0666472463347
 30
0.0
 40
6.0
 41
0.0
 71
     5
 72
     1
  1
44
  7
Std
 11
0.0000000000000001
 21
1.0
 31
0.0
 73
     1
 44
1.0
  0
POINT
  5
30FFF
330
3090B
100
AcDbEntity
  8
Defpoints
 62
     0
100
AcDbPoint
 10
620.0545819549111
 20
336.0666472463347
 30
0.0
  0
POINT
  5
31000
330
3090B
100
AcDbEntity
  8
Defpoints
 62
     0
100
AcDbPoint
 10
620.0545819549111
 20
380.0666472463347
 30
0.0
  0
POINT
  5
31001
330
3090B
100
AcDbEntity
  8
Defpoints
 62
     0
100
AcDbPoint
 10
605.054581954911
 20
380.0666472463347
 30
0.0
  0
ENDBLK
  5
30916
330
3090B
100
AcDbEntity
  8
0
100
AcDbBlockEnd
  0
BLOCK
  5
30922
330
30917
100
AcDbEntity
  8
0
100
AcDbBlockBegin
  2
*D14
 70
     1
 10
0.0
 20
0.0
 30
0.0
  3
*D14
  1

  0
LINE
  5
30FEF
330
30917
100
AcDbEntity
  8
sunpo
 62
     3
370
     9
100
AcDbLine
 10
685.0545819549111
 20
377.0666472463379
 30
0.0
 11
686.8600008325471
 21
377.0666472463379
 31
0.0
  0
LINE
  5
30FF0
330
30917
100
AcDbEntity
  8
sunpo
 62
     3
370
     9
100
AcDbLine
 10
678.0545819549111
 20
380.0666472463347
 30
0.0
 11
690.8600008325471
 21
380.0666472463347
 31
0.0
  0
LINE
  5
30FF1
330
30917
100
AcDbEntity
  8
sunpo
 62
     3
370
     9
100
AcDbLine
 10
688.8600008325471
 20
377.0666472463379
 30
0.0
 11
688.8600008325471
 21
380.0666472463347
 31
0.0
  0
LINE
  5
30FF2
330
30917
100
AcDbEntity
  8
sunpo
 62
     3
370
     9
100
AcDbLine
 10
688.8600008325471
 20
380.0666472463347
 30
0.0
 11
688.8600008325471
 21
392.6666472463349
 31
0.0
  0
INSERT
  5
30FF3
330
30917
100
AcDbEntity
  8
sunpo
 62
     3
370
     9
100
AcDbBlockReference
  2
_DotSmall
 10
688.8600008325471
 20
377.0666472463379
 30
0.0
 41
7.0
 42
7.0
 43
7.0
 50
270.0
  0
INSERT
  5
30FF4
330
30917
100
AcDbEntity
  8
sunpo
 62
     3
370
     9
100
AcDbBlockReference
  2
_DotSmall
 10
688.8600008325471
 20
380.0666472463347
 30
0.0
 41
7.0
 42
7.0
 43
7.0
 50
90.0
  0
MTEXT
  5
30FF5
330
30917
100
AcDbEntity
  8
sunpo
 62
     2
100
AcDbMText
 10
684.6600008325469
 20
389.866647246335
 30
0.0
 40
6.0
 41
0.0
 71
     5
 72
     1
  1
3
  7
Std
 11
0.0000000000000001
 21
1.0
 31
0.0
 73
     1
 44
1.0
  0
POINT
  5
30FF6
330
30917
100
AcDbEntity
  8
Defpoints
 62
     0
100
AcDbPoint
 10
689.054581954911
 20
377.0666472463379
 30
0.0
  0
POINT
  5
30FF7
330
30917
100
AcDbEntity
  8
Defpoints
 62
     0
100
AcDbPoint
 10
674.0545819549111
 20
380.0666472463347
 30
0.0
  0
POINT
  5
30FF8
330
30917
100
AcDbEntity
  8
Defpoints
 62
     0
100
AcDbPoint
 10
688.8600008325471
 20
380.0666472463347
 30
0.0
  0
ENDBLK
  5
30923
330
30917
100
AcDbEntity
  8
0
100
AcDbBlockEnd
  0
BLOCK
  5
3092E
330
30924
100
AcDbEntity
  8
0
100
AcDbBlockBegin
  2
*D15
 70
     1
 10
0.0
 20
0.0
 30
0.0
  3
*D15
  1

  0
LINE
  5
30FE6
330
30924
100
AcDbEntity
  8
sunpo
 62
     3
370
     9
100
AcDbLine
 10
685.0545819549111
 20
377.0666472463347
 30
0.0
 11
687.0545819549111
 21
377.0666472463347
 31
0.0
  0
LINE
  5
30FE7
330
30924
100
AcDbEntity
  8
sunpo
 62
     3
370
     9
100
AcDbLine
 10
685.0545819549111
 20
357.0666472463347
 30
0.0
 11
687.0545819549111
 21
357.0666472463347
 31
0.0
  0
LINE
  5
30FE8
330
30924
100
AcDbEntity
  8
sunpo
 62
     3
370
     9
100
AcDbLine
 10
689.054581954911
 20
377.0666472463347
 30
0.0
 11
689.054581954911
 21
357.0666472463347
 31
0.0
  0
INSERT
  5
30FE9
330
30924
100
AcDbEntity
  8
sunpo
 62
     3
370
     9
100
AcDbBlockReference
  2
_DotSmall
 10
689.054581954911
 20
377.0666472463347
 30
0.0
 41
7.0
 42
7.0
 43
7.0
 50
90.0
  0
INSERT
  5
30FEA
330
30924
100
AcDbEntity
  8
sunpo
 62
     3
370
     9
100
AcDbBlockReference
  2
_DotSmall
 10
689.054581954911
 20
357.0666472463347
 30
0.0
 41
7.0
 42
7.0
 43
7.0
 50
270.0
  0
MTEXT
  5
30FEB
330
30924
100
AcDbEntity
  8
sunpo
 62
     2
100
AcDbMText
 10
684.8545819549109
 20
367.0666472463348
 30
0.0
 40
6.0
 41
0.0
 71
     5
 72
     1
  1
20
  7
Std
 11
0.0000000000000001
 21
1.0
 31
0.0
 73
     1
 44
1.0
  0
POINT
  5
30FEC
330
30924
100
AcDbEntity
  8
Defpoints
 62
     0
100
AcDbPoint
 10
689.054581954911
 20
377.0666472463347
 30
0.0
  0
POINT
  5
30FED
330
30924
100
AcDbEntity
  8
Defpoints
 62
     0
100
AcDbPoint
 10
689.054581954911
 20
357.0666472463347
 30
0.0
  0
POINT
  5
30FEE
330
30924
100
AcDbEntity
  8
Defpoints
 62
     0
100
AcDbPoint
 10
689.054581954911
 20
357.0666472463347
 30
0.0
  0
ENDBLK
  5
3092F
330
30924
100
AcDbEntity
  8
0
100
AcDbBlockEnd
  0
BLOCK
  5
3093A
330
30930
100
AcDbEntity
  8
0
100
AcDbBlockBegin
  2
*D16
 70
     1
 10
0.0
 20
0.0
 30
0.0
  3
*D16
  1

  0
LINE
  5
31224
330
30930
100
AcDbEntity
  8
sunpo
 62
     3
370
     9
100
AcDbLine
 10
1042.700051119279
 20
631.0045311841157
 30
0.0
 11
1042.700051119279
 21
627.0045311841147
 31
0.0
  0
LINE
  5
31225
330
30930
100
AcDbEntity
  8
sunpo
 62
     3
370
     9
100
AcDbLine
 10
1045.700051119279
 20
631.0045311841157
 30
0.0
 11
1045.700051119279
 21
627.0045311841147
 31
0.0
  0
LINE
  5
31226
330
30930
100
AcDbEntity
  8
sunpo
 62
     3
370
     9
100
AcDbLine
 10
1042.700051119279
 20
629.0045311841147
 30
0.0
 11
1045.700051119279
 21
629.0045311841147
 31
0.0
  0
MTEXT
  5
31227
330
30930
100
AcDbEntity
  8
sunpo
 62
     2
100
AcDbMText
 10
1051.316549393006
 20
632.2688276832511
 30
0.0
 40
6.0
 41
0.0
 71
     5
 72
     1
  1
3
  7
Std
 73
     1
 44
1.0
  0
INSERT
  5
31228
330
30930
100
AcDbEntity
  8
sunpo
 62
     3
370
     9
100
AcDbBlockReference
  2
_DotSmall
 10
1042.700051119279
 20
629.0045311841147
 30
0.0
 41
7.0
 42
7.0
 43
7.0
 50
180.0
  0
INSERT
  5
31229
330
30930
100
AcDbEntity
  8
sunpo
 62
     3
370
     9
100
AcDbBlockReference
  2
_DotSmall
 10
1045.700051119279
 20
629.0045311841147
 30
0.0
 41
7.0
 42
7.0
 43
7.0
  0
POINT
  5
3122A
330
30930
100
AcDbEntity
  8
Defpoints
 62
     0
100
AcDbPoint
 10
1042.700051119279
 20
635.0045311841157
 30
0.0
  0
POINT
  5
3122B
330
30930
100
AcDbEntity
  8
Defpoints
 62
     0
100
AcDbPoint
 10
1045.700051119279
 20
635.0045311841157
 30
0.0
  0
POINT
  5
3122C
330
30930
100
AcDbEntity
  8
Defpoints
 62
     0
100
AcDbPoint
 10
1045.700051119279
 20
629.0045311841147
 30
0.0
  0
ENDBLK
  5
3093B
330
30930
100
AcDbEntity
  8
0
100
AcDbBlockEnd
  0
BLOCK
  5
30946
330
3093C
100
AcDbEntity
  8
0
100
AcDbBlockBegin
  2
*D17
 70
     1
 10
0.0
 20
0.0
 30
0.0
  3
*D17
  1

  0
LINE
  5
3121B
330
3093C
100
AcDbEntity
  8
sunpo
 62
     3
370
     9
100
AcDbLine
 10
1042.700051119279
 20
631.0045311841147
 30
0.0
 11
1042.700051119279
 21
627.0045311841147
 31
0.0
  0
LINE
  5
3121C
330
3093C
100
AcDbEntity
  8
sunpo
 62
     3
370
     9
100
AcDbLine
 10
1007.700051119269
 20
631.0045311841147
 30
0.0
 11
1007.700051119269
 21
627.0045311841147
 31
0.0
  0
LINE
  5
3121D
330
3093C
100
AcDbEntity
  8
sunpo
 62
     3
370
     9
100
AcDbLine
 10
1042.700051119279
 20
629.0045311841147
 30
0.0
 11
1007.700051119269
 21
629.0045311841147
 31
0.0
  0
INSERT
  5
3121E
330
3093C
100
AcDbEntity
  8
sunpo
 62
     3
370
     9
100
AcDbBlockReference
  2
_DotSmall
 10
1042.700051119279
 20
629.0045311841147
 30
0.0
 41
7.0
 42
7.0
 43
7.0
  0
INSERT
  5
3121F
330
3093C
100
AcDbEntity
  8
sunpo
 62
     3
370
     9
100
AcDbBlockReference
  2
_DotSmall
 10
1007.700051119269
 20
629.0045311841147
 30
0.0
 41
7.0
 42
7.0
 43
7.0
 50
180.0
  0
MTEXT
  5
31220
330
3093C
100
AcDbEntity
  8
sunpo
 62
     2
100
AcDbMText
 10
1025.200051119274
 20
633.2045311841148
 30
0.0
 40
6.0
 41
0.0
 71
     5
 72
     1
  1
35
  7
Std
 73
     1
 44
1.0
  0
POINT
  5
31221
330
3093C
100
AcDbEntity
  8
Defpoints
 62
     0
100
AcDbPoint
 10
1042.700051119279
 20
635.0045311841147
 30
0.0
  0
POINT
  5
31222
330
3093C
100
AcDbEntity
  8
Defpoints
 62
     0
100
AcDbPoint
 10
1007.700051119269
 20
635.0045311841147
 30
0.0
  0
POINT
  5
31223
330
3093C
100
AcDbEntity
  8
Defpoints
 62
     0
100
AcDbPoint
 10
1007.700051119269
 20
629.0045311841147
 30
0.0
  0
ENDBLK
  5
30947
330
3093C
100
AcDbEntity
  8
0
100
AcDbBlockEnd
  0
BLOCK
  5
30952
330
30948
100
AcDbEntity
  8
0
100
AcDbBlockBegin
  2
*D18
 70
     1
 10
0.0
 20
0.0
 30
0.0
  3
*D18
  1

  0
LINE
  5
31212
330
30948
100
AcDbEntity
  8
sunpo
 62
     3
370
     9
100
AcDbLine
 10
1042.700051119285
 20
651.0045311841202
 30
0.0
 11
1042.700051119285
 21
647.0045311841202
 31
0.0
  0
LINE
  5
31213
330
30948
100
AcDbEntity
  8
sunpo
 62
     3
370
     9
100
AcDbLine
 10
1012.700051119285
 20
651.0045311841202
 30
0.0
 11
1012.700051119285
 21
647.0045311841202
 31
0.0
  0
LINE
  5
31214
330
30948
100
AcDbEntity
  8
sunpo
 62
     3
370
     9
100
AcDbLine
 10
1042.700051119285
 20
649.0045311841202
 30
0.0
 11
1012.700051119285
 21
649.0045311841202
 31
0.0
  0
INSERT
  5
31215
330
30948
100
AcDbEntity
  8
sunpo
 62
     3
370
     9
100
AcDbBlockReference
  2
_DotSmall
 10
1042.700051119285
 20
649.0045311841202
 30
0.0
 41
7.0
 42
7.0
 43
7.0
  0
INSERT
  5
31216
330
30948
100
AcDbEntity
  8
sunpo
 62
     3
370
     9
100
AcDbBlockReference
  2
_DotSmall
 10
1012.700051119285
 20
649.0045311841202
 30
0.0
 41
7.0
 42
7.0
 43
7.0
 50
180.0
  0
MTEXT
  5
31217
330
30948
100
AcDbEntity
  8
sunpo
 62
     2
100
AcDbMText
 10
1027.700051119285
 20
653.2045311841202
 30
0.0
 40
6.0
 41
0.0
 71
     5
 72
     1
  1
30
  7
Std
 73
     1
 44
1.0
  0
POINT
  5
31218
330
30948
100
AcDbEntity
  8
Defpoints
 62
     0
100
AcDbPoint
 10
1042.700051119285
 20
655.0045311841202
 30
0.0
  0
POINT
  5
31219
330
30948
100
AcDbEntity
  8
Defpoints
 62
     0
100
AcDbPoint
 10
1012.700051119285
 20
655.0045311841202
 30
0.0
  0
POINT
  5
3121A
330
30948
100
AcDbEntity
  8
Defpoints
 62
     0
100
AcDbPoint
 10
1012.700051119285
 20
649.0045311841202
 30
0.0
  0
ENDBLK
  5
30953
330
30948
100
AcDbEntity
  8
0
100
AcDbBlockEnd
  0
BLOCK
  5
3095E
330
30954
100
AcDbEntity
  8
0
100
AcDbBlockBegin
  2
*D19
 70
     1
 10
0.0
 20
0.0
 30
0.0
  3
*D19
  1

  0
LINE
  5
31209
330
30954
100
AcDbEntity
  8
sunpo
 62
     3
370
     9
100
AcDbLine
 10
911.7049563950864
 20
732.9999999999906
 30
0.0
 11
863.7049563950855
 21
732.9999999999906
 31
0.0
  0
LINE
  5
3120A
330
30954
100
AcDbEntity
  8
sunpo
 62
     3
370
     9
100
AcDbLine
 10
911.7049563950864
 20
713.0000000000006
 30
0.0
 11
863.7049563950855
 21
713.0000000000006
 31
0.0
  0
LINE
  5
3120B
330
30954
100
AcDbEntity
  8
sunpo
 62
     3
370
     9
100
AcDbLine
 10
865.7049563950854
 20
732.9999999999906
 30
0.0
 11
865.7049563950854
 21
713.0000000000006
 31
0.0
  0
INSERT
  5
3120C
330
30954
100
AcDbEntity
  8
sunpo
 62
     3
370
     9
100
AcDbBlockReference
  2
_DotSmall
 10
865.7049563950854
 20
732.9999999999906
 30
0.0
 41
7.0
 42
7.0
 43
7.0
 50
90.0
  0
INSERT
  5
3120D
330
30954
100
AcDbEntity
  8
sunpo
 62
     3
370
     9
100
AcDbBlockReference
  2
_DotSmall
 10
865.7049563950854
 20
713.0000000000006
 30
0.0
 41
7.0
 42
7.0
 43
7.0
 50
270.0
  0
MTEXT
  5
3120E
330
30954
100
AcDbEntity
  8
sunpo
 62
     2
100
AcDbMText
 10
861.5049563950853
 20
722.9999999999959
 30
0.0
 40
6.0
 41
0.0
 71
     5
 72
     1
  1
20
  7
Std
 11
0.0000000000000001
 21
1.0
 31
0.0
 73
     1
 44
1.0
  0
POINT
  5
3120F
330
30954
100
AcDbEntity
  8
Defpoints
 62
     0
100
AcDbPoint
 10
915.7049563950863
 20
732.9999999999906
 30
0.0
  0
POINT
  5
31210
330
30954
100
AcDbEntity
  8
Defpoints
 62
     0
100
AcDbPoint
 10
915.7049563950863
 20
713.0000000000006
 30
0.0
  0
POINT
  5
31211
330
30954
100
AcDbEntity
  8
Defpoints
 62
     0
100
AcDbPoint
 10
865.7049563950854
 20
713.0000000000006
 30
0.0
  0
ENDBLK
  5
3095F
330
30954
100
AcDbEntity
  8
0
100
AcDbBlockEnd
  0
BLOCK
  5
3096A
330
30960
100
AcDbEntity
  8
0
100
AcDbBlockBegin
  2
*D20
 70
     1
 10
0.0
 20
0.0
 30
0.0
  3
*D20
  1

  0
LINE
  5
3126B
330
30960
100
AcDbEntity
  8
sunpo
 62
     3
370
     9
100
AcDbLine
 10
721.9230812397309
 20
581.9999999998999
 30
0.0
 11
721.9230812397309
 21
554.1021474496374
 31
0.0
  0
LINE
  5
3126C
330
30960
100
AcDbEntity
  8
sunpo
 62
     3
370
     9
100
AcDbLine
 10
741.9230812397309
 20
581.9999999998999
 30
0.0
 11
741.9230812397309
 21
554.1021474496374
 31
0.0
  0
LINE
  5
3126D
330
30960
100
AcDbEntity
  8
sunpo
 62
     3
370
     9
100
AcDbLine
 10
721.9230812397309
 20
556.1021474496373
 30
0.0
 11
741.9230812397309
 21
556.1021474496373
 31
0.0
  0
INSERT
  5
3126E
330
30960
100
AcDbEntity
  8
sunpo
 62
     3
370
     9
100
AcDbBlockReference
  2
_DotSmall
 10
721.9230812397309
 20
556.1021474496373
 30
0.0
 41
7.0
 42
7.0
 43
7.0
 50
180.0
  0
INSERT
  5
3126F
330
30960
100
AcDbEntity
  8
sunpo
 62
     3
370
     9
100
AcDbBlockReference
  2
_DotSmall
 10
741.9230812397309
 20
556.1021474496373
 30
0.0
 41
7.0
 42
7.0
 43
7.0
  0
MTEXT
  5
31270
330
30960
100
AcDbEntity
  8
sunpo
 62
     2
100
AcDbMText
 10
731.9230812397308
 20
560.3021474496374
 30
0.0
 40
6.0
 41
0.0
 71
     5
 72
     1
  1
20
  7
Std
 73
     1
 44
1.0
  0
POINT
  5
31271
330
30960
100
AcDbEntity
  8
Defpoints
 62
     0
100
AcDbPoint
 10
721.9230812397309
 20
585.9999999998999
 30
0.0
  0
POINT
  5
31272
330
30960
100
AcDbEntity
  8
Defpoints
 62
     0
100
AcDbPoint
 10
741.9230812397309
 20
585.9999999998999
 30
0.0
  0
POINT
  5
31273
330
30960
100
AcDbEntity
  8
Defpoints
 62
     0
100
AcDbPoint
 10
741.9230812397309
 20
556.1021474496373
 30
0.0
  0
ENDBLK
  5
3096B
330
30960
100
AcDbEntity
  8
0
100
AcDbBlockEnd
  0
BLOCK
  5
30976
330
3096C
100
AcDbEntity
  8
0
100
AcDbBlockBegin
  2
*D21
 70
     1
 10
0.0
 20
0.0
 30
0.0
  3
*D21
  1

  0
LINE
  5
31200
330
3096C
100
AcDbEntity
  8
sunpo
 62
     3
370
     9
100
AcDbLine
 10
1045.700051119279
 20
397.312443010538
 30
0.0
 11
1045.700051119279
 21
400.8587444084413
 31
0.0
  0
LINE
  5
31201
330
3096C
100
AcDbEntity
  8
sunpo
 62
     3
370
     9
100
AcDbLine
 10
1042.700051119279
 20
396.8587444084413
 30
0.0
 11
1042.700051119279
 21
400.8587444084413
 31
0.0
  0
LINE
  5
31202
330
3096C
100
AcDbEntity
  8
sunpo
 62
     3
370
     9
100
AcDbLine
 10
1045.700051119279
 20
398.8587444084413
 30
0.0
 11
1042.700051119279
 21
398.8587444084413
 31
0.0
  0
MTEXT
  5
31203
330
3096C
100
AcDbEntity
  8
sunpo
 62
     2
100
AcDbMText
 10
1037.28341761944
 20
404.6869777040501
 30
0.0
 40
6.0
 41
0.0
 71
     5
 72
     1
  1
3
  7
Std
 73
     1
 44
1.0
  0
INSERT
  5
31204
330
3096C
100
AcDbEntity
  8
sunpo
 62
     3
370
     9
100
AcDbBlockReference
  2
_DotSmall
 10
1045.700051119279
 20
398.8587444084413
 30
0.0
 41
7.0
 42
7.0
 43
7.0
  0
INSERT
  5
31205
330
3096C
100
AcDbEntity
  8
sunpo
 62
     3
370
     9
100
AcDbBlockReference
  2
_DotSmall
 10
1042.700051119279
 20
398.8587444084413
 30
0.0
 41
7.0
 42
7.0
 43
7.0
 50
180.0
  0
POINT
  5
31206
330
3096C
100
AcDbEntity
  8
Defpoints
 62
     0
100
AcDbPoint
 10
1045.700051119279
 20
393.312443010538
 30
0.0
  0
POINT
  5
31207
330
3096C
100
AcDbEntity
  8
Defpoints
 62
     0
100
AcDbPoint
 10
1042.700051119279
 20
392.8587444084413
 30
0.0
  0
POINT
  5
31208
330
3096C
100
AcDbEntity
  8
Defpoints
 62
     0
100
AcDbPoint
 10
1042.700051119279
 20
398.8587444084413
 30
0.0
  0
ENDBLK
  5
30977
330
3096C
100
AcDbEntity
  8
0
100
AcDbBlockEnd
  0
BLOCK
  5
30982
330
30978
100
AcDbEntity
  8
0
100
AcDbBlockBegin
  2
*D22
 70
     1
 10
0.0
 20
0.0
 30
0.0
  3
*D22
  1

  0
LINE
  5
311F7
330
30978
100
AcDbEntity
  8
sunpo
 62
     3
370
     9
100
AcDbLine
 10
1042.700051119285
 20
376.8587444084358
 30
0.0
 11
1042.700051119285
 21
380.8587444084358
 31
0.0
  0
LINE
  5
311F8
330
30978
100
AcDbEntity
  8
sunpo
 62
     3
370
     9
100
AcDbLine
 10
1012.700051119285
 20
376.8587444084358
 30
0.0
 11
1012.700051119285
 21
380.8587444084358
 31
0.0
  0
LINE
  5
311F9
330
30978
100
AcDbEntity
  8
sunpo
 62
     3
370
     9
100
AcDbLine
 10
1042.700051119285
 20
378.8587444084358
 30
0.0
 11
1012.700051119285
 21
378.8587444084358
 31
0.0
  0
INSERT
  5
311FA
330
30978
100
AcDbEntity
  8
sunpo
 62
     3
370
     9
100
AcDbBlockReference
  2
_DotSmall
 10
1042.700051119285
 20
378.8587444084358
 30
0.0
 41
7.0
 42
7.0
 43
7.0
  0
INSERT
  5
311FB
330
30978
100
AcDbEntity
  8
sunpo
 62
     3
370
     9
100
AcDbBlockReference
  2
_DotSmall
 10
1012.700051119285
 20
378.8587444084358
 30
0.0
 41
7.0
 42
7.0
 43
7.0
 50
180.0
  0
MTEXT
  5
311FC
330
30978
100
AcDbEntity
  8
sunpo
 62
     2
100
AcDbMText
 10
1027.700051119285
 20
383.0587444084358
 30
0.0
 40
6.0
 41
0.0
 71
     5
 72
     1
  1
30
  7
Std
 73
     1
 44
1.0
  0
POINT
  5
311FD
330
30978
100
AcDbEntity
  8
Defpoints
 62
     0
100
AcDbPoint
 10
1042.700051119285
 20
372.8587444084358
 30
0.0
  0
POINT
  5
311FE
330
30978
100
AcDbEntity
  8
Defpoints
 62
     0
100
AcDbPoint
 10
1012.700051119285
 20
372.8587444084358
 30
0.0
  0
POINT
  5
311FF
330
30978
100
AcDbEntity
  8
Defpoints
 62
     0
100
AcDbPoint
 10
1012.700051119285
 20
378.8587444084358
 30
0.0
  0
ENDBLK
  5
30983
330
30978
100
AcDbEntity
  8
0
100
AcDbBlockEnd
  0
BLOCK
  5
3098E
330
30984
100
AcDbEntity
  8
0
100
AcDbBlockBegin
  2
*D23
 70
     1
 10
0.0
 20
0.0
 30
0.0
  3
*D23
  1

  0
LINE
  5
311EE
330
30984
100
AcDbEntity
  8
sunpo
 62
     3
370
     9
100
AcDbLine
 10
911.7049563950864
 20
307.9999999999998
 30
0.0
 11
863.7049563950858
 21
307.9999999999999
 31
0.0
  0
LINE
  5
311EF
330
30984
100
AcDbEntity
  8
sunpo
 62
     3
370
     9
100
AcDbLine
 10
911.7049563950864
 20
283.0000000000008
 30
0.0
 11
863.7049563950858
 21
283.0000000000008
 31
0.0
  0
LINE
  5
311F0
330
30984
100
AcDbEntity
  8
sunpo
 62
     3
370
     9
100
AcDbLine
 10
865.704956395086
 20
307.9999999999999
 30
0.0
 11
865.704956395086
 21
283.0000000000008
 31
0.0
  0
INSERT
  5
311F1
330
30984
100
AcDbEntity
  8
sunpo
 62
     3
370
     9
100
AcDbBlockReference
  2
_DotSmall
 10
865.704956395086
 20
307.9999999999999
 30
0.0
 41
7.0
 42
7.0
 43
7.0
 50
90.0
  0
INSERT
  5
311F2
330
30984
100
AcDbEntity
  8
sunpo
 62
     3
370
     9
100
AcDbBlockReference
  2
_DotSmall
 10
865.704956395086
 20
283.0000000000008
 30
0.0
 41
7.0
 42
7.0
 43
7.0
 50
270.0
  0
MTEXT
  5
311F3
330
30984
100
AcDbEntity
  8
sunpo
 62
     2
100
AcDbMText
 10
861.5049563950858
 20
295.5000000000005
 30
0.0
 40
6.0
 41
0.0
 71
     5
 72
     1
  1
25
  7
Std
 11
0.0000000000000001
 21
1.0
 31
0.0
 73
     1
 44
1.0
  0
POINT
  5
311F4
330
30984
100
AcDbEntity
  8
Defpoints
 62
     0
100
AcDbPoint
 10
915.7049563950863
 20
307.9999999999998
 30
0.0
  0
POINT
  5
311F5
330
30984
100
AcDbEntity
  8
Defpoints
 62
     0
100
AcDbPoint
 10
915.7049563950863
 20
283.0000000000008
 30
0.0
  0
POINT
  5
311F6
330
30984
100
AcDbEntity
  8
Defpoints
 62
     0
100
AcDbPoint
 10
865.704956395086
 20
283.0000000000008
 30
0.0
  0
ENDBLK
  5
3098F
330
30984
100
AcDbEntity
  8
0
100
AcDbBlockEnd
  0
BLOCK
  5
3099A
330
30990
100
AcDbEntity
  8
0
100
AcDbBlockBegin
  2
*D24
 70
     1
 10
0.0
 20
0.0
 30
0.0
  3
*D24
  1

  0
LINE
  5
311E5
330
30990
100
AcDbEntity
  8
sunpo
 62
     3
370
     9
100
AcDbLine
 10
1042.700051119279
 20
396.8587444084413
 30
0.0
 11
1042.700051119279
 21
400.8587444084413
 31
0.0
  0
LINE
  5
311E6
330
30990
100
AcDbEntity
  8
sunpo
 62
     3
370
     9
100
AcDbLine
 10
927.7049563950864
 20
321.9954688158685
 30
0.0
 11
927.7049563950864
 21
400.8587444084413
 31
0.0
  0
LINE
  5
311E7
330
30990
100
AcDbEntity
  8
sunpo
 62
     3
370
     9
100
AcDbLine
 10
1042.700051119279
 20
398.8587444084413
 30
0.0
 11
927.7049563950864
 21
398.8587444084413
 31
0.0
  0
INSERT
  5
311E8
330
30990
100
AcDbEntity
  8
sunpo
 62
     3
370
     9
100
AcDbBlockReference
  2
_DotSmall
 10
1042.700051119279
 20
398.8587444084413
 30
0.0
 41
7.0
 42
7.0
 43
7.0
  0
INSERT
  5
311E9
330
30990
100
AcDbEntity
  8
sunpo
 62
     3
370
     9
100
AcDbBlockReference
  2
_DotSmall
 10
927.7049563950864
 20
398.8587444084413
 30
0.0
 41
7.0
 42
7.0
 43
7.0
 50
180.0
  0
MTEXT
  5
311EA
330
30990
100
AcDbEntity
  8
sunpo
 62
     2
100
AcDbMText
 10
985.2025037571829
 20
403.0587444084412
 30
0.0
 40
6.0
 41
0.0
 71
     5
 72
     1
  1
115
  7
Std
 73
     1
 44
1.0
  0
POINT
  5
311EB
330
30990
100
AcDbEntity
  8
Defpoints
 62
     0
100
AcDbPoint
 10
1042.700051119279
 20
392.8587444084413
 30
0.0
  0
POINT
  5
311EC
330
30990
100
AcDbEntity
  8
Defpoints
 62
     0
100
AcDbPoint
 10
927.7049563950864
 20
317.9954688158685
 30
0.0
  0
POINT
  5
311ED
330
30990
100
AcDbEntity
  8
Defpoints
 62
     0
100
AcDbPoint
 10
927.7049563950864
 20
398.8587444084413
 30
0.0
  0
ENDBLK
  5
3099B
330
30990
100
AcDbEntity
  8
0
100
AcDbBlockEnd
  0
BLOCK
  5
309A6
330
3099C
100
AcDbEntity
  8
0
100
AcDbBlockBegin
  2
*D25
 70
     1
 10
0.0
 20
0.0
 30
0.0
  3
*D25
  1

  0
LINE
  5
311DC
330
3099C
100
AcDbEntity
  8
sunpo
 62
     3
370
     9
100
AcDbLine
 10
1012.700051119285
 20
376.8587444084358
 30
0.0
 11
1012.700051119285
 21
380.8587444084358
 31
0.0
  0
LINE
  5
311DD
330
3099C
100
AcDbEntity
  8
sunpo
 62
     3
370
     9
100
AcDbLine
 10
927.700051119285
 20
376.8587444084358
 30
0.0
 11
927.700051119285
 21
380.8587444084358
 31
0.0
  0
LINE
  5
311DE
330
3099C
100
AcDbEntity
  8
sunpo
 62
     3
370
     9
100
AcDbLine
 10
1012.700051119285
 20
378.8587444084358
 30
0.0
 11
927.700051119285
 21
378.8587444084358
 31
0.0
  0
INSERT
  5
311DF
330
3099C
100
AcDbEntity
  8
sunpo
 62
     3
370
     9
100
AcDbBlockReference
  2
_DotSmall
 10
1012.700051119285
 20
378.8587444084358
 30
0.0
 41
7.0
 42
7.0
 43
7.0
  0
INSERT
  5
311E0
330
3099C
100
AcDbEntity
  8
sunpo
 62
     3
370
     9
100
AcDbBlockReference
  2
_DotSmall
 10
927.700051119285
 20
378.8587444084358
 30
0.0
 41
7.0
 42
7.0
 43
7.0
 50
180.0
  0
MTEXT
  5
311E1
330
3099C
100
AcDbEntity
  8
sunpo
 62
     2
100
AcDbMText
 10
970.2000511192849
 20
383.0587444084358
 30
0.0
 40
6.0
 41
0.0
 71
     5
 72
     1
  1
85
  7
Std
 73
     1
 44
1.0
  0
POINT
  5
311E2
330
3099C
100
AcDbEntity
  8
Defpoints
 62
     0
100
AcDbPoint
 10
1012.700051119285
 20
372.8587444084358
 30
0.0
  0
POINT
  5
311E3
330
3099C
100
AcDbEntity
  8
Defpoints
 62
     0
100
AcDbPoint
 10
927.700051119285
 20
372.8587444084358
 30
0.0
  0
POINT
  5
311E4
330
3099C
100
AcDbEntity
  8
Defpoints
 62
     0
100
AcDbPoint
 10
927.700051119285
 20
378.8587444084358
 30
0.0
  0
ENDBLK
  5
309A7
330
3099C
100
AcDbEntity
  8
0
100
AcDbBlockEnd
  0
BLOCK
  5
309B2
330
309A8
100
AcDbEntity
  8
0
100
AcDbBlockBegin
  2
*D26
 70
     1
 10
0.0
 20
0.0
 30
0.0
  3
*D26
  1

  0
LINE
  5
311D3
330
309A8
100
AcDbEntity
  8
sunpo
 62
     3
370
     9
100
AcDbLine
 10
911.7049563950864
 20
732.9999999999906
 30
0.0
 11
843.7049563950859
 21
732.9999999999906
 31
0.0
  0
LINE
  5
311D4
330
309A8
100
AcDbEntity
  8
sunpo
 62
     3
370
     9
100
AcDbLine
 10
911.7049563950864
 20
283.0000000000008
 30
0.0
 11
843.7049563950859
 21
283.0000000000008
 31
0.0
  0
LINE
  5
311D5
330
309A8
100
AcDbEntity
  8
sunpo
 62
     3
370
     9
100
AcDbLine
 10
845.7049563950858
 20
732.9999999999906
 30
0.0
 11
845.7049563950858
 21
283.0000000000008
 31
0.0
  0
INSERT
  5
311D6
330
309A8
100
AcDbEntity
  8
sunpo
 62
     3
370
     9
100
AcDbBlockReference
  2
_DotSmall
 10
845.7049563950858
 20
732.9999999999906
 30
0.0
 41
7.0
 42
7.0
 43
7.0
 50
90.0
  0
INSERT
  5
311D7
330
309A8
100
AcDbEntity
  8
sunpo
 62
     3
370
     9
100
AcDbBlockReference
  2
_DotSmall
 10
845.7049563950858
 20
283.0000000000008
 30
0.0
 41
7.0
 42
7.0
 43
7.0
 50
270.0
  0
MTEXT
  5
311D8
330
309A8
100
AcDbEntity
  8
sunpo
 62
     2
100
AcDbMText
 10
841.5049563950857
 20
507.9999999999958
 30
0.0
 40
6.0
 41
0.0
 71
     5
 72
     1
  1
H
  7
Std
 11
0.0000000000000001
 21
1.0
 31
0.0
 73
     1
 44
1.0
  0
POINT
  5
311D9
330
309A8
100
AcDbEntity
  8
Defpoints
 62
     0
100
AcDbPoint
 10
915.7049563950863
 20
732.9999999999906
 30
0.0
  0
POINT
  5
311DA
330
309A8
100
AcDbEntity
  8
Defpoints
 62
     0
100
AcDbPoint
 10
915.7049563950863
 20
283.0000000000008
 30
0.0
  0
POINT
  5
311DB
330
309A8
100
AcDbEntity
  8
Defpoints
 62
     0
100
AcDbPoint
 10
845.7049563950858
 20
283.0000000000008
 30
0.0
  0
ENDBLK
  5
309B3
330
309A8
100
AcDbEntity
  8
0
100
AcDbBlockEnd
  0
BLOCK
  5
309BE
330
309B4
100
AcDbEntity
  8
0
100
AcDbBlockBegin
  2
*D27
 70
     1
 10
0.0
 20
0.0
 30
0.0
  3
*D27
  1

  0
LINE
  5
31262
330
309B4
100
AcDbEntity
  8
sunpo
 62
     3
370
     9
100
AcDbLine
 10
227.019645633407
 20
679.999999999899
 30
0.0
 11
231.019645633407
 21
679.999999999899
 31
0.0
  0
LINE
  5
31263
330
309B4
100
AcDbEntity
  8
sunpo
 62
     3
370
     9
100
AcDbLine
 10
227.019645633407
 20
674.9999999998991
 30
0.0
 11
231.019645633407
 21
674.9999999998991
 31
0.0
  0
LINE
  5
31264
330
309B4
100
AcDbEntity
  8
sunpo
 62
     3
370
     9
100
AcDbLine
 10
229.019645633407
 20
679.999999999899
 30
0.0
 11
229.019645633407
 21
674.9999999998991
 31
0.0
  0
MTEXT
  5
31265
330
309B4
100
AcDbEntity
  8
sunpo
 62
     2
100
AcDbMText
 10
223.599168342017
 20
669.537648687573
 30
0.0
 40
6.0
 41
0.0
 71
     5
 72
     1
  1
5
  7
Std
 11
0.0000000000000001
 21
1.0
 31
0.0
 73
     1
 44
1.0
  0
INSERT
  5
31266
330
309B4
100
AcDbEntity
  8
sunpo
 62
     3
370
     9
100
AcDbBlockReference
  2
_DotSmall
 10
229.019645633407
 20
679.999999999899
 30
0.0
 41
7.0
 42
7.0
 43
7.0
 50
90.0
  0
INSERT
  5
31267
330
309B4
100
AcDbEntity
  8
sunpo
 62
     3
370
     9
100
AcDbBlockReference
  2
_DotSmall
 10
229.019645633407
 20
674.9999999998991
 30
0.0
 41
7.0
 42
7.0
 43
7.0
 50
270.0
  0
POINT
  5
31268
330
309B4
100
AcDbEntity
  8
Defpoints
 62
     0
100
AcDbPoint
 10
223.019645633407
 20
679.999999999899
 30
0.0
  0
POINT
  5
31269
330
309B4
100
AcDbEntity
  8
Defpoints
 62
     0
100
AcDbPoint
 10
223.019645633407
 20
674.9999999998991
 30
0.0
  0
POINT
  5
3126A
330
309B4
100
AcDbEntity
  8
Defpoints
 62
     0
100
AcDbPoint
 10
229.019645633407
 20
674.9999999998991
 30
0.0
  0
ENDBLK
  5
309BF
330
309B4
100
AcDbEntity
  8
0
100
AcDbBlockEnd
  0
BLOCK
  5
309CA
330
309C0
100
AcDbEntity
  8
0
100
AcDbBlockBegin
  2
*D28
 70
     1
 10
0.0
 20
0.0
 30
0.0
  3
*D28
  1

  0
LINE
  5
31259
330
309C0
100
AcDbEntity
  8
sunpo
 62
     3
370
     9
100
AcDbLine
 10
227.019645633407
 20
709.999999999899
 30
0.0
 11
231.019645633407
 21
709.999999999899
 31
0.0
  0
LINE
  5
3125A
330
309C0
100
AcDbEntity
  8
sunpo
 62
     3
370
     9
100
AcDbLine
 10
227.019645633407
 20
679.999999999899
 30
0.0
 11
231.019645633407
 21
679.999999999899
 31
0.0
  0
LINE
  5
3125B
330
309C0
100
AcDbEntity
  8
sunpo
 62
     3
370
     9
100
AcDbLine
 10
229.019645633407
 20
709.999999999899
 30
0.0
 11
229.019645633407
 21
679.999999999899
 31
0.0
  0
INSERT
  5
3125C
330
309C0
100
AcDbEntity
  8
sunpo
 62
     3
370
     9
100
AcDbBlockReference
  2
_DotSmall
 10
229.019645633407
 20
709.999999999899
 30
0.0
 41
7.0
 42
7.0
 43
7.0
 50
90.0
  0
INSERT
  5
3125D
330
309C0
100
AcDbEntity
  8
sunpo
 62
     3
370
     9
100
AcDbBlockReference
  2
_DotSmall
 10
229.019645633407
 20
679.999999999899
 30
0.0
 41
7.0
 42
7.0
 43
7.0
 50
270.0
  0
MTEXT
  5
3125E
330
309C0
100
AcDbEntity
  8
sunpo
 62
     2
100
AcDbMText
 10
224.8196456334069
 20
694.999999999899
 30
0.0
 40
6.0
 41
0.0
 71
     5
 72
     1
  1
30
  7
Std
 11
0.0000000000000001
 21
1.0
 31
0.0
 73
     1
 44
1.0
  0
POINT
  5
3125F
330
309C0
100
AcDbEntity
  8
Defpoints
 62
     0
100
AcDbPoint
 10
223.019645633407
 20
709.999999999899
 30
0.0
  0
POINT
  5
31260
330
309C0
100
AcDbEntity
  8
Defpoints
 62
     0
100
AcDbPoint
 10
223.019645633407
 20
679.999999999899
 30
0.0
  0
POINT
  5
31261
330
309C0
100
AcDbEntity
  8
Defpoints
 62
     0
100
AcDbPoint
 10
229.019645633407
 20
679.999999999899
 30
0.0
  0
ENDBLK
  5
309CB
330
309C0
100
AcDbEntity
  8
0
100
AcDbBlockEnd
  0
BLOCK
  5
309D6
330
309CC
100
AcDbEntity
  8
0
100
AcDbBlockBegin
  2
*D29
 70
     1
 10
0.0
 20
0.0
 30
0.0
  3
*D29
  1

  0
LINE
  5
31250
330
309CC
100
AcDbEntity
  8
sunpo
 62
     3
370
     9
100
AcDbLine
 10
141.9230812397236
 20
581.9999999998999
 30
0.0
 11
141.9230812397236
 21
554.1021474497329
 31
0.0
  0
LINE
  5
31251
330
309CC
100
AcDbEntity
  8
sunpo
 62
     3
370
     9
100
AcDbLine
 10
161.9230812397236
 20
581.9999999998999
 30
0.0
 11
161.9230812397236
 21
554.1021474497329
 31
0.0
  0
LINE
  5
31252
330
309CC
100
AcDbEntity
  8
sunpo
 62
     3
370
     9
100
AcDbLine
 10
141.9230812397236
 20
556.1021474497329
 30
0.0
 11
161.9230812397236
 21
556.1021474497329
 31
0.0
  0
INSERT
  5
31253
330
309CC
100
AcDbEntity
  8
sunpo
 62
     3
370
     9
100
AcDbBlockReference
  2
_DotSmall
 10
141.9230812397236
 20
556.1021474497329
 30
0.0
 41
7.0
 42
7.0
 43
7.0
 50
180.0
  0
INSERT
  5
31254
330
309CC
100
AcDbEntity
  8
sunpo
 62
     3
370
     9
100
AcDbBlockReference
  2
_DotSmall
 10
161.9230812397236
 20
556.1021474497329
 30
0.0
 41
7.0
 42
7.0
 43
7.0
  0
MTEXT
  5
31255
330
309CC
100
AcDbEntity
  8
sunpo
 62
     2
100
AcDbMText
 10
151.9230812397236
 20
560.3021474497329
 30
0.0
 40
6.0
 41
0.0
 71
     5
 72
     1
  1
20
  7
Std
 73
     1
 44
1.0
  0
POINT
  5
31256
330
309CC
100
AcDbEntity
  8
Defpoints
 62
     0
100
AcDbPoint
 10
141.9230812397236
 20
585.9999999998999
 30
0.0
  0
POINT
  5
31257
330
309CC
100
AcDbEntity
  8
Defpoints
 62
     0
100
AcDbPoint
 10
161.9230812397236
 20
585.9999999998999
 30
0.0
  0
POINT
  5
31258
330
309CC
100
AcDbEntity
  8
Defpoints
 62
     0
100
AcDbPoint
 10
161.9230812397236
 20
556.1021474497329
 30
0.0
  0
ENDBLK
  5
309D7
330
309CC
100
AcDbEntity
  8
0
100
AcDbBlockEnd
  0
BLOCK
  5
309E2
330
309D8
100
AcDbEntity
  8
0
100
AcDbBlockBegin
  2
*D30
 70
     1
 10
0.0
 20
0.0
 30
0.0
  3
*D30
  1

  0
LINE
  5
31247
330
309D8
100
AcDbEntity
  8
sunpo
 62
     3
370
     9
100
AcDbLine
 10
247.0196456334124
 20
709.9999999998935
 30
0.0
 11
251.0196456334125
 21
709.9999999998935
 31
0.0
  0
LINE
  5
31248
330
309D8
100
AcDbEntity
  8
sunpo
 62
     3
370
     9
100
AcDbLine
 10
247.0196456334124
 20
594.9999999998835
 30
0.0
 11
251.0196456334124
 21
594.9999999998835
 31
0.0
  0
LINE
  5
31249
330
309D8
100
AcDbEntity
  8
sunpo
 62
     3
370
     9
100
AcDbLine
 10
249.0196456334125
 20
709.9999999998935
 30
0.0
 11
249.0196456334124
 21
594.9999999998835
 31
0.0
  0
INSERT
  5
3124A
330
309D8
100
AcDbEntity
  8
sunpo
 62
     3
370
     9
100
AcDbBlockReference
  2
_DotSmall
 10
249.0196456334125
 20
709.9999999998935
 30
0.0
 41
7.0
 42
7.0
 43
7.0
 50
90.0
  0
INSERT
  5
3124B
330
309D8
100
AcDbEntity
  8
sunpo
 62
     3
370
     9
100
AcDbBlockReference
  2
_DotSmall
 10
249.0196456334124
 20
594.9999999998835
 30
0.0
 41
7.0
 42
7.0
 43
7.0
 50
270.0
  0
MTEXT
  5
3124C
330
309D8
100
AcDbEntity
  8
sunpo
 62
     2
100
AcDbMText
 10
244.8196456334123
 20
652.4999999998885
 30
0.0
 40
6.0
 41
0.0
 71
     5
 72
     1
  1
115
  7
Std
 11
0.0000000000000001
 21
1.0
 31
0.0
 73
     1
 44
1.0
  0
POINT
  5
3124D
330
309D8
100
AcDbEntity
  8
Defpoints
 62
     0
100
AcDbPoint
 10
243.0196456334124
 20
709.9999999998935
 30
0.0
  0
POINT
  5
3124E
330
309D8
100
AcDbEntity
  8
Defpoints
 62
     0
100
AcDbPoint
 10
243.0196456334124
 20
594.9999999998835
 30
0.0
  0
POINT
  5
3124F
330
309D8
100
AcDbEntity
  8
Defpoints
 62
     0
100
AcDbPoint
 10
249.0196456334124
 20
594.9999999998835
 30
0.0
  0
ENDBLK
  5
309E3
330
309D8
100
AcDbEntity
  8
0
100
AcDbBlockEnd
  0
BLOCK
  5
309EE
330
309E4
100
AcDbEntity
  8
0
100
AcDbBlockBegin
  2
*D31
 70
     1
 10
0.0
 20
0.0
 30
0.0
  3
*D31
  1

  0
LINE
  5
3123E
330
309E4
100
AcDbEntity
  8
sunpo
 62
     3
370
     9
100
AcDbLine
 10
247.0196456334124
 20
712.9999999998935
 30
0.0
 11
251.0196456334129
 21
712.9999999998935
 31
0.0
  0
LINE
  5
3123F
330
309E4
100
AcDbEntity
  8
sunpo
 62
     3
370
     9
100
AcDbLine
 10
247.0196456334124
 20
709.9999999998935
 30
0.0
 11
251.0196456334129
 21
709.9999999998935
 31
0.0
  0
LINE
  5
31240
330
309E4
100
AcDbEntity
  8
sunpo
 62
     3
370
     9
100
AcDbLine
 10
249.0196456334129
 20
712.9999999998935
 30
0.0
 11
249.0196456334129
 21
709.9999999998935
 31
0.0
  0
MTEXT
  5
31241
330
309E4
100
AcDbEntity
  8
sunpo
 62
     2
100
AcDbMText
 10
244.8948212945561
 20
719.0283022605804
 30
0.0
 40
6.0
 41
0.0
 71
     5
 72
     1
  1
3
  7
Std
 11
0.0000000000000001
 21
1.0
 31
0.0
 73
     1
 44
1.0
  0
INSERT
  5
31242
330
309E4
100
AcDbEntity
  8
sunpo
 62
     3
370
     9
100
AcDbBlockReference
  2
_DotSmall
 10
249.0196456334129
 20
712.9999999998935
 30
0.0
 41
7.0
 42
7.0
 43
7.0
 50
90.0
  0
INSERT
  5
31243
330
309E4
100
AcDbEntity
  8
sunpo
 62
     3
370
     9
100
AcDbBlockReference
  2
_DotSmall
 10
249.0196456334129
 20
709.9999999998935
 30
0.0
 41
7.0
 42
7.0
 43
7.0
 50
270.0
  0
POINT
  5
31244
330
309E4
100
AcDbEntity
  8
Defpoints
 62
     0
100
AcDbPoint
 10
243.0196456334124
 20
712.9999999998935
 30
0.0
  0
POINT
  5
31245
330
309E4
100
AcDbEntity
  8
Defpoints
 62
     0
100
AcDbPoint
 10
243.0196456334124
 20
709.9999999998935
 30
0.0
  0
POINT
  5
31246
330
309E4
100
AcDbEntity
  8
Defpoints
 62
     0
100
AcDbPoint
 10
249.0196456334129
 20
709.9999999998935
 30
0.0
  0
ENDBLK
  5
309EF
330
309E4
100
AcDbEntity
  8
0
100
AcDbBlockEnd
  0
BLOCK
  5
309FA
330
309F0
100
AcDbEntity
  8
0
100
AcDbBlockBegin
  2
*D32
 70
     1
 10
0.0
 20
0.0
 30
0.0
  3
*D32
  1

  0
LINE
  5
31235
330
309F0
100
AcDbEntity
  8
sunpo
 62
     3
370
     9
100
AcDbLine
 10
141.9230812397236
 20
581.9999999999009
 30
0.0
 11
141.9230812397236
 21
534.1021474496374
 31
0.0
  0
LINE
  5
31236
330
309F0
100
AcDbEntity
  8
sunpo
 62
     3
370
     9
100
AcDbLine
 10
741.9230812397309
 20
581.9999999998999
 30
0.0
 11
741.9230812397309
 21
534.1021474496374
 31
0.0
  0
LINE
  5
31237
330
309F0
100
AcDbEntity
  8
sunpo
 62
     3
370
     9
100
AcDbLine
 10
141.9230812397236
 20
536.1021474496374
 30
0.0
 11
741.9230812397309
 21
536.1021474496374
 31
0.0
  0
INSERT
  5
31238
330
309F0
100
AcDbEntity
  8
sunpo
 62
     3
370
     9
100
AcDbBlockReference
  2
_DotSmall
 10
141.9230812397236
 20
536.1021474496374
 30
0.0
 41
7.0
 42
7.0
 43
7.0
 50
180.0
  0
INSERT
  5
31239
330
309F0
100
AcDbEntity
  8
sunpo
 62
     3
370
     9
100
AcDbBlockReference
  2
_DotSmall
 10
741.9230812397309
 20
536.1021474496374
 30
0.0
 41
7.0
 42
7.0
 43
7.0
  0
MTEXT
  5
3123A
330
309F0
100
AcDbEntity
  8
sunpo
 62
     2
100
AcDbMText
 10
441.9230812397272
 20
540.3021474496374
 30
0.0
 40
6.0
 41
0.0
 71
     5
 72
     1
  1
W
  7
Std
 73
     1
 44
1.0
  0
POINT
  5
3123B
330
309F0
100
AcDbEntity
  8
Defpoints
 62
     0
100
AcDbPoint
 10
141.9230812397236
 20
585.9999999999009
 30
0.0
  0
POINT
  5
3123C
330
309F0
100
AcDbEntity
  8
Defpoints
 62
     0
100
AcDbPoint
 10
741.9230812397309
 20
585.9999999998999
 30
0.0
  0
POINT
  5
3123D
330
309F0
100
AcDbEntity
  8
Defpoints
 62
     0
100
AcDbPoint
 10
741.9230812397309
 20
536.1021474496374
 30
0.0
  0
ENDBLK
  5
309FB
330
309F0
100
AcDbEntity
  8
0
100
AcDbBlockEnd
  0
BLOCK
  5
30A06
330
309FC
100
AcDbEntity
  8
0
100
AcDbBlockBegin
  2
*D33
 70
     1
 10
0.0
 20
0.0
 30
0.0
  3
*D33
  1

  0
LINE
  5
311CA
330
309FC
100
AcDbEntity
  8
sunpo
 62
     3
370
     9
100
AcDbLine
 10
1012.704956395104
 20
646.2313394610808
 30
0.0
 11
1012.704956395104
 21
647.0045311841202
 31
0.0
  0
LINE
  5
311CB
330
309FC
100
AcDbEntity
  8
sunpo
 62
     3
370
     9
100
AcDbLine
 10
1007.704956395086
 20
651.4507206004171
 30
0.0
 11
1007.704956395086
 21
647.0045311841202
 31
0.0
  0
LINE
  5
311CC
330
309FC
100
AcDbEntity
  8
sunpo
 62
     3
370
     9
100
AcDbLine
 10
1012.704956395104
 20
649.0045311841202
 30
0.0
 11
1007.704956395086
 21
649.0045311841202
 31
0.0
  0
MTEXT
  5
311CD
330
309FC
100
AcDbEntity
  8
sunpo
 62
     2
100
AcDbMText
 10
1001.510335369899
 20
653.4350753188943
 30
0.0
 40
6.0
 41
0.0
 71
     5
 72
     1
  1
5
  7
Std
 73
     1
 44
1.0
  0
INSERT
  5
311CE
330
309FC
100
AcDbEntity
  8
sunpo
 62
     3
370
     9
100
AcDbBlockReference
  2
_DotSmall
 10
1012.704956395104
 20
649.0045311841202
 30
0.0
 41
7.0
 42
7.0
 43
7.0
  0
INSERT
  5
311CF
330
309FC
100
AcDbEntity
  8
sunpo
 62
     3
370
     9
100
AcDbBlockReference
  2
_DotSmall
 10
1007.704956395086
 20
649.0045311841202
 30
0.0
 41
7.0
 42
7.0
 43
7.0
 50
180.0
  0
POINT
  5
311D0
330
309FC
100
AcDbEntity
  8
Defpoints
 62
     0
100
AcDbPoint
 10
1012.704956395104
 20
650.2313394610808
 30
0.0
  0
POINT
  5
311D1
330
309FC
100
AcDbEntity
  8
Defpoints
 62
     0
100
AcDbPoint
 10
1007.704956395086
 20
655.4507206004171
 30
0.0
  0
POINT
  5
311D2
330
309FC
100
AcDbEntity
  8
Defpoints
 62
     0
100
AcDbPoint
 10
1007.704956395086
 20
649.0045311841202
 30
0.0
  0
ENDBLK
  5
30A07
330
309FC
100
AcDbEntity
  8
0
100
AcDbBlockEnd
  0
BLOCK
  5
30A12
330
30A08
100
AcDbEntity
  8
0
100
AcDbBlockBegin
  2
*D34
 70
     1
 10
0.0
 20
0.0
 30
0.0
  3
*D34
  1

  0
LINE
  5
31161
330
30A08
100
AcDbEntity
  8
sunpo
 62
     3
370
     9
100
AcDbLine
 10
177.9230489385729
 20
390.9511662564847
 30
0.0
 11
159.9230812397084
 21
390.9511662564847
 31
0.0
  0
LINE
  5
31162
330
30A08
100
AcDbEntity
  8
sunpo
 62
     3
370
     9
100
AcDbLine
 10
177.9230489385827
 20
310.9511662564845
 30
0.0
 11
159.9230812397084
 21
310.9511662564845
 31
0.0
  0
LINE
  5
31163
330
30A08
100
AcDbEntity
  8
sunpo
 62
     3
370
     9
100
AcDbLine
 10
161.9230812397084
 20
390.9511662564847
 30
0.0
 11
161.9230812397083
 21
310.9511662564845
 31
0.0
  0
INSERT
  5
31164
330
30A08
100
AcDbEntity
  8
sunpo
 62
     3
370
     9
100
AcDbBlockReference
  2
_DotSmall
 10
161.9230812397084
 20
390.9511662564847
 30
0.0
 41
7.0
 42
7.0
 43
7.0
 50
90.0
  0
INSERT
  5
31165
330
30A08
100
AcDbEntity
  8
sunpo
 62
     3
370
     9
100
AcDbBlockReference
  2
_DotSmall
 10
161.9230812397083
 20
310.9511662564845
 30
0.0
 41
7.0
 42
7.0
 43
7.0
 50
270.0
  0
MTEXT
  5
31166
330
30A08
100
AcDbEntity
  8
sunpo
 62
     2
100
AcDbMText
 10
157.9230812397083
 20
350.9511662564847
 30
0.0
 40
6.0
 41
0.0
 71
     5
 72
     1
  1
H
  7
Std
 11
0.0000000000000001
 21
1.0
 31
0.0
 73
     1
 44
1.0
  0
POINT
  5
31167
330
30A08
100
AcDbEntity
  8
Defpoints
 62
     0
100
AcDbPoint
 10
181.9230489385729
 20
390.9511662564847
 30
0.0
  0
POINT
  5
31168
330
30A08
100
AcDbEntity
  8
Defpoints
 62
     0
100
AcDbPoint
 10
181.9230489385827
 20
310.9511662564845
 30
0.0
  0
POINT
  5
31169
330
30A08
100
AcDbEntity
  8
Defpoints
 62
     0
100
AcDbPoint
 10
161.9230812397083
 20
310.9511662564845
 30
0.0
  0
ENDBLK
  5
30A13
330
30A08
100
AcDbEntity
  8
0
100
AcDbBlockEnd
  0
BLOCK
  5
30A36
330
30A2C
100
AcDbEntity
  8
0
100
AcDbBlockBegin
  2
*D35
 70
     1
 10
0.0
 20
0.0
 30
0.0
  3
*D35
  1

  0
LINE
  5
3117C
330
30A2C
100
AcDbEntity
  8
sunpo
 62
     3
370
     9
100
AcDbLine
 10
177.9230489385909
 20
250.9511662564806
 30
0.0
 11
159.9230812397263
 21
250.9511662564806
 31
0.0
  0
LINE
  5
3117D
330
30A2C
100
AcDbEntity
  8
sunpo
 62
     3
370
     9
100
AcDbLine
 10
177.9230489385909
 20
310.9511662564806
 30
0.0
 11
159.9230812397263
 21
310.9511662564806
 31
0.0
  0
LINE
  5
3117E
330
30A2C
100
AcDbEntity
  8
sunpo
 62
     3
370
     9
100
AcDbLine
 10
161.9230812397263
 20
250.9511662564806
 30
0.0
 11
161.9230812397263
 21
310.9511662564806
 31
0.0
  0
INSERT
  5
3117F
330
30A2C
100
AcDbEntity
  8
sunpo
 62
     3
370
     9
100
AcDbBlockReference
  2
_DotSmall
 10
161.9230812397263
 20
250.9511662564806
 30
0.0
 41
7.0
 42
7.0
 43
7.0
 50
270.0
  0
INSERT
  5
31180
330
30A2C
100
AcDbEntity
  8
sunpo
 62
     3
370
     9
100
AcDbBlockReference
  2
_DotSmall
 10
161.9230812397263
 20
310.9511662564806
 30
0.0
 41
7.0
 42
7.0
 43
7.0
 50
90.0
  0
MTEXT
  5
31181
330
30A2C
100
AcDbEntity
  8
sunpo
 62
     2
100
AcDbMText
 10
157.9230812397263
 20
280.9511662564807
 30
0.0
 40
6.0
 41
0.0
 71
     5
 72
     1
  1
FLマデ
  7
Std
 11
0.0000000000000001
 21
1.0
 31
0.0
 73
     1
 44
1.0
  0
POINT
  5
31182
330
30A2C
100
AcDbEntity
  8
Defpoints
 62
     0
100
AcDbPoint
 10
181.9230489385909
 20
250.9511662564806
 30
0.0
  0
POINT
  5
31183
330
30A2C
100
AcDbEntity
  8
Defpoints
 62
     0
100
AcDbPoint
 10
181.9230489385909
 20
310.9511662564806
 30
0.0
  0
POINT
  5
31184
330
30A2C
100
AcDbEntity
  8
Defpoints
 62
     0
100
AcDbPoint
 10
161.9230812397263
 20
310.9511662564806
 30
0.0
  0
ENDBLK
  5
30A37
330
30A2C
100
AcDbEntity
  8
0
100
AcDbBlockEnd
  0
ENDSEC
  0
SECTION
  2
ENTITIES
  0
INSERT
  5
306F1
330
1F
100
AcDbEntity
  8
size
100
AcDbBlockReference
  2
二葉ﾛｺﾞ
 10
923.3571428571435
 20
65.00000000000011
 30
0.0
 41
0.0999999999999091
 42
0.1
 43
0.1
  0
DIMENSION
  5
30708
330
1F
100
AcDbEntity
  8
sunpo
100
AcDbDimension
  2
*D35
 10
161.9230812397263
 20
310.9511662564806
 30
0.0
 11
157.9230812397263
 21
280.9511662564807
 31
0.0
 70
    32
  1
FLマデ
 71
     5
 42
900.0000000000005
  3
dim2_30
100
AcDbAlignedDimension
 13
181.9230489385909
 23
250.9511662564806
 33
0.0
 14
181.9230489385909
 24
310.9511662564806
 34
0.0
 50
270.0
100
AcDbRotatedDimension
  0
TEXT
  5
30709
330
1F
100
AcDbEntity
  8
moji
100
AcDbText
 10
423.9213341617849
 20
260.3936574772463
 30
0.0
 40
6.0
  1
ＦＬ
  7
StdW
 72
     1
 11
430.3213341617849
 21
260.3936574772463
 31
0.0
100
AcDbText
  0
LWPOLYLINE
  5
3070A
330
1F
100
AcDbEntity
  8
moji
100
AcDbPolyline
 90
        3
 70
     1
 43
0.0
 10
433.7854357769231
 20
256.9511662564843
 10
430.3213341617849
 20
250.9511662564843
 10
426.8572325466473
 20
256.9511662564843
  0
LINE
  5
3070B
330
1F
100
AcDbEntity
  8
KUTAI
100
AcDbLine
 10
140.5450928271211
 20
250.9511662564806
 30
0.0
 11
454.539061570942
 21
250.9511662564844
 31
0.0
  0
TEXT
  5
3070F
330
1F
100
AcDbEntity
  8
sunpo2
100
AcDbText
 10
889.8539422344443
 20
545.9823043945141
 30
0.0
 40
6.0
  1
（規格塗板仕上）
 41
0.8
  7
Std
100
AcDbText
  0
LWPOLYLINE
  5
30710
330
1F
100
AcDbEntity
  8
saisen
100
AcDbPolyline
 90
        4
 70
     1
 43
0.0
 10
886.8539422344442
 20
581.9823043945141
 10
922.0776623004208
 20
581.9823043945141
 10
922.0776623004208
 20
590.382304394514
 10
886.8539422344442
 20
590.382304394514
  0
TEXT
  5
30711
330
1F
100
AcDbEntity
  8
sunpo2
100
AcDbText
 10
889.8539422344443
 20
557.9823043945143
 30
0.0
 40
6.0
  1
t0.4鋼板 プレス加工　フラッシュ
 41
0.8
  7
Std
100
AcDbText
  0
LINE
  5
30712
330
1F
100
AcDbEntity
  8
sunpo2
370
     9
100
AcDbLine
 10
984.610885999351
 20
556.1823043945143
 30
0.0
 11
886.8539422344442
 21
556.1823043945143
 31
0.0
  0
LINE
  5
30713
330
1F
100
AcDbEntity
  8
sunpo2
370
     9
100
AcDbLine
 10
984.610885999351
 20
568.182304394514
 30
0.0
 11
886.8539422344442
 21
568.182304394514
 31
0.0
  0
TEXT
  5
30714
330
1F
100
AcDbEntity
  8
sunpo2
100
AcDbText
 10
889.8539422344443
 20
569.982304394514
 30
0.0
 40
6.0
  1
耐水ラワン合板　厚み5.5下地
 41
0.8
  7
Std
100
AcDbText
  0
TEXT
  5
30715
330
1F
100
AcDbEntity
  8
sunpo2
100
AcDbText
 10
889.8539422344443
 20
583.1823043945142
 30
0.0
 40
6.0
  1
平面黒板
  7
Std
100
AcDbText
  0
LEADER
  5
30716
330
1F
100
AcDbEntity
  8
sunpo2
100
AcDbLeader
  3
Std2de
 40
5.0
 76
     3
 10
1012.704956395086
 20
580.1823043945141
 30
0.0
 10
984.6108859993515
 20
580.1823043945141
 30
0.0
 10
886.8539422344442
 20
580.1823043945141
 30
0.0
213
0.0
223
3.0
233
0.0
1001
ACAD
1000
DSTYLE
1002
{
1070
    77
1070
     0
1070
   147
1040
1.0
1002
}
  0
LINE
  5
3071D
330
1F
100
AcDbEntity
  8
kijun
100
AcDbLine
 10
1037.704956395086
 20
301.000000000007
 30
0.0
 11
1087.704956395086
 21
301.000000000007
 31
0.0
  0
LINE
  5
3071E
330
1F
100
AcDbEntity
  8
kijun
100
AcDbLine
 10
199.9230812397213
 20
707.499999999901
 30
0.0
 11
199.9230812397213
 21
750.7431156059067
 31
0.0
  0
LINE
  5
3071F
330
1F
100
AcDbEntity
  8
kijun
100
AcDbLine
 10
1040.204956395083
 20
689.9999999999907
 30
0.0
 11
1083.448072001088
 21
689.9999999999907
 31
0.0
  0
LINE
  5
30720
330
1F
100
AcDbEntity
  8
kijun
100
AcDbLine
 10
1040.204956395083
 20
714.9999999999907
 30
0.0
 11
1083.448072001088
 21
714.9999999999907
 31
0.0
  0
LINE
  5
30732
330
1F
100
AcDbEntity
  8
kijun
100
AcDbLine
 10
683.9230812397332
 20
707.999999999899
 30
0.0
 11
683.9230812397332
 21
752.999999999899
 31
0.0
  0
LINE
  5
30735
330
1F
100
AcDbEntity
  8
kijun
100
AcDbLine
 10
199.9230812397213
 20
707.999999999899
 30
0.0
 11
199.9230812397213
 21
752.999999999899
 31
0.0
  0
LINE
  5
3073A
330
1F
100
AcDbEntity
  8
kijun
100
AcDbLine
 10
1037.704956395081
 20
325.9999999999998
 30
0.0
 11
1087.704956395082
 21
325.9999999999998
 31
0.0
  0
LINE
  5
3073B
330
1F
100
AcDbEntity
  8
saisen
  6
DASHED1
100
AcDbLine
 10
930.9729055875173
 20
280.9999999999998
 30
0.0
 11
1015.704956395086
 21
280.9999999999998
 31
0.0
  0
LWPOLYLINE
  5
3073C
330
1F
100
AcDbEntity
  8
saisen
100
AcDbPolyline
 90
       14
 70
     0
 43
0.0
 10
1015.704956395086
 20
280.9999999999998
 10
1042.704956395086
 20
280.9999999999998
 10
1042.704956395086
 20
282.9999999999998
 10
928.7049563950864
 20
282.9999999999998
 10
927.2049563950863
 20
284.4999999999998
 10
927.2049563950863
 20
306.9999999999998
 10
928.7049563950864
 20
308.4999999999998
 10
938.7049563950863
 20
308.4999999999998
 10
938.7049563950863
 20
307.9999999999998
 42
0.4142135623730951
 10
961.2049563950863
 20
285.4999999999998
 10
985.2049563950863
 20
285.4999999999998
 42
0.4142135623730951
 10
1007.704956395086
 20
307.9999999999998
 10
1007.704956395085
 20
308.999999999998
 10
1012.704956395086
 20
308.999999999998
  0
LWPOLYLINE
  5
3073D
330
1F
100
AcDbEntity
  8
塗板・掲示板
100
AcDbPolyline
 90
        4
 70
     0
 43
0.0
 10
1011.704956395086
 20
270.4999999999998
 10
1011.704956395086
 20
251.9999999999998
 42
-0.4142135623730951
 10
996.7049563950864
 20
236.9999999999998
 10
935.7049563950864
 20
236.9999999999998
  0
LWPOLYLINE
  5
3073E
330
1F
100
AcDbEntity
  8
塗板・掲示板
100
AcDbPolyline
 90
        8
 70
     1
 43
0.0
 10
932.7049563950863
 20
281.9999999999998
 10
934.7049563950863
 20
281.9999999999998
 42
-0.4142135623730951
 10
935.7049563950864
 20
280.9999999999998
 10
935.7049563950864
 20
228.9999999999998
 42
-0.4142135623730951
 10
934.7049563950863
 20
227.9999999999998
 10
932.7049563950863
 20
227.9999999999998
 42
-0.4142135623730951
 10
930.7049563950863
 20
229.9999999999998
 10
930.7049563950863
 20
279.9999999999998
 42
-0.4142135623730951
  0
LEADER
  5
3073F
330
1F
100
AcDbEntity
  8
sunpo2
100
AcDbLeader
  3
Std2de
 73
     0
 40
16.0
 41
55.19999999999999
 76
     3
 10
936.7505763782215
 20
254.241112319103
 30
0.0
 10
917.6765610635234
 20
221.9966446988336
 30
0.0
 10
912.1573914852683
 20
221.9966446988336
 30
0.0
340
30740
210
0.0
220
0.0
230
-1.0
213
-18.73529669908885
223
-2.483321813387192
233
0.0
1001
ACAD
1000
DSTYLE
1002
{
1070
    77
1070
     0
1070
   147
1040
10.0
1002
}
  0
MTEXT
  5
30740
102
{ACAD_REACTORS
330
3073F
102
}
330
1F
100
AcDbEntity
  8
sunpo2
100
AcDbMText
 10
910.8926881843572
 20
224.4799665122207
 30
0.0
 40
6.0
 41
0.0
 71
     3
 72
     1
  1
チョークボックス\P（Ｗ型）
 73
     1
 44
1.0
  0
LWPOLYLINE
  5
30741
330
1F
100
AcDbEntity
  8
塗板・掲示板
100
AcDbPolyline
 90
        4
 70
     1
 43
0.0
 10
935.7049563950864
 20
270.4999999999998
 10
1015.704956395086
 20
270.4999999999998
 10
1015.704956395086
 20
282.9999999999998
 10
935.7049563950864
 20
282.9999999999998
  0
CIRCLE
  5
30742
330
1F
100
AcDbEntity
  8
塗板・掲示板
100
AcDbCircle
 10
306.0897156052761
 20
308.9511662564839
 30
0.0
 40
0.3333333333333333
  0
LINE
  5
30743
330
1F
100
AcDbEntity
  8
塗板・掲示板
100
AcDbLine
 10
301.9230489386095
 20
306.9511662564839
 30
0.0
 11
301.9230489386095
 21
310.6178329231502
 31
0.0
  0
LWPOLYLINE
  5
30744
330
1F
100
AcDbEntity
  8
塗板・掲示板
100
AcDbPolyline
 90
        4
 70
     1
 43
0.0
 10
293.5897156052761
 20
306.9511662564841
 10
310.2563822719426
 20
306.9511662564841
 10
310.2563822719426
 20
310.9511662564842
 10
293.5897156052761
 20
310.9511662564842
  0
LINE
  5
30745
330
1F
100
AcDbEntity
  8
塗板・掲示板
100
AcDbLine
 10
310.2563822719426
 20
310.6178329231502
 30
0.0
 11
293.5897156052761
 21
310.6178329231502
 31
0.0
  0
LEADER
  5
30746
330
1F
100
AcDbEntity
  8
sunpo2
100
AcDbLeader
  3
Std2de
 73
     0
 40
15.0
 41
55.19999999999999
 76
     3
 10
306.0897156052761
 20
308.6178329231505
 30
0.0
 10
313.7834892844294
 20
293.0701092316466
 30
0.0
 10
323.9080646273067
 20
293.0701092316466
 30
0.0
340
30747
213
19.01280029522581
223
-2.483321813387192
233
0.0
1001
ACAD
1000
DSTYLE
1002
{
1070
    77
1070
     0
1070
   147
1040
10.0
1002
}
  0
MTEXT
  5
30747
102
{ACAD_REACTORS
330
30746
102
}
330
1F
100
AcDbEntity
  8
sunpo2
100
AcDbMText
 10
324.8952643320809
 20
295.5534310450338
 30
0.0
 40
6.0
 41
0.0
 71
     1
 72
     1
  1
チョークボックス\P（Ｗ型）
 73
     1
 44
0.9
  0
DIMENSION
  5
30748
330
1F
100
AcDbEntity
  8
sunpo
100
AcDbDimension
  2
*D6
 10
845.7049563950858
 20
111.5000000000021
 30
0.0
 11
838.8000310555458
 21
169.6378531008457
 31
0.0
 70
   160
  1
FLマデ
 71
     5
 42
171.4999999999986
  3
dim2
100
AcDbAlignedDimension
 13
915.7049563950863
 23
283.0000000000008
 33
0.0
 14
915.7049563950863
 24
111.5000000000021
 34
0.0
 50
270.0
100
AcDbRotatedDimension
1001
ACAD
1000
DSTYLE
1002
{
1070
    76
1070
     1
1070
   344
1005
2C7EC
1070
   342
1005
0
1070
   173
1070
     1
1070
   343
1005
46
1002
}
  0
TEXT
  5
3074E
330
1F
100
AcDbEntity
  8
moji
100
AcDbText
 10
471.1641412167548
 20
636.4119430432492
 30
0.0
 40
6.0
  1
（アルミ チョーク受）
  7
StdW
 72
     4
 11
507.9641412167547
 21
639.4119430432493
 31
0.0
100
AcDbText
  0
DIMENSION
  5
3074F
330
1F
100
AcDbEntity
  8
sunpo
100
AcDbDimension
  2
*D7
 10
441.923081239724
 20
574.9999999999004
 30
0.0
 11
409.4230812397238
 21
579.1999999999005
 31
0.0
 70
    32
 71
     5
 42
65.00000000000046
  3
dim2
100
AcDbAlignedDimension
 13
376.9230812397236
 23
580.9999999999003
 33
0.0
 14
441.923081239724
 24
580.9999999999003
 34
0.0
100
AcDbRotatedDimension
  0
TEXT
  5
30750
330
1F
100
AcDbEntity
  8
moji
100
AcDbText
 10
380.6221018478664
 20
614.305580479307
 30
0.0
 40
6.0
  1
粉落穴（面取り）
 41
0.8
  7
Std
100
AcDbText
  0
LINE
  5
30751
330
1F
100
AcDbEntity
  8
kijun
100
AcDbLine
 10
376.9230812397241
 20
657.908393532803
 30
0.0
 11
376.9230812397236
 21
572.9999999999003
 31
0.0
  0
CIRCLE
  5
30752
330
1F
100
AcDbEntity
  8
塗板・掲示板
100
AcDbCircle
 10
376.9230812397268
 20
639.999999999899
 30
0.0
 40
12.50000000000001
  0
LINE
  5
30753
330
1F
100
AcDbEntity
  8
kijun
100
AcDbLine
 10
360.2564145730598
 20
639.999999999899
 30
0.0
 11
393.5897479063942
 21
639.999999999899
 31
0.0
  0
DIMENSION
  5
30754
330
1F
100
AcDbEntity
  8
sunpo
100
AcDbDimension
  2
*D8
 10
387.7515142622885
 20
646.2446007298016
 30
0.0
 11
374.2752223469463
 21
642.9840402775746
 31
0.0
 70
   163
 71
     5
 42
24.99999999999886
  3
Std2de
100
AcDbDiametricDimension
 15
366.0946482171675
 25
633.7553992699951
 35
0.0
 40
0.0
  0
MTEXT
  5
3076F
102
{ACAD_REACTORS
330
30770
102
}
330
1F
100
AcDbEntity
  8
sunpo
100
AcDbMText
 10
673.4266470109628
 20
335.725938312311
 30
0.0
 40
6.000000000000002
 41
0.0
 71
     1
 72
     1
  1
コーナーキャップ\P（樹脂）
  7
Std
 73
     1
 44
1.0
  0
LEADER
  5
30770
330
1F
100
AcDbEntity
  8
sunpo
100
AcDbLeader
  3
Std2de
 73
     0
 74
     0
 75
     1
 40
16.0
 41
44.98285714285716
 76
     3
 10
650.9355965256085
 20
362.8961406526671
 30
0.0
 10
667.6266470109627
 20
332.725938312311
 30
0.0
 10
672.2266470109627
 20
332.725938312311
 30
0.0
340
3076F
213
0.0
223
-3.0
233
0.0
1001
ACAD
1000
DSTYLE
1002
{
1070
   147
1040
0.6
1070
    77
1070
     0
1002
}
  0
LWPOLYLINE
  5
30771
330
1F
100
AcDbEntity
  8
moji
100
AcDbPolyline
 90
        3
 70
     1
 43
0.0
 10
108.8074274053733
 20
706.999999999899
 10
115.7356306356487
 20
706.999999999899
 10
112.2715290205114
 20
712.999999999899
  0
MTEXT
  5
30772
102
{ACAD_REACTORS
330
30773
102
}
330
1F
100
AcDbEntity
  8
sunpo
100
AcDbMText
 10
989.9460332113632
 20
692.7433059620469
 30
0.0
 40
6.000000000000002
 41
0.0
 71
     3
 72
     1
  1
アルミ枠
  7
Std
 73
     1
 44
1.0
  0
LEADER
  5
30773
330
1F
100
AcDbEntity
  8
sunpo
100
AcDbLeader
  3
Std2de
 73
     0
 75
     1
 40
6.000000000000002
 41
22.12571428571429
 76
     3
 10
1008.204956395091
 20
713.4999999999998
 30
0.0
 10
995.7460332113631
 20
689.7433059620468
 30
0.0
 10
991.1460332113632
 20
689.7433059620468
 30
0.0
340
30772
210
0.0
220
0.0
230
-1.0
213
0.0
223
-3.0
233
0.0
1001
ACAD
1000
DSTYLE
1002
{
1070
   147
1040
0.6
1070
    77
1070
     0
1002
}
  0
MTEXT
  5
30774
102
{ACAD_REACTORS
330
30775
102
}
330
1F
100
AcDbEntity
  8
sunpo2
100
AcDbMText
 10
982.7219977380677
 20
770.0982270244828
 30
0.0
 40
6.0
 41
0.0
 71
     3
 72
     1
  1
ブラケット @900以内\PFB-t3x30 L-30x61
  7
Std
 73
     1
 44
1.0
  0
LEADER
  5
30775
330
1F
100
AcDbEntity
  8
sunpo2
100
AcDbLeader
  3
Std2de
 73
     0
 75
     1
 40
16.0
 41
67.10857142857145
 76
     3
 10
1015.704956395091
 20
735.9999999999997
 30
0.0
 10
989.3219977380677
 20
767.4732270244828
 30
0.0
 10
984.7219977380678
 20
767.4732270244828
 30
0.0
340
30774
210
0.0
220
0.0
230
-1.0
213
0.0
223
-2.625
233
0.0
1001
ACAD
1000
DSTYLE
1002
{
1070
    77
1070
     0
1002
}
  0
MTEXT
  5
30776
102
{ACAD_REACTORS
330
30777
102
}
330
1F
100
AcDbEntity
  8
sunpo2
100
AcDbMText
 10
915.7049563950863
 20
356.1186309403145
 30
0.0
 40
6.0
 41
0.0
 71
     3
 72
     1
  1
サイドキャップ
  7
Std
 73
     1
 44
1.0
  0
LEADER
  5
30777
330
1F
100
AcDbEntity
  8
sunpo2
100
AcDbLeader
  3
Std2de
 73
     0
 75
     1
 40
6.0
 41
39.54285714285715
 76
     3
 10
955.11056523267
 20
303.6629819799899
 30
0.0
 10
922.3049563950864
 20
349.4936309403145
 30
0.0
 10
917.7049563950863
 20
349.4936309403145
 30
0.0
210
0.0
220
0.0
230
-1.0
213
0.0
223
-2.625
233
0.0
  0
MTEXT
  5
30778
102
{ACAD_REACTORS
330
30779
102
}
330
1F
100
AcDbEntity
  8
sunpo2
100
AcDbMText
 10
1012.267080055262
 20
211.0418053088895
 30
0.0
 40
6.0
 41
0.0
 71
     3
 72
     1
  1
ブラケット @900以内\PFB-t3x30 L-78x61
  7
Std
 73
     1
 44
1.0
  0
LEADER
  5
30779
330
1F
100
AcDbEntity
  8
sunpo2
100
AcDbLeader
  3
Std2de
 73
     0
 75
     1
 40
16.0
 41
67.10857142857145
 76
     3
 10
1030.459944247933
 20
279.9999999999998
 30
0.0
 10
1018.867080055262
 20
208.4168053088895
 30
0.0
 10
1014.267080055262
 20
208.4168053088895
 30
0.0
340
30778
210
0.0
220
0.0
230
-1.0
213
0.0
223
-2.625
233
0.0
1001
ACAD
1000
DSTYLE
1002
{
1070
    77
1070
     0
1002
}
  0
MTEXT
  5
3077A
102
{ACAD_REACTORS
330
3077B
102
}
330
1F
100
AcDbEntity
  8
sunpo
100
AcDbMText
 10
753.4511842545007
 20
656.8838533301673
 30
0.0
 40
6.000000000000002
 41
0.0
 71
     1
 72
     1
  1
アルミ枠
  7
Std
 73
     1
 44
1.0
  0
LEADER
  5
3077B
330
1F
100
AcDbEntity
  8
sunpo
100
AcDbLeader
  3
Std2de
 73
     0
 74
     0
 75
     1
 40
6.000000000000002
 41
22.12571428571429
 76
     3
 10
731.9230812397231
 20
674.9999999998999
 30
0.0
 10
747.6511842545006
 20
653.8838533301673
 30
0.0
 10
752.2511842545006
 20
653.8838533301673
 30
0.0
340
3077A
213
0.0
223
-3.0
233
0.0
1001
ACAD
1000
DSTYLE
1002
{
1070
   147
1040
0.6
1070
    77
1070
     0
1002
}
  0
MTEXT
  5
3077C
102
{ACAD_REACTORS
330
3077D
102
}
330
1F
100
AcDbEntity
  8
sunpo2
100
AcDbMText
 10
440.59234049748
 20
403.3051836575452
 30
0.0
 40
6.0
 41
0.0
 71
     1
 72
     1
  1
コーナーキャップ
  7
Std
 73
     1
 44
0.9
  0
LEADER
  5
3077D
330
1F
100
AcDbEntity
  8
sunpo2
100
AcDbLeader
  3
Std2de
 73
     0
 74
     0
 75
     1
 40
6.0
 41
44.98285714285715
 76
     3
 10
421.9668715230209
 20
390.9949565397822
 30
0.0
 10
433.9923404974801
 20
400.6801836575452
 30
0.0
 10
438.5923404974801
 20
400.6801836575452
 30
0.0
340
3077C
210
0.0
220
0.0
230
-1.0
213
0.0
223
-2.625
233
0.0
1001
ACAD
1000
DSTYLE
1002
{
1070
   147
1040
1.0
1070
    77
1070
     0
1002
}
  0
MTEXT
  5
3077E
330
1F
100
AcDbEntity
  8
moji
100
AcDbMText
 10
301.9230752640146
 20
350.9511662564841
 30
0.0
 40
6.0
 41
0.0
 71
     5
 72
     1
  1
アルミ枠\P平面黒板
  7
Std
 73
     1
 44
1.0
  0
LWPOLYLINE
  5
3077F
330
1F
100
AcDbEntity
  8
塗板・掲示板
100
AcDbPolyline
 90
        7
 70
     1
 43
0.0
 10
419.1897479063884
 20
389.4178329231495
 10
419.1897479063884
 20
391.1511662564825
 10
421.5897479063882
 20
391.1511662564825
 42
-0.4142135623730951
 10
422.1230812397216
 20
390.6178329231496
 10
422.1230812397216
 20
388.2178329231493
 10
420.3897479063882
 20
388.2178329231493
 10
420.3897479063882
 20
389.4178329231495
  0
LWPOLYLINE
  5
30780
330
1F
100
AcDbEntity
  8
塗板・掲示板
100
AcDbPolyline
 90
        7
 70
     1
 43
0.0
 10
184.6564145730599
 20
389.4178329231495
 10
184.6564145730599
 20
391.1511662564825
 10
182.2564145730596
 20
391.1511662564825
 42
0.4142135623730951
 10
181.7230812397265
 20
390.6178329231496
 10
181.7230812397265
 20
388.2178329231493
 10
183.4564145730596
 20
388.2178329231493
 10
183.4564145730596
 20
389.4178329231495
  0
DIMENSION
  5
30781
330
1F
100
AcDbEntity
  8
sunpo
100
AcDbDimension
  2
*D9
 10
421.9230812397218
 20
410.9511662564841
 30
0.0
 11
301.9230812397227
 21
414.9511662564841
 31
0.0
 70
    32
  1
W
 71
     5
 42
3599.999999999973
  3
dim2_30
100
AcDbAlignedDimension
 13
181.9230812397236
 23
388.2178329231493
 33
0.0
 14
421.9230812397218
 24
388.2178329231493
 34
0.0
100
AcDbRotatedDimension
  0
LWPOLYLINE
  5
30782
330
1F
100
AcDbEntity
  8
塗板・掲示板
100
AcDbPolyline
 90
        4
 70
     1
 43
0.0
 10
419.3897479063917
 20
310.8178329231479
 10
422.0564145730581
 20
310.8178329231479
 10
422.0564145730581
 20
312.7511662564813
 10
419.3897479063917
 20
312.7511662564813
  0
LINE
  5
30783
330
1F
100
AcDbEntity
  8
塗板・掲示板
100
AcDbLine
 10
419.3897479063937
 20
310.9511662564836
 30
0.0
 11
184.4563499707774
 21
310.9511662564842
 31
0.0
  0
LINE
  5
30784
330
1F
100
AcDbEntity
  8
塗板・掲示板
100
AcDbLine
 10
419.3897479063937
 20
312.6178329231502
 30
0.0
 11
184.4563499707774
 21
312.6178329231509
 31
0.0
  0
LINE
  5
30785
330
1F
100
AcDbEntity
  8
塗板・掲示板
100
AcDbLine
 10
421.9230812397218
 20
388.2178329231493
 30
0.0
 11
421.9230812397265
 21
312.7511662564814
 31
0.0
  0
LINE
  5
30786
330
1F
100
AcDbEntity
  8
塗板・掲示板
100
AcDbLine
 10
420.5897479063907
 20
388.2178329231493
 30
0.0
 11
420.5897479063933
 21
312.7511662564814
 31
0.0
  0
LINE
  5
30787
330
1F
100
AcDbEntity
  8
hojo
100
AcDbLine
 10
420.5897479063907
 20
389.6178329231521
 30
0.0
 11
421.9230812397218
 21
390.9511662564842
 31
0.0
  0
LINE
  5
30788
330
1F
100
AcDbEntity
  8
塗板・掲示板
100
AcDbLine
 10
184.6564145730599
 20
390.9511662564842
 30
0.0
 11
419.1897479063881
 21
390.9511662564842
 31
0.0
  0
LINE
  5
30789
330
1F
100
AcDbEntity
  8
塗板・掲示板
100
AcDbLine
 10
419.1897479063881
 20
389.6178329231521
 30
0.0
 11
184.6564145730599
 21
389.6178329231508
 31
0.0
  0
LINE
  5
3078A
330
1F
100
AcDbEntity
  8
hojo
100
AcDbLine
 10
183.2564145730571
 20
389.6178329231521
 30
0.0
 11
181.9230812397263
 21
390.9511662564842
 31
0.0
  0
LWPOLYLINE
  5
3078B
330
1F
100
AcDbEntity
  8
塗板・掲示板
100
AcDbPolyline
 90
        4
 70
     1
 43
0.0
 10
184.4563499707738
 20
310.8178329231479
 10
181.7897479063897
 20
310.8178329231479
 10
181.7897479063897
 20
312.7511662564813
 10
184.4563499707738
 20
312.7511662564813
  0
LINE
  5
3078C
330
1F
100
AcDbEntity
  8
塗板・掲示板
100
AcDbLine
 10
183.2564145730596
 20
388.2178329231493
 30
0.0
 11
183.2564145730571
 21
312.7511662564816
 31
0.0
  0
LINE
  5
3078D
330
1F
100
AcDbEntity
  8
塗板・掲示板
100
AcDbLine
 10
181.9230812397263
 20
388.2178329231493
 30
0.0
 11
181.9230812397263
 21
312.7511662564816
 31
0.0
  0
CIRCLE
  5
3078F
330
1F
100
AcDbEntity
  8
saisen
100
AcDbCircle
 10
301.9230752640137
 20
350.9511662564841
 30
0.0
 40
20.0
  0
MTEXT
  5
30790
102
{ACAD_REACTORS
330
30791
102
}
330
1F
100
AcDbEntity
  8
sunpo
100
AcDbMText
 10
128.4054895159502
 20
638.507830679041
 30
0.0
 40
6.0
 41
0.0
 71
     3
 72
     1
  1
サイドキャップ
  7
Std
 73
     1
 44
1.0
  0
LEADER
  5
30791
330
1F
100
AcDbEntity
  8
sunpo
100
AcDbLeader
  3
Std2de
 73
     0
 40
6.0
 41
39.54285714285715
 76
     2
 10
164.9263675922639
 20
635.507830679041
 30
0.0
 10
129.6054895159502
 20
635.507830679041
 30
0.0
340
30790
213
0.0
223
-3.0
233
0.0
1001
ACAD
1000
DSTYLE
1002
{
1070
   147
1040
0.6
1070
    77
1070
     0
1002
}
  0
MTEXT
  5
30792
102
{ACAD_REACTORS
330
30793
102
}
330
1F
100
AcDbEntity
  8
sunpo
100
AcDbMText
 10
272.480712586289
 20
645.0019808792549
 30
0.0
 40
6.0
 41
0.0
 71
     1
 72
     1
  1
平面スチール黒板
  7
Std
 73
     1
 44
1.0
  0
LEADER
  5
30793
330
1F
100
AcDbEntity
  8
sunpo
100
AcDbLeader
  3
Std2de
 73
     0
 74
     0
 75
     1
 40
6.0
 41
44.80000000000002
 76
     3
 10
266.707156136802
 20
679.9999999998999
 30
0.0
 10
266.680712586289
 20
642.0019808792549
 30
0.0
 10
271.280712586289
 20
642.0019808792549
 30
0.0
340
30792
213
0.0
223
-3.0
233
0.0
1001
ACAD
1000
DSTYLE
1002
{
1070
   147
1040
0.6
1070
    77
1070
     0
1002
}
  0
TEXT
  5
30794
330
1F
100
AcDbEntity
  8
moji
100
AcDbText
 10
272.1679254834813
 20
224.9707369871357
 30
0.0
 40
6.0
  1
正面図 S=1:30
  7
StdW
 72
     4
 11
300.9107826263385
 21
227.9707369871358
 31
0.0
100
AcDbText
  0
LWPOLYLINE
  5
30795
330
1F
100
AcDbEntity
  8
saisen
370
    15
100
AcDbPolyline
 90
        4
 70
     1
 43
0.0
 10
338.3216903517637
 20
235.0471047564565
 10
338.3216903517637
 20
221.4002469781144
 10
265.5244075254554
 20
221.4002469781144
 10
265.5244075254554
 20
235.0471047564565
  0
LWPOLYLINE
  5
30796
330
1F
100
AcDbEntity
  8
saisen
370
    15
100
AcDbPolyline
 90
        4
 70
     1
 43
0.0
 10
337.8216903517637
 20
234.5471047564565
 10
337.8216903517637
 20
221.9002469781144
 10
266.0244075254555
 20
221.9002469781144
 10
266.0244075254555
 20
234.5471047564565
  0
MTEXT
  5
30797
102
{ACAD_REACTORS
330
30798
102
}
330
1F
100
AcDbEntity
  8
sunpo2
100
AcDbMText
 10
1012.574480077746
 20
135.6892897338883
 30
0.0
 40
6.0
 41
0.0
 71
     3
 72
     1
  1
壁 仕上面
  7
Std
 73
     1
 44
1.0
  0
LEADER
  5
30798
330
1F
100
AcDbEntity
  8
sunpo2
100
AcDbLeader
  3
Std2de
 73
     0
 40
6.000000000000002
 41
24.96000000000001
 76
     3
 10
1045.704956395087
 20
133.1892897338883
 30
0.0
 10
1019.006179900334
 20
133.1892897338883
 30
0.0
 10
1014.574480077746
 20
133.1892897338883
 30
0.0
213
0.0
223
-2.5
233
0.0
1001
ACAD
1000
DSTYLE
1002
{
1070
    77
1070
     0
1070
   147
1040
1.0
1002
}
  0
LWPOLYLINE
  5
30799
330
1F
100
AcDbEntity
  8
saisen
370
    15
100
AcDbPolyline
 90
        4
 70
     1
 43
0.0
 10
614.1573288136328
 20
273.4197894679921
 10
614.1573288136328
 20
286.0666472463347
 10
704.9518350961894
 20
286.0666472463347
 10
704.9518350961894
 20
273.4197894679921
  0
DIMENSION
  5
3079A
330
1F
100
AcDbEntity
  8
sunpo
100
AcDbDimension
  2
*D10
 10
625.0545819549111
 20
400.0666472463347
 30
0.0
 11
647.054581954911
 21
404.2666472463347
 31
0.0
 70
    32
  1
<>
 71
     5
 42
44.0
  3
dim2
100
AcDbAlignedDimension
 13
669.0545819549111
 23
385.0666472463347
 33
0.0
 14
625.0545819549111
 24
385.0666472463347
 34
0.0
 50
180.0
100
AcDbRotatedDimension
  0
LINE
  5
3079B
330
1F
100
AcDbEntity
  8
塗板・掲示板
100
AcDbLine
 10
648.0545819549111
 20
296.0666472463347
 30
0.0
 11
648.0545819549111
 21
336.0666472463347
 31
0.0
  0
LINE
  5
3079C
330
1F
100
AcDbEntity
  8
塗板・掲示板
100
AcDbLine
 10
628.0545819549111
 20
296.0666472463347
 30
0.0
 11
628.0545819549111
 21
336.0666472463347
 31
0.0
  0
TEXT
  5
3079D
330
1F
100
AcDbEntity
  8
moji
100
AcDbText
 10
617.6818025019528
 20
276.9376016715566
 30
0.0
 40
6.0
  1
コーナーキャップ　詳細図
  7
Std
 72
     4
 11
660.2818025019528
 21
279.9376016715566
 31
0.0
100
AcDbText
  0
DIMENSION
  5
3079E
330
1F
100
AcDbEntity
  8
sunpo
100
AcDbDimension
  2
*D11
 10
625.0545819549111
 20
316.0666472463347
 30
0.0
 11
615.2545819549109
 21
316.0666472463347
 31
0.0
 70
   160
  1
<>
 71
     5
 42
2.999999999997271
  3
dim2
100
AcDbAlignedDimension
 13
628.0545819549083
 23
316.0666472463347
 33
0.0
 14
625.0545819549111
 24
331.0666472463347
 34
0.0
100
AcDbRotatedDimension
1001
ACAD
1000
DSTYLE
1002
{
1070
   279
1070
     0
1002
}
  0
DIMENSION
  5
3079F
330
1F
100
AcDbEntity
  8
sunpo
100
AcDbDimension
  2
*D12
 10
648.0545819549111
 20
316.0666472463347
 30
0.0
 11
638.054581954911
 21
320.2666472463347
 31
0.0
 70
    32
  1
<>
 71
     5
 42
20.0
  3
dim2
100
AcDbAlignedDimension
 13
628.0545819549111
 23
316.0666472463347
 33
0.0
 14
648.0545819549111
 24
316.0666472463347
 34
0.0
100
AcDbRotatedDimension
  0
DIMENSION
  5
307A0
330
1F
100
AcDbEntity
  8
sunpo
100
AcDbDimension
  2
*D13
 10
605.054581954911
 20
380.0666472463347
 30
0.0
 11
600.8545819549109
 21
358.0666472463347
 31
0.0
 70
    32
  1
<>
 71
     5
 42
44.0
  3
dim2
100
AcDbAlignedDimension
 13
620.0545819549111
 23
336.0666472463347
 33
0.0
 14
620.0545819549111
 24
380.0666472463347
 34
0.0
 50
270.0
100
AcDbRotatedDimension
  0
LINE
  5
307A1
330
1F
100
AcDbEntity
  8
塗板・掲示板
100
AcDbLine
 10
709.054581954911
 20
377.0666472463347
 30
0.0
 11
669.0545819549111
 21
377.0666472463347
 31
0.0
  0
LINE
  5
307A2
330
1F
100
AcDbEntity
  8
塗板・掲示板
100
AcDbLine
 10
709.054581954911
 20
357.0666472463347
 30
0.0
 11
669.0545819549111
 21
357.0666472463347
 31
0.0
  0
DIMENSION
  5
307A3
330
1F
100
AcDbEntity
  8
sunpo
100
AcDbDimension
  2
*D14
 10
688.8600008325471
 20
380.0666472463347
 30
0.0
 11
688.860000832547
 21
389.866647246335
 31
0.0
 70
   160
  1
<>
 71
     5
 42
2.999999999996816
  3
dim2
100
AcDbAlignedDimension
 13
689.054581954911
 23
377.0666472463379
 33
0.0
 14
674.0545819549111
 24
380.0666472463347
 34
0.0
 50
90.0
100
AcDbRotatedDimension
1001
ACAD
1000
DSTYLE
1002
{
1070
   279
1070
     0
1002
}
  0
TEXT
  5
307A4
330
1F
100
AcDbEntity
  8
sunpo2
100
AcDbText
 10
636.8927914719097
 20
370.3497580728979
 30
0.0
 40
6.0
  1
R8
 50
315.0000000000095
 41
0.8
  7
Std
100
AcDbText
  0
DIMENSION
  5
307A5
330
1F
100
AcDbEntity
  8
sunpo
100
AcDbDimension
  2
*D15
 10
689.054581954911
 20
357.0666472463347
 30
0.0
 11
684.8545819549109
 21
367.0666472463348
 31
0.0
 70
    32
  1
<>
 71
     5
 42
20.0
  3
dim2
100
AcDbAlignedDimension
 13
689.054581954911
 23
377.0666472463347
 33
0.0
 14
689.054581954911
 24
357.0666472463347
 34
0.0
 50
90.0
100
AcDbRotatedDimension
  0
LWPOLYLINE
  5
307A6
330
1F
100
AcDbEntity
  8
塗板・掲示板
100
AcDbPolyline
 90
        7
 70
     1
 43
0.0
 10
669.0545819549111
 20
354.0666472463347
 10
669.0545819549111
 20
380.0666472463347
 10
633.0545819549111
 20
380.0666472463347
 42
0.4142135623730951
 10
625.0545819549111
 20
372.0666472463347
 10
625.0545819549111
 20
336.0666472463347
 10
651.054581954911
 20
336.0666472463347
 10
651.054581954911
 20
354.0666472463347
  0
LEADER
  5
307A7
330
1F
100
AcDbEntity
  8
sunpo2
100
AcDbLeader
  3
Std2de
 74
     0
 40
5.0
 76
     3
 10
627.39772770542
 20
377.7235014958285
 30
0.0
 10
636.4085580363735
 20
368.7126711648741
 30
0.0
 10
642.1666971738673
 20
362.9545320273801
 30
0.0
213
0.0
223
-2.5
233
0.0
  0
LINE
  5
307B2
330
1F
100
AcDbEntity
  8
hatch
100
AcDbLine
 10
992.7049563950863
 20
517.9999999999942
 30
0.0
 11
1058.204956395086
 21
517.9946245890846
 31
0.0
  0
LINE
  5
307B3
330
1F
100
AcDbEntity
  8
hatch
100
AcDbLine
 10
992.7049563950863
 20
497.9999999999943
 30
0.0
 11
1058.204956395086
 21
497.9938449493355
 31
0.0
  0
LINE
  5
307B8
330
1F
100
AcDbEntity
  8
hatch
100
AcDbLine
 10
556.9230812397272
 20
579.9999999999001
 30
0.0
 11
556.9230812397272
 21
725.499999999899
 31
0.0
  0
LINE
  5
307B9
330
1F
100
AcDbEntity
  8
hatch
100
AcDbLine
 10
326.9230812397272
 20
579.9999999999006
 30
0.0
 11
326.9230812397277
 21
725.499999999899
 31
0.0
  0
LINE
  5
307BA
330
1F
100
AcDbEntity
  8
hasen
100
AcDbLine
 10
1029.204956395086
 20
731.4999999999997
 30
0.0
 11
1026.204956395086
 21
731.4999999999997
 31
0.0
  0
LINE
  5
307BB
330
1F
100
AcDbEntity
  8
hasen
100
AcDbLine
 10
1026.204956395086
 20
731.4999999999997
 30
0.0
 11
1023.204956395086
 21
732.9999999999998
 31
0.0
  0
LINE
  5
307BC
330
1F
100
AcDbEntity
  8
hasen
100
AcDbLine
 10
1029.204956395086
 20
717.9999999999997
 30
0.0
 11
1029.204956395086
 21
731.4999999999997
 31
0.0
  0
LINE
  5
307BD
330
1F
100
AcDbEntity
  8
hasen
100
AcDbLine
 10
1026.204956395086
 20
731.4999999999997
 30
0.0
 11
1026.204956395086
 21
717.9999999999997
 31
0.0
  0
LINE
  5
307BE
330
1F
100
AcDbEntity
  8
kijun
100
AcDbLine
 10
1027.704956395086
 20
712.4734973947413
 30
0.0
 11
1027.704956395086
 21
732.9999999999998
 31
0.0
  0
LINE
  5
307BF
330
1F
100
AcDbEntity
  8
saisen
100
AcDbLine
 10
1018.604956395083
 20
731.9999999999898
 30
0.0
 11
1042.704956395087
 21
701.9999999999997
 31
0.0
  0
LINE
  5
307C0
330
1F
100
AcDbEntity
  8
hasen
100
AcDbLine
 10
1029.204956395086
 20
731.4999999999997
 30
0.0
 11
1032.204956395086
 21
732.9999999999998
 31
0.0
  0
DIMENSION
  5
307C1
330
1F
100
AcDbEntity
  8
sunpo
100
AcDbDimension
  2
*D16
 10
1045.700051119279
 20
629.0045311841147
 30
0.0
 11
1051.316549393006
 21
632.2688276832511
 31
0.0
 70
   160
 71
     5
 42
3.0
  3
dim2
100
AcDbAlignedDimension
 13
1042.700051119279
 23
635.0045311841157
 33
0.0
 14
1045.700051119279
 24
635.0045311841157
 34
0.0
 50
180.0
100
AcDbRotatedDimension
  0
DIMENSION
  5
307C2
330
1F
100
AcDbEntity
  8
sunpo
100
AcDbDimension
  2
*D17
 10
1007.700051119269
 20
629.0045311841147
 30
0.0
 11
1025.200051119274
 21
633.2045311841148
 31
0.0
 70
    32
 71
     5
 42
35.00000000001
  3
dim2
100
AcDbAlignedDimension
 13
1042.700051119279
 23
635.0045311841147
 33
0.0
 14
1007.700051119269
 24
635.0045311841147
 34
0.0
100
AcDbRotatedDimension
  0
DIMENSION
  5
307C3
330
1F
100
AcDbEntity
  8
sunpo
100
AcDbDimension
  2
*D18
 10
1012.700051119285
 20
649.0045311841202
 30
0.0
 11
1027.700051119285
 21
653.2045311841202
 31
0.0
 70
    32
 71
     5
 42
30.0
  3
dim2
100
AcDbAlignedDimension
 13
1042.700051119285
 23
655.0045311841202
 33
0.0
 14
1012.700051119285
 24
655.0045311841202
 34
0.0
100
AcDbRotatedDimension
  0
LINE
  5
307C4
330
1F
100
AcDbEntity
  8
塗板・掲示板
100
AcDbLine
 10
1012.704956395086
 20
518.0000000000043
 30
0.0
 11
1012.704956395086
 21
731.9999999999997
 31
0.0
  0
LINE
  5
307C5
330
1F
100
AcDbEntity
  8
saisen
100
AcDbLine
 10
1042.704956395087
 20
701.9999999999997
 30
0.0
 11
1042.704956395086
 21
518.0000000000043
 31
0.0
  0
LINE
  5
307C6
330
1F
100
AcDbEntity
  8
塗板・掲示板
100
AcDbLine
 10
1013.104956395083
 20
517.9999999999942
 30
0.0
 11
1013.104956395084
 21
731.9999999999898
 31
0.0
  0
LINE
  5
307C7
330
1F
100
AcDbEntity
  8
塗板・掲示板
100
AcDbLine
 10
1018.604956395083
 20
731.9999999999898
 30
0.0
 11
1018.604956395083
 21
517.9999999999942
 31
0.0
  0
LINE
  5
307C8
330
1F
100
AcDbEntity
  8
SIAGE
100
AcDbLine
 10
1045.704956395085
 20
787.9999999999998
 30
0.0
 11
1045.704956395086
 21
517.9938449493345
 31
0.0
  0
LINE
  5
307C9
330
1F
100
AcDbEntity
  8
saisen
100
AcDbLine
 10
1007.704956395086
 20
713.9999999999997
 30
0.0
 11
1007.704956395086
 21
517.9999999999942
 31
0.0
  0
DIMENSION
  5
307CA
330
1F
100
AcDbEntity
  8
sunpo
100
AcDbDimension
  2
*D19
 10
865.7049563950854
 20
713.0000000000006
 30
0.0
 11
861.5049563950853
 21
722.9999999999959
 31
0.0
 70
    32
 71
     5
 42
19.99999999998999
  3
dim2
100
AcDbAlignedDimension
 13
915.7049563950863
 23
732.9999999999906
 33
0.0
 14
915.7049563950863
 24
713.0000000000006
 34
0.0
 50
90.0
100
AcDbRotatedDimension
  0
LINE
  5
307CB
330
1F
100
AcDbEntity
  8
塗板・掲示板
100
AcDbLine
 10
743.9230812397231
 20
709.999999999899
 30
0.0
 11
741.9230812397231
 21
709.999999999899
 31
0.0
  0
LINE
  5
307CC
330
1F
100
AcDbEntity
  8
hasen
100
AcDbLine
 10
740.4230812397181
 20
696.4999999999053
 30
0.0
 11
740.4230812397181
 21
693.4999999999054
 31
0.0
  0
LINE
  5
307CD
330
1F
100
AcDbEntity
  8
hasen
100
AcDbLine
 10
740.4230812397181
 20
693.4999999999054
 30
0.0
 11
741.9230812397181
 21
690.4999999999054
 31
0.0
  0
LINE
  5
307CE
330
1F
100
AcDbEntity
  8
塗板・掲示板
100
AcDbLine
 10
719.9230812397232
 20
679.999999999899
 30
0.0
 11
719.9230812397232
 21
672.999999999899
 31
0.0
  0
LINE
  5
307CF
330
1F
100
AcDbEntity
  8
塗板・掲示板
100
AcDbLine
 10
704.9230812397231
 20
672.999999999899
 30
0.0
 11
719.9230812397232
 21
672.999999999899
 31
0.0
  0
LINE
  5
307D0
330
1F
100
AcDbEntity
  8
hasen
100
AcDbLine
 10
726.9230812397181
 20
696.4999999999053
 30
0.0
 11
740.4230812397181
 21
696.4999999999053
 31
0.0
  0
LINE
  5
307D1
330
1F
100
AcDbEntity
  8
hasen
100
AcDbLine
 10
740.4230812397181
 20
693.4999999999054
 30
0.0
 11
726.9230812397181
 21
693.4999999999054
 31
0.0
  0
LINE
  5
307D2
330
1F
100
AcDbEntity
  8
kijun
100
AcDbLine
 10
721.3965786344597
 20
694.9999999999054
 30
0.0
 11
741.9230812397181
 21
694.9999999999054
 31
0.0
  0
LINE
  5
307D3
330
1F
100
AcDbEntity
  8
塗板・掲示板
100
AcDbLine
 10
719.9230812397232
 20
672.999999999899
 30
0.0
 11
743.9230812397231
 21
672.999999999899
 31
0.0
  0
LINE
  5
307D4
330
1F
100
AcDbEntity
  8
saisen
100
AcDbLine
 10
740.92308123972
 20
709.999999999899
 30
0.0
 11
710.9230812397204
 21
685.8999999998977
 31
0.0
  0
LINE
  5
307D5
330
1F
100
AcDbEntity
  8
hasen
100
AcDbLine
 10
740.4230812397181
 20
696.4999999999053
 30
0.0
 11
741.9230812397181
 21
699.4999999999054
 31
0.0
  0
LINE
  5
307D6
330
1F
100
AcDbEntity
  8
塗板・掲示板
100
AcDbLine
 10
743.9230812397231
 20
672.999999999899
 30
0.0
 11
743.9230812397231
 21
709.999999999899
 31
0.0
  0
LINE
  5
307D7
330
1F
100
AcDbEntity
  8
塗板・掲示板
100
AcDbLine
 10
704.9230812397231
 20
607.999999999899
 30
0.0
 11
723.7195197213077
 21
607.9999999998999
 31
0.0
  0
ARC
  5
307D8
330
1F
100
AcDbEntity
  8
塗板・掲示板
100
AcDbCircle
 10
723.7195197213077
 20
611.499999999899
 30
0.0
 40
3.5
100
AcDbArc
 50
270.0
 51
350.2529098608757
  0
LINE
  5
307D9
330
1F
100
AcDbEntity
  8
塗板・掲示板
100
AcDbLine
 10
704.9230812397231
 20
592.499999999899
 30
0.0
 11
723.773353143978
 21
592.499999999899
 31
0.0
  0
ARC
  5
307DA
330
1F
100
AcDbEntity
  8
塗板・掲示板
100
AcDbCircle
 10
723.773353143978
 20
599.9999999998991
 30
0.0
 40
7.5
100
AcDbArc
 50
270.0
 51
350.2529098608757
  0
DIMENSION
  5
307DB
330
1F
100
AcDbEntity
  8
sunpo
100
AcDbDimension
  2
*D20
 10
741.9230812397309
 20
556.1021474496373
 30
0.0
 11
731.9230812397308
 21
560.3021474496374
 31
0.0
 70
    32
 71
     5
 42
20.0
  3
dim2
100
AcDbAlignedDimension
 13
721.9230812397309
 23
585.9999999998999
 33
0.0
 14
741.9230812397309
 24
585.9999999998999
 34
0.0
100
AcDbRotatedDimension
  0
LINE
  5
307DC
330
1F
100
AcDbEntity
  8
塗板・掲示板
100
AcDbLine
 10
704.9230812397231
 20
679.9999999998999
 30
0.0
 11
704.9230812397231
 21
592.499999999899
 31
0.0
  0
LINE
  5
307DD
330
1F
100
AcDbEntity
  8
塗板・掲示板
100
AcDbLine
 10
727.1689960259936
 20
610.9074519230207
 30
0.0
 11
737.8352006036193
 21
672.999999999899
 31
0.0
  0
LINE
  5
307DE
330
1F
100
AcDbEntity
  8
塗板・掲示板
100
AcDbLine
 10
731.16508808259
 20
598.7302541208737
 30
0.0
 11
743.9230812397231
 21
672.999999999899
 31
0.0
  0
DIMENSION
  5
307DF
330
1F
100
AcDbEntity
  8
sunpo
100
AcDbDimension
  2
*D21
 10
1042.700051119279
 20
398.8587444084413
 30
0.0
 11
1037.28341761944
 21
404.6869777040501
 31
0.0
 70
   160
 71
     5
 42
3.0
  3
dim2
100
AcDbAlignedDimension
 13
1045.700051119279
 23
393.312443010538
 33
0.0
 14
1042.700051119279
 24
392.8587444084413
 34
0.0
100
AcDbRotatedDimension
1001
ACAD
1000
DSTYLE
1002
{
1070
   279
1070
     2
1002
}
  0
LINE
  5
307E0
330
1F
100
AcDbEntity
  8
saisen
100
AcDbLine
 10
940.7110548631667
 20
308.4999999999998
 30
0.0
 11
1005.704956395048
 21
308.4999999999998
 31
0.0
  0
DIMENSION
  5
307E1
330
1F
100
AcDbEntity
  8
sunpo
100
AcDbDimension
  2
*D22
 10
1012.700051119285
 20
378.8587444084358
 30
0.0
 11
1027.700051119285
 21
383.0587444084358
 31
0.0
 70
    32
 71
     5
 42
30.0
  3
dim2
100
AcDbAlignedDimension
 13
1042.700051119285
 23
372.8587444084358
 33
0.0
 14
1012.700051119285
 24
372.8587444084358
 34
0.0
100
AcDbRotatedDimension
  0
LINE
  5
307E2
330
1F
100
AcDbEntity
  8
hasen
100
AcDbLine
 10
1026.204956395086
 20
284.4999999999998
 30
0.0
 11
1023.204956395086
 21
282.9999999999998
 31
0.0
  0
LINE
  5
307E3
330
1F
100
AcDbEntity
  8
hasen
100
AcDbLine
 10
1029.204956395086
 20
284.4999999999998
 30
0.0
 11
1026.204956395086
 21
284.4999999999998
 31
0.0
  0
LINE
  5
307E4
330
1F
100
AcDbEntity
  8
hasen
100
AcDbLine
 10
1029.204956395086
 20
284.4999999999998
 30
0.0
 11
1032.204956395086
 21
282.9999999999998
 31
0.0
  0
LINE
  5
307E5
330
1F
100
AcDbEntity
  8
saisen
100
AcDbLine
 10
1042.704956395083
 20
284.4999999999998
 30
0.0
 11
1018.604956395084
 21
314.4999999999998
 31
0.0
  0
LINE
  5
307E6
330
1F
100
AcDbEntity
  8
kijun
100
AcDbLine
 10
1027.704956395086
 20
303.5265026052582
 30
0.0
 11
1027.704956395086
 21
282.9999999999998
 31
0.0
  0
LINE
  5
307E7
330
1F
100
AcDbEntity
  8
hasen
100
AcDbLine
 10
1026.204956395086
 20
284.4999999999998
 30
0.0
 11
1026.204956395086
 21
297.9999999999998
 31
0.0
  0
LINE
  5
307E8
330
1F
100
AcDbEntity
  8
hasen
100
AcDbLine
 10
1029.204956395086
 20
297.9999999999998
 30
0.0
 11
1029.204956395086
 21
284.4999999999998
 31
0.0
  0
DIMENSION
  5
307E9
330
1F
100
AcDbEntity
  8
sunpo
100
AcDbDimension
  2
*D23
 10
865.704956395086
 20
283.0000000000008
 30
0.0
 11
861.5049563950858
 21
295.5000000000005
 31
0.0
 70
    32
 71
     5
 42
24.99999999999909
  3
dim2
100
AcDbAlignedDimension
 13
915.7049563950863
 23
307.9999999999998
 33
0.0
 14
915.7049563950863
 24
283.0000000000008
 34
0.0
 50
90.0
100
AcDbRotatedDimension
  0
DIMENSION
  5
307EA
330
1F
100
AcDbEntity
  8
sunpo
100
AcDbDimension
  2
*D24
 10
927.7049563950864
 20
398.8587444084413
 30
0.0
 11
985.2025037571829
 21
403.0587444084412
 31
0.0
 70
    32
 71
     5
 42
114.9950947241932
  3
dim2
100
AcDbAlignedDimension
 13
1042.700051119279
 23
392.8587444084413
 33
0.0
 14
927.7049563950864
 24
317.9954688158685
 34
0.0
100
AcDbRotatedDimension
  0
DIMENSION
  5
307EB
330
1F
100
AcDbEntity
  8
sunpo
100
AcDbDimension
  2
*D25
 10
927.700051119285
 20
378.8587444084358
 30
0.0
 11
970.2000511192849
 21
383.0587444084358
 31
0.0
 70
    32
 71
     5
 42
85.0
  3
dim2
100
AcDbAlignedDimension
 13
1012.700051119285
 23
372.8587444084358
 33
0.0
 14
927.700051119285
 24
372.8587444084358
 34
0.0
100
AcDbRotatedDimension
  0
LINE
  5
307EC
330
1F
100
AcDbEntity
  8
塗板・掲示板
100
AcDbLine
 10
1012.704956395086
 20
497.9938449493355
 30
0.0
 11
1012.704956395086
 21
284.4999999999998
 31
0.0
  0
LINE
  5
307ED
330
1F
100
AcDbEntity
  8
saisen
100
AcDbLine
 10
1042.704956395085
 20
313.9999999999998
 30
0.0
 11
1042.704956395085
 21
497.9938449493345
 31
0.0
  0
LINE
  5
307EE
330
1F
100
AcDbEntity
  8
塗板・掲示板
100
AcDbLine
 10
1018.604956395082
 20
284.4999999999998
 30
0.0
 11
1018.604956395082
 21
497.9999999999943
 31
0.0
  0
LINE
  5
307EF
330
1F
100
AcDbEntity
  8
塗板・掲示板
100
AcDbLine
 10
1013.104956395082
 20
497.9999999999943
 30
0.0
 11
1013.104956395083
 21
284.4999999999998
 31
0.0
  0
LINE
  5
307F0
330
1F
100
AcDbEntity
  8
SIAGE
100
AcDbLine
 10
1045.704956395086
 20
497.9938449493355
 30
0.0
 11
1045.704956395085
 21
111.0000000000027
 31
0.0
  0
LINE
  5
307F1
330
1F
100
AcDbEntity
  8
saisen
100
AcDbLine
 10
1007.704956395086
 20
313.9999999999998
 30
0.0
 11
1007.704956395086
 21
497.9999999999943
 31
0.0
  0
DIMENSION
  5
307F2
330
1F
100
AcDbEntity
  8
sunpo
100
AcDbDimension
  2
*D26
 10
845.7049563950858
 20
283.0000000000008
 30
0.0
 11
841.5049563950857
 21
507.9999999999958
 31
0.0
 70
    32
  1
H
 71
     5
 42
449.9999999999899
  3
dim2
100
AcDbAlignedDimension
 13
915.7049563950863
 23
732.9999999999906
 33
0.0
 14
915.7049563950863
 24
283.0000000000008
 34
0.0
 50
90.0
100
AcDbRotatedDimension
  0
TEXT
  5
307F3
330
1F
100
AcDbEntity
  8
moji
100
AcDbText
 10
440.8281049795808
 20
557.1524154106066
 30
0.0
 40
7.0
  1
Ｌ
  7
StdW
 72
     4
 11
444.0947716462473
 21
560.88574874394
 31
0.0
100
AcDbText
  0
TEXT
  5
307F4
330
1F
100
AcDbEntity
  8
moji
100
AcDbText
 10
438.6564145730606
 20
560.6262250506863
 30
0.0
 40
7.0
  1
Ｃ
  7
StdW
 72
     4
 11
441.9230812397272
 21
564.3595583840196
 31
0.0
100
AcDbText
  0
LINE
  5
307F5
330
1F
100
AcDbEntity
  8
kijun
100
AcDbLine
 10
441.9230812397272
 20
752.9457820958314
 30
0.0
 11
441.9230812397272
 21
571.3798252238448
 31
0.0
  0
LINE
  5
307F6
330
1F
100
AcDbEntity
  8
saisen
100
AcDbLine
 10
556.9230812397272
 20
709.999999999899
 30
0.0
 11
326.9230812397272
 21
709.999999999899
 31
0.0
  0
LINE
  5
307F7
330
1F
100
AcDbEntity
  8
塗板・掲示板
100
AcDbLine
 10
556.9230812397272
 20
685.8999999998986
 30
0.0
 11
326.9230812397272
 21
685.8999999998986
 31
0.0
  0
LINE
  5
307F8
330
1F
100
AcDbEntity
  8
saisen
100
AcDbLine
 10
426.9230812397272
 20
685.8999999998986
 30
0.0
 11
456.9230812397272
 21
709.999999999899
 31
0.0
  0
LINE
  5
307F9
330
1F
100
AcDbEntity
  8
塗板・掲示板
100
AcDbLine
 10
326.9230812397272
 20
679.9999999998999
 30
0.0
 11
556.9230812397272
 21
679.999999999899
 31
0.0
  0
LINE
  5
307FA
330
1F
100
AcDbEntity
  8
塗板・掲示板
100
AcDbLine
 10
326.9230812397272
 20
680.3999999998986
 30
0.0
 11
556.9230812397272
 21
680.3999999998986
 31
0.0
  0
LINE
  5
307FB
330
1F
100
AcDbEntity
  8
塗板・掲示板
100
AcDbLine
 10
326.9230812397272
 20
674.9999999998991
 30
0.0
 11
556.9230812397272
 21
674.9999999998991
 31
0.0
  0
LINE
  5
307FC
330
1F
100
AcDbEntity
  8
SIAGE
100
AcDbLine
 10
326.9230812397272
 20
712.999999999899
 30
0.0
 11
556.9230812397272
 21
712.999999999899
 31
0.0
  0
LINE
  5
307FD
330
1F
100
AcDbEntity
  8
塗板・掲示板
100
AcDbLine
 10
556.9230812397272
 20
604.999999999899
 30
0.0
 11
326.9230812397277
 21
604.9999999998999
 31
0.0
  0
LINE
  5
307FE
330
1F
100
AcDbEntity
  8
塗板・掲示板
100
AcDbLine
 10
556.9230812397272
 20
594.999999999899
 30
0.0
 11
326.9230812397277
 21
594.9999999999
 31
0.0
  0
DIMENSION
  5
307FF
330
1F
100
AcDbEntity
  8
sunpo
100
AcDbDimension
  2
*D27
 10
229.019645633407
 20
674.9999999998991
 30
0.0
 11
223.599168342017
 21
669.537648687573
 31
0.0
 70
   160
 71
     5
 42
5.0
  3
dim2
100
AcDbAlignedDimension
 13
223.019645633407
 23
679.999999999899
 33
0.0
 14
223.019645633407
 24
674.9999999998991
 34
0.0
 50
90.0
100
AcDbRotatedDimension
  0
LINE
  5
30800
330
1F
100
AcDbEntity
  8
塗板・掲示板
100
AcDbLine
 10
163.9230812397213
 20
679.999999999899
 30
0.0
 11
163.9230812397213
 21
672.999999999899
 31
0.0
  0
LINE
  5
30801
330
1F
100
AcDbEntity
  8
塗板・掲示板
100
AcDbLine
 10
178.9230812397213
 20
672.999999999899
 30
0.0
 11
163.9230812397213
 21
672.999999999899
 31
0.0
  0
DIMENSION
  5
30802
330
1F
100
AcDbEntity
  8
sunpo
100
AcDbDimension
  2
*D28
 10
229.019645633407
 20
679.999999999899
 30
0.0
 11
224.8196456334069
 21
694.999999999899
 31
0.0
 70
    32
 71
     5
 42
30.0
  3
dim2
100
AcDbAlignedDimension
 13
223.019645633407
 23
709.999999999899
 33
0.0
 14
223.019645633407
 24
679.999999999899
 34
0.0
 50
90.0
100
AcDbRotatedDimension
  0
LINE
  5
30803
330
1F
100
AcDbEntity
  8
塗板・掲示板
100
AcDbLine
 10
139.9230812397213
 20
709.999999999899
 30
0.0
 11
141.9230812397213
 21
709.999999999899
 31
0.0
  0
TEXT
  5
30804
330
1F
100
AcDbEntity
  8
moji
100
AcDbText
 10
96.87152902051147
 20
697.999999999899
 30
0.0
 40
6.0
  1
壁 仕上面
  7
StdW
 72
     1
 11
112.2715290205114
 21
697.999999999899
 31
0.0
100
AcDbText
  0
LINE
  5
30805
330
1F
100
AcDbEntity
  8
hasen
100
AcDbLine
 10
143.4230812397213
 20
693.4999999998999
 30
0.0
 11
141.9230812397213
 21
690.4999999998999
 31
0.0
  0
LINE
  5
30806
330
1F
100
AcDbEntity
  8
hasen
100
AcDbLine
 10
143.4230812397213
 20
696.4999999998999
 30
0.0
 11
143.4230812397213
 21
693.4999999998999
 31
0.0
  0
LINE
  5
30807
330
1F
100
AcDbEntity
  8
hasen
100
AcDbLine
 10
143.4230812397213
 20
696.4999999998999
 30
0.0
 11
141.9230812397213
 21
699.499999999899
 31
0.0
  0
LINE
  5
30808
330
1F
100
AcDbEntity
  8
塗板・掲示板
100
AcDbLine
 10
139.9230812397213
 20
672.999999999899
 30
0.0
 11
139.9230812397213
 21
709.999999999899
 31
0.0
  0
LINE
  5
30809
330
1F
100
AcDbEntity
  8
saisen
100
AcDbLine
 10
172.9230812397218
 20
709.9999999998999
 30
0.0
 11
142.9230812397222
 21
685.8999999998996
 31
0.0
  0
LINE
  5
3080A
330
1F
100
AcDbEntity
  8
kijun
100
AcDbLine
 10
162.4495838449798
 20
694.9999999999
 30
0.0
 11
141.9230812397213
 21
694.9999999999
 31
0.0
  0
LINE
  5
3080B
330
1F
100
AcDbEntity
  8
hasen
100
AcDbLine
 10
143.4230812397213
 20
693.4999999998999
 30
0.0
 11
156.9230812397213
 21
693.4999999998999
 31
0.0
  0
LINE
  5
3080C
330
1F
100
AcDbEntity
  8
hasen
100
AcDbLine
 10
156.9230812397213
 20
696.4999999998999
 30
0.0
 11
143.4230812397213
 21
696.4999999998999
 31
0.0
  0
LINE
  5
3080D
330
1F
100
AcDbEntity
  8
塗板・掲示板
100
AcDbLine
 10
163.9230812397213
 20
672.999999999899
 30
0.0
 11
139.9230812397213
 21
672.999999999899
 31
0.0
  0
ARC
  5
3080E
330
1F
100
AcDbEntity
  8
塗板・掲示板
100
AcDbCircle
 10
160.1266427581367
 20
611.499999999899
 30
0.0
 40
3.5
100
AcDbArc
 50
189.7470901391243
 51
270.0
  0
LINE
  5
3080F
330
1F
100
AcDbEntity
  8
塗板・掲示板
100
AcDbLine
 10
178.9230812397213
 20
607.999999999899
 30
0.0
 11
160.1266427581367
 21
607.9999999998999
 31
0.0
  0
LINE
  5
30810
330
1F
100
AcDbEntity
  8
塗板・掲示板
100
AcDbLine
 10
178.9230812397213
 20
592.499999999899
 30
0.0
 11
160.0728093354664
 21
592.4999999998999
 31
0.0
  0
ARC
  5
30811
330
1F
100
AcDbEntity
  8
塗板・掲示板
100
AcDbCircle
 10
160.0728093354664
 20
599.9999999998991
 30
0.0
 40
7.5
100
AcDbArc
 50
189.7470901391243
 51
270.0
  0
DIMENSION
  5
30812
330
1F
100
AcDbEntity
  8
sunpo
100
AcDbDimension
  2
*D29
 10
161.9230812397236
 20
556.1021474497329
 30
0.0
 11
151.9230812397236
 21
560.3021474497329
 31
0.0
 70
    32
 71
     5
 42
20.0
  3
dim2
100
AcDbAlignedDimension
 13
141.9230812397236
 23
585.9999999998999
 33
0.0
 14
161.9230812397236
 24
585.9999999998999
 34
0.0
100
AcDbRotatedDimension
  0
LINE
  5
30813
330
1F
100
AcDbEntity
  8
塗板・掲示板
100
AcDbLine
 10
178.9230812397213
 20
679.9999999998999
 30
0.0
 11
178.9230812397213
 21
592.499999999899
 31
0.0
  0
LINE
  5
30814
330
1F
100
AcDbEntity
  8
塗板・掲示板
100
AcDbLine
 10
152.6810743968544
 20
598.7302541208737
 30
0.0
 11
139.9230812397213
 21
672.999999999899
 31
0.0
  0
LINE
  5
30815
330
1F
100
AcDbEntity
  8
塗板・掲示板
100
AcDbLine
 10
156.6771664534508
 20
610.9074519230207
 30
0.0
 11
146.0109618758251
 21
672.999999999899
 31
0.0
  0
LINE
  5
30816
330
1F
100
AcDbEntity
  8
塗板・掲示板
100
AcDbLine
 10
142.9230812397222
 20
680.3999999998986
 30
0.0
 11
311.9230812397264
 21
680.3999999998986
 31
0.0
  0
LINE
  5
30817
330
1F
100
AcDbEntity
  8
SIAGE
100
AcDbLine
 10
98.92308123972226
 20
712.999999999899
 30
0.0
 11
311.9230812397264
 21
712.999999999899
 31
0.0
  0
LINE
  5
30818
330
1F
100
AcDbEntity
  8
塗板・掲示板
100
AcDbLine
 10
178.9230812397213
 20
674.9999999998991
 30
0.0
 11
311.9230812397264
 21
674.9999999998991
 31
0.0
  0
LINE
  5
30819
330
1F
100
AcDbEntity
  8
塗板・掲示板
100
AcDbLine
 10
142.9230812397222
 20
679.9999999998999
 30
0.0
 11
311.9230812397264
 21
679.9999999998999
 31
0.0
  0
DIMENSION
  5
3081A
330
1F
100
AcDbEntity
  8
sunpo
100
AcDbDimension
  2
*D30
 10
249.0196456334124
 20
594.9999999998835
 30
0.0
 11
244.8196456334123
 21
652.4999999998885
 31
0.0
 70
    32
 71
     5
 42
115.00000000001
  3
dim2
100
AcDbAlignedDimension
 13
243.0196456334124
 23
709.9999999998935
 33
0.0
 14
243.0196456334124
 24
594.9999999998835
 34
0.0
 50
90.0
100
AcDbRotatedDimension
  0
DIMENSION
  5
3081B
330
1F
100
AcDbEntity
  8
sunpo
100
AcDbDimension
  2
*D31
 10
249.0196456334129
 20
709.9999999998935
 30
0.0
 11
244.8948212945561
 21
719.0283022605804
 31
0.0
 70
   160
 71
     5
 42
3.0
  3
dim2
100
AcDbAlignedDimension
 13
243.0196456334124
 23
712.9999999998935
 33
0.0
 14
243.0196456334124
 24
709.9999999998935
 34
0.0
 50
90.0
100
AcDbRotatedDimension
  0
LINE
  5
3081C
330
1F
100
AcDbEntity
  8
塗板・掲示板
100
AcDbLine
 10
740.92308123972
 20
679.9999999998999
 30
0.0
 11
571.9230812397285
 21
679.9999999998999
 31
0.0
  0
LINE
  5
3081D
330
1F
100
AcDbEntity
  8
塗板・掲示板
100
AcDbLine
 10
740.9230812397236
 20
680.3999999998977
 30
0.0
 11
571.9230812397285
 21
680.3999999998986
 31
0.0
  0
LINE
  5
3081E
330
1F
100
AcDbEntity
  8
塗板・掲示板
100
AcDbLine
 10
704.9230812397231
 20
674.9999999998999
 30
0.0
 11
571.9230812397285
 21
674.9999999998999
 31
0.0
  0
LINE
  5
3081F
330
1F
100
AcDbEntity
  8
saisen
100
AcDbLine
 10
710.9230812397204
 20
709.999999999899
 30
0.0
 11
571.9230812397281
 21
709.999999999899
 31
0.0
  0
LINE
  5
30820
330
1F
100
AcDbEntity
  8
塗板・掲示板
100
AcDbLine
 10
740.9230812397236
 20
685.8999999998977
 30
0.0
 11
571.9230812397285
 21
685.8999999998986
 31
0.0
  0
LINE
  5
30821
330
1F
100
AcDbEntity
  8
SIAGE
100
AcDbLine
 10
779.9230812397222
 20
712.9999999998999
 30
0.0
 11
571.9230812397285
 21
712.9999999998999
 31
0.0
  0
DIMENSION
  5
30822
330
1F
100
AcDbEntity
  8
sunpo
100
AcDbDimension
  2
*D32
 10
741.9230812397309
 20
536.1021474496374
 30
0.0
 11
441.9230812397272
 21
540.3021474496374
 31
0.0
 70
    32
  1
W
 71
     5
 42
600.0000000000072
  3
dim2
100
AcDbAlignedDimension
 13
141.9230812397236
 23
585.9999999999009
 33
0.0
 14
741.9230812397309
 24
585.9999999998999
 34
0.0
100
AcDbRotatedDimension
  0
LINE
  5
30823
330
1F
100
AcDbEntity
  8
塗板・掲示板
100
AcDbLine
 10
704.9230812397231
 20
594.999999999899
 30
0.0
 11
571.9230812397291
 21
594.999999999899
 31
0.0
  0
LINE
  5
30824
330
1F
100
AcDbEntity
  8
塗板・掲示板
100
AcDbLine
 10
704.9230812397231
 20
604.999999999899
 30
0.0
 11
571.9230812397285
 21
604.999999999899
 31
0.0
  0
TEXT
  5
30825
330
1F
100
AcDbEntity
  8
moji
100
AcDbText
 10
898.3629436506832
 20
114.0144475971465
 30
0.0
 40
6.0
  1
縦 断 面 図
  7
StdW
 72
     4
 11
917.1629436506831
 21
117.0144475971465
 31
0.0
100
AcDbText
  0
TEXT
  5
30826
330
1F
100
AcDbEntity
  8
moji
100
AcDbText
 10
420.7316096653086
 20
495.5826852376203
 30
0.0
 40
6.0
  1
横 断 面 図
  7
StdW
 72
     4
 11
439.5316096653086
 21
498.5826852376203
 31
0.0
100
AcDbText
  0
LWPOLYLINE
  5
30827
330
1F
100
AcDbEntity
  8
塗板・掲示板
100
AcDbPolyline
 90
        4
 70
     0
 43
0.0
 10
1012.704956395086
 20
284.4999999999998
 10
1042.704956395086
 20
284.5000000000007
 10
1042.704956395083
 20
314.4999999999998
 10
1018.604956395082
 20
314.4999999999998
  0
LWPOLYLINE
  5
30828
330
1F
100
AcDbEntity
  8
塗板・掲示板
100
AcDbPolyline
 90
       21
 70
     1
 43
0.0
 10
936.2499969681508
 20
307.9999999999998
 10
929.7049563950864
 20
307.9999999999998
 10
927.7049563950864
 20
305.9999999999998
 10
927.7049563950864
 20
284.9999999999998
 10
929.7049563950864
 20
282.9999999999998
 10
984.2049563950864
 20
282.9999999999998
 42
0.2607271732155278
 10
1005.510224520009
 20
294.9200324876118
 42
-0.7655478850122419
 10
1009.704956395085
 20
293.6839734136127
 10
1009.704956395086
 20
282.9999999999998
 10
1042.704956395086
 20
282.9999999999998
 10
1042.704956395086
 20
284.5000000000007
 10
1011.704956395086
 20
284.4999999999998
 10
1011.704956395085
 20
306.4999999999998
 10
1012.704956395086
 20
306.4999999999998
 10
1012.704956395086
 20
307.4999999999998
 42
0.4142135623730951
 10
1012.204956395086
 20
307.9999999999998
 10
1009.159915822022
 20
307.9999999999998
 42
0.3967367478753203
 10
1007.662618256405
 20
306.59
 42
-0.3967367478752875
 10
984.2049563950864
 20
284.4999999999998
 10
961.2049563950863
 20
284.4999999999998
 42
-0.3967367478753203
 10
937.7472945337663
 20
306.5900000000009
 42
0.3967367478753203
  0
LWPOLYLINE
  5
30829
330
1F
100
AcDbEntity
  8
塗板・掲示板
100
AcDbPolyline
 90
        7
 70
     1
 43
0.0
 10
929.2049563950863
 20
285.6213203435599
 10
929.2049563950863
 20
305.3786796564398
 10
930.3262767386454
 20
306.4999999999998
 10
936.2499969681508
 20
306.4999999999998
 42
0.2515854924307539
 10
948.6772504135515
 20
286.3653846153846
 42
-0.7668186370549061
 10
948.1761421742907
 20
284.4999999999998
 10
930.3262767386454
 20
284.4999999999998
  0
LWPOLYLINE
  5
3082A
330
1F
100
AcDbEntity
  8
saisen
100
AcDbPolyline
 90
       13
 70
     0
 43
0.0
 10
1012.704956395086
 20
310.999999999998
 10
1005.704956395085
 20
310.999999999998
 10
1005.704956395086
 20
307.9999999999998
 42
-0.4142135623730951
 10
985.2049563950863
 20
287.4999999999998
 10
961.2049563950863
 20
287.4999999999998
 42
-0.4142135623730951
 10
940.7049563950863
 20
307.9999999999998
 10
940.7049563950863
 20
308.9999999999998
 42
0.4142135623730951
 10
938.7049563950863
 20
310.9999999999998
 10
928.7049563950864
 20
310.9999999999998
 42
0.4142135623730951
 10
925.2049563950864
 20
307.4999999999998
 10
925.2049563950864
 20
284.4999999999998
 42
0.4142135623730951
 10
928.7049563950864
 20
280.9999999999998
 10
930.9729055875173
 20
280.9999999999998
  0
LWPOLYLINE
  5
3082B
330
1F
100
AcDbEntity
  8
saisen
100
AcDbPolyline
 90
        3
 70
     0
 43
0.0
 10
1005.704956395085
 20
310.999999999998
 10
1005.704956395086
 20
313.9999999999998
 10
1012.704956395083
 20
313.9999999999998
  0
LWPOLYLINE
  5
3082D
330
1F
100
AcDbEntity
  8
hasen
100
AcDbPolyline
 90
        8
 70
     0
 43
0.0
 10
967.7049563950859
 20
282.9999999999998
 10
967.7049563950859
 20
279.9999999999998
 10
1045.704956395086
 20
279.9999999999998
 10
1045.704956395086
 20
340.9999999999998
 10
1043.204956395086
 20
340.9999999999998
 10
1042.704956395086
 20
340.4999999999998
 10
1042.704956395086
 20
282.9999999999998
 10
968.0247653040847
 20
282.9999999999998
  0
LWPOLYLINE
  5
3082E
330
1F
100
AcDbEntity
  8
hasen
100
AcDbPolyline
 90
        7
 70
     1
 43
0.0
 10
1042.704956395087
 20
675.4999999999998
 10
1042.704956395087
 20
732.9999999999998
 10
1015.704956395086
 20
732.9999999999998
 10
1015.704956395086
 20
735.9999999999997
 10
1045.704956395086
 20
735.9999999999997
 10
1045.704956395086
 20
674.9999999999998
 10
1043.204956395086
 20
674.9999999999998
  0
LWPOLYLINE
  5
3082F
330
1F
100
AcDbEntity
  8
塗板・掲示板
100
AcDbPolyline
 90
        4
 70
     0
 43
0.0
 10
1012.704956395086
 20
731.9999999999997
 10
1042.704956395086
 20
731.9999999999997
 10
1042.704956395087
 20
701.9999999999997
 10
1018.604956395083
 20
701.9999999999897
  0
LWPOLYLINE
  5
30830
330
1F
100
AcDbEntity
  8
塗板・掲示板
100
AcDbPolyline
 90
       18
 70
     1
 43
0.0
 10
740.9230812397226
 20
709.999999999899
 10
740.9230812397232
 20
679.9999999998999
 10
735.9230812397231
 20
679.9999999998999
 10
735.9230812397231
 20
678.9999999998999
 10
740.9230812397232
 20
678.9999999998999
 10
740.9230812397232
 20
676.4999999998999
 10
740.4230812397231
 20
675.9999999998999
 10
723.4230812397231
 20
675.9999999998999
 10
722.9230812397231
 20
676.4999999998999
 10
722.9230812397231
 20
678.9999999998999
 10
725.9230812397231
 20
678.9999999998999
 10
725.9230812397231
 20
679.9999999998999
 10
721.9230812397231
 20
679.9999999998999
 10
721.9230812397231
 20
675.9999999998999
 10
722.9230812397231
 20
674.9999999998999
 10
740.9230812397232
 20
674.9999999998999
 10
741.9230812397231
 20
675.9999999998999
 10
741.9230812397231
 20
709.9999999998999
  0
LWPOLYLINE
  5
30831
330
1F
100
AcDbEntity
  8
塗板・掲示板
100
AcDbPolyline
 90
       18
 70
     1
 43
0.0
 10
142.9230812397318
 20
709.999999999899
 10
142.9230812397318
 20
679.9999999998999
 10
147.9230812397318
 20
679.9999999998999
 10
147.9230812397318
 20
678.9999999998999
 10
142.9230812397318
 20
678.9999999998999
 10
142.9230812397318
 20
676.4999999998999
 10
143.4230812397318
 20
675.9999999998999
 10
160.4230812397318
 20
675.9999999998999
 10
160.9230812397318
 20
676.4999999998999
 10
160.9230812397318
 20
678.9999999998999
 10
157.9230812397318
 20
678.9999999998999
 10
157.9230812397318
 20
679.9999999998999
 10
161.9230812397318
 20
679.9999999998999
 10
161.9230812397318
 20
675.9999999998999
 10
160.9230812397318
 20
674.9999999998999
 10
142.9230812397318
 20
674.9999999998999
 10
141.9230812397318
 20
675.9999999998999
 10
141.9230812397318
 20
709.9999999998999
  0
LWPOLYLINE
  5
30832
330
1F
100
AcDbEntity
  8
塗板・掲示板
100
AcDbPolyline
 90
        4
 70
     0
 43
0.0
 10
710.9230812397204
 20
685.8999999998977
 10
710.9230812397204
 20
709.999999999899
 10
740.9230812397226
 20
709.9999999999018
 10
740.92308123972
 20
679.9999999998999
  0
LWPOLYLINE
  5
30833
330
1F
100
AcDbEntity
  8
塗板・掲示板
100
AcDbPolyline
 90
        4
 70
     0
 43
0.0
 10
456.9230812397272
 20
685.8999999998986
 10
456.9230812397272
 20
709.999999999899
 10
426.9230812397272
 20
709.999999999899
 10
426.9230812397272
 20
685.8999999998986
  0
LWPOLYLINE
  5
30834
330
1F
100
AcDbEntity
  8
塗板・掲示板
100
AcDbPolyline
 90
        4
 70
     0
 43
0.0
 10
172.923081239734
 20
685.8999999998977
 10
172.923081239734
 20
709.999999999899
 10
142.9230812397318
 20
709.9999999999018
 10
142.9230812397222
 20
679.9999999998999
  0
LINE
  5
30835
330
1F
100
AcDbEntity
  8
hatch
100
AcDbLine
 10
571.9230812397291
 20
579.9999999999001
 30
0.0
 11
571.9230812397281
 21
725.499999999899
 31
0.0
  0
LINE
  5
30837
330
1F
100
AcDbEntity
  8
hatch
100
AcDbLine
 10
311.9230812397264
 20
579.9999999999006
 30
0.0
 11
311.9230812397264
 21
725.499999999899
 31
0.0
  0
LINE
  5
30838
330
1F
100
AcDbEntity
  8
saisen
100
AcDbLine
 10
311.9230812397264
 20
709.9999999998999
 30
0.0
 11
172.9230812397218
 21
709.9999999998999
 31
0.0
  0
LINE
  5
30839
330
1F
100
AcDbEntity
  8
塗板・掲示板
100
AcDbLine
 10
311.9230812397264
 20
685.8999999998996
 30
0.0
 11
142.9230812397222
 21
685.8999999998996
 31
0.0
  0
LINE
  5
3083A
330
1F
100
AcDbEntity
  8
塗板・掲示板
100
AcDbLine
 10
311.9230812397264
 20
604.9999999998999
 30
0.0
 11
178.9230812397213
 21
604.9999999998999
 31
0.0
  0
LINE
  5
3083B
330
1F
100
AcDbEntity
  8
塗板・掲示板
100
AcDbLine
 10
311.9230812397264
 20
594.9999999999
 30
0.0
 11
178.9230812397213
 21
594.9999999999
 31
0.0
  0
LWPOLYLINE
  5
3083C
330
1F
100
AcDbEntity
  8
saisen
370
    15
100
AcDbPolyline
 90
        4
 70
     1
 43
0.0
 10
468.4425173907339
 20
505.1590530069415
 10
468.4425173907339
 20
492.512195228599
 10
412.6452345644256
 20
492.512195228599
 10
412.6452345644256
 20
505.1590530069415
  0
LWPOLYLINE
  5
3083D
330
1F
100
AcDbEntity
  8
saisen
370
    15
100
AcDbPolyline
 90
        4
 70
     1
 43
0.0
 10
468.9425173907339
 20
505.6590530069415
 10
468.9425173907339
 20
492.012195228599
 10
412.1452345644256
 20
492.012195228599
 10
412.1452345644256
 20
505.6590530069415
  0
LWPOLYLINE
  5
3083E
330
1F
100
AcDbEntity
  8
saisen
370
    15
100
AcDbPolyline
 90
        4
 70
     1
 43
0.0
 10
946.5738513761085
 20
124.0908153664677
 10
946.5738513761085
 20
110.4439575881252
 10
889.7765685498002
 20
110.4439575881252
 10
889.7765685498002
 20
124.0908153664677
  0
LWPOLYLINE
  5
3083F
330
1F
100
AcDbEntity
  8
saisen
370
    15
100
AcDbPolyline
 90
        4
 70
     1
 43
0.0
 10
946.0738513761084
 20
123.5908153664678
 10
946.0738513761084
 20
110.9439575881252
 10
890.2765685498001
 20
110.9439575881252
 10
890.2765685498001
 20
123.5908153664678
  0
DIMENSION
  5
30840
330
1F
100
AcDbEntity
  8
sunpo
100
AcDbDimension
  2
*D33
 10
1007.704956395086
 20
649.0045311841202
 30
0.0
 11
1001.510335369899
 21
653.4350753188943
 31
0.0
 70
   160
  1
<>
 71
     5
 42
5.000000000017735
  3
dim2
100
AcDbAlignedDimension
 13
1012.704956395104
 23
650.2313394610808
 33
0.0
 14
1007.704956395086
 24
655.4507206004171
 34
0.0
100
AcDbRotatedDimension
  0
LWPOLYLINE
  5
30843
330
1F
100
AcDbEntity
  8
塗板・掲示板
100
AcDbPolyline
 90
       18
 70
     1
 43
0.0
 10
1042.704956395086
 20
731.9999999999997
 10
1012.704956395086
 20
731.9999999999997
 10
1012.704956395086
 20
726.9999999999997
 10
1011.704956395086
 20
726.9999999999997
 10
1011.704956395086
 20
731.9999999999997
 10
1009.204956395086
 20
731.9999999999997
 10
1008.704956395086
 20
731.4999999999997
 10
1008.704956395086
 20
714.4999999999997
 10
1009.204956395086
 20
713.9999999999997
 10
1011.704956395086
 20
713.9999999999997
 10
1011.704956395086
 20
716.9999999999998
 10
1012.704956395086
 20
716.9999999999998
 10
1012.704956395086
 20
712.9999999999998
 10
1008.704956395086
 20
712.9999999999998
 10
1007.704956395086
 20
713.9999999999997
 10
1007.704956395086
 20
731.9999999999997
 10
1008.704956395086
 20
732.9999999999998
 10
1042.704956395086
 20
732.9999999999998
  0
DIMENSION
  5
3085F
330
1F
100
AcDbEntity
  8
sunpo
100
AcDbDimension
  2
*D34
 10
161.9230812397083
 20
310.9511662564845
 30
0.0
 11
157.9230812397083
 21
350.9511662564847
 31
0.0
 70
    32
  1
H
 71
     5
 42
1200.000000000003
  3
dim2_30
100
AcDbAlignedDimension
 13
181.9230489385729
 23
390.9511662564847
 33
0.0
 14
181.9230489385827
 24
310.9511662564845
 34
0.0
 50
90.0
100
AcDbRotatedDimension
  0
TEXT
  5
30866
330
1F
100
AcDbEntity
  8
hojo
100
AcDbText
 10
4.874124167624358
 20
3.038995724529968
 30
0.0
 40
14.28571428571429
  1
A2-1:2
 41
0.8
  7
Std
100
AcDbText
  0
MTEXT
  5
30867
330
1F
100
AcDbEntity
  8
moji
100
AcDbMText
 10
714.0714285714284
 20
49.07954545454577
 30
0.0
 40
7.5
 41
0.0
 71
     5
 72
     5
  1
アルミ枠平面スチール黒板 詳細図
  7
StdW
 73
     1
 44
0.7
  0
MTEXT
  5
3086B
330
1F
100
AcDbEntity
  8
wakumoji
100
AcDbMText
 10
581.7499999999999
 20
81.0
 30
0.0
 40
6.0
 41
39.5
 71
     5
 72
     5
  1
1 : 2
  7
gothic
 73
     1
 44
1.0
  0
LWPOLYLINE
  5
3086C
330
1F
100
AcDbEntity
  8
Defpoints
 62
     4
100
AcDbPolyline
 90
        4
 70
     1
 43
0.0
 10
20.0
 20
20.0
 10
1168.0
 20
20.0
 10
1168.0
 20
820.0
 10
20.0
 20
820.0
  0
LWPOLYLINE
  5
3086D
330
1F
100
AcDbEntity
  8
hojo
100
AcDbPolyline
 90
        4
 70
     1
 43
0.0
 10
0.0
 20
0.0
 10
1188.0
 20
0.0
 10
1188.0
 20
840.0
 10
0.0
 20
840.0
  0
LINE
  5
3086E
330
1F
100
AcDbEntity
  8
size
100
AcDbLine
 10
41.0
 20
89.0
 30
0.0
 11
1155.0
 21
89.0
 31
0.0
  0
LINE
  5
3086F
330
1F
100
AcDbEntity
  8
size
100
AcDbLine
 10
41.0
 20
91.0
 30
0.0
 11
1155.0
 21
91.0
 31
0.0
  0
LINE
  5
30870
330
1F
100
AcDbEntity
  8
size
100
AcDbLine
 10
41.0
 20
90.5
 30
0.0
 11
1155.0
 21
90.5
 31
0.0
  0
LINE
  5
30871
330
1F
100
AcDbEntity
  8
size
100
AcDbLine
 10
41.0
 20
90.0
 30
0.0
 11
1155.0
 21
90.0
 31
0.0
  0
LINE
  5
30872
330
1F
100
AcDbEntity
  8
size
100
AcDbLine
 10
41.0
 20
89.50000000000001
 30
0.0
 11
1155.0
 21
89.50000000000001
 31
0.0
  0
LINE
  5
30873
330
1F
100
AcDbEntity
  8
size
100
AcDbLine
 10
1097.0
 20
41.0
 30
0.0
 11
1097.0
 21
89.0
 31
0.0
  0
LINE
  5
30874
330
1F
100
AcDbEntity
  8
size
100
AcDbLine
 10
1097.0
 20
73.0
 30
0.0
 11
1155.0
 21
73.0
 31
0.0
  0
MTEXT
  5
30875
330
1F
100
AcDbEntity
  8
wakumoji
100
AcDbMText
 10
1126.0
 20
81.0
 30
0.0
 40
8.0
 41
58.0
 71
     5
 72
     5
  1
図面番号
  7
gothic
 73
     1
 44
1.0
  0
LINE
  5
30876
330
1F
100
AcDbEntity
  8
size
100
AcDbLine
 10
1097.0
 20
72.5
 30
0.0
 11
1155.0
 21
72.5
 31
0.0
  0
LINE
  5
30877
330
1F
100
AcDbEntity
  8
size
100
AcDbLine
 10
1096.5
 20
41.0
 30
0.0
 11
1096.5
 21
89.0
 31
0.0
  0
MTEXT
  5
30878
330
1F
100
AcDbEntity
  8
wakumoji
100
AcDbMText
 10
1097.0
 20
56.75
 30
0.0
 40
8.0
 41
58.0
 71
     4
 72
     5
  1
 Ｎｏ．
  7
gothic
 73
     1
 44
1.0
  0
LINE
  5
30879
330
1F
100
AcDbEntity
  8
size
100
AcDbLine
 10
900.5
 20
41.0
 30
0.0
 11
900.5
 21
89.0
 31
0.0
  0
LINE
  5
3087A
330
1F
100
AcDbEntity
  8
size
100
AcDbLine
 10
900.0
 20
41.0
 30
0.0
 11
900.0
 21
89.0
 31
0.0
  0
LINE
  5
3087B
330
1F
100
AcDbEntity
  8
size
100
AcDbLine
 10
798.5
 20
41.0
 30
0.0
 11
798.5
 21
89.0
 31
0.0
  0
LINE
  5
3087C
330
1F
100
AcDbEntity
  8
size
100
AcDbLine
 10
799.0
 20
41.0
 30
0.0
 11
799.0
 21
89.0
 31
0.0
  0
MTEXT
  5
3087D
330
1F
100
AcDbEntity
  8
wakumoji
100
AcDbMText
 10
900.0
 20
43.0
 30
0.0
 40
6.0
 41
101.0
 71
     9
 72
     5
  1
年　　月　　日　
  7
gothic
 73
     1
 44
1.0
  0
LINE
  5
3087E
330
1F
100
AcDbEntity
  8
size
100
AcDbLine
 10
601.5
 20
41.0
 30
0.0
 11
601.5
 21
89.0
 31
0.0
  0
LINE
  5
3087F
330
1F
100
AcDbEntity
  8
size
100
AcDbLine
 10
602.0
 20
41.0
 30
0.0
 11
602.0
 21
89.0
 31
0.0
  0
MTEXT
  5
30880
330
1F
100
AcDbEntity
  8
wakumoji
100
AcDbMText
 10
603.0
 20
63.75
 30
0.0
 40
7.0
 41
196.5
 71
     1
 72
     5
  1
図面名
  7
gothic
 73
     1
 44
1.0
  0
MTEXT
  5
30881
330
1F
100
AcDbEntity
  8
wakumoji
100
AcDbMText
 10
603.0
 20
88.0
 30
0.0
 40
7.0
 41
196.5
 71
     1
 72
     5
  1
工事名
  7
gothic
 73
     1
 44
1.0
  0
LINE
  5
30882
330
1F
100
AcDbEntity
  8
size
100
AcDbLine
 10
602.0
 20
64.75
 30
0.0
 11
798.5
 21
64.75
 31
0.0
  0
LINE
  5
30883
330
1F
100
AcDbEntity
  8
size
100
AcDbLine
 10
562.0
 20
41.0
 30
0.0
 11
562.0
 21
89.0
 31
0.0
  0
LINE
  5
30884
330
1F
100
AcDbEntity
  8
size
100
AcDbLine
 10
561.5
 20
41.0
 30
0.0
 11
561.5
 21
89.0
 31
0.0
  0
LINE
  5
30885
330
1F
100
AcDbEntity
  8
size
100
AcDbLine
 10
547.5
 20
41.0
 30
0.0
 11
547.5
 21
89.0
 31
0.0
  0
LINE
  5
30886
330
1F
100
AcDbEntity
  8
size
100
AcDbLine
 10
548.0
 20
41.0
 30
0.0
 11
548.0
 21
89.0
 31
0.0
  0
LINE
  5
30887
330
1F
100
AcDbEntity
  8
size
100
AcDbLine
 10
602.0
 20
65.25
 30
0.0
 11
798.5
 21
65.25
 31
0.0
  0
LINE
  5
30888
330
1F
100
AcDbEntity
  8
size
100
AcDbLine
 10
53.0
 20
65.0
 30
0.0
 11
399.5
 21
65.0
 31
0.0
  0
MTEXT
  5
30889
330
1F
100
AcDbEntity
  8
wakumoji
100
AcDbMText
 10
554.75
 20
65.0
 30
0.0
 40
7.0
 41
13.5
 71
     5
 72
     5
  1
縮尺
  7
gothic
 73
     1
 44
1.0
  0
MTEXT
  5
3088D
330
1F
100
AcDbEntity
  8
wakumoji
100
AcDbMText
 10
581.7499999999999
 20
65.0
 30
0.0
 40
6.0
 41
39.5
 71
     5
 72
     5
  1
1 : 30
  7
gothic
 73
     1
 44
1.0
  0
MTEXT
  5
3088E
330
1F
100
AcDbEntity
  8
wakumoji
100
AcDbMText
 10
581.7499999999999
 20
49.0
 30
0.0
 40
6.0
 41
39.5
 71
     5
 72
     5
  1
:
  7
gothic
 73
     1
 44
1.0
  0
LINE
  5
3088F
330
1F
100
AcDbEntity
  8
size
100
AcDbLine
 10
472.0
 20
41.0
 30
0.0
 11
472.0
 21
89.0
 31
0.0
  0
LINE
  5
30890
330
1F
100
AcDbEntity
  8
size
100
AcDbLine
 10
471.4999999999999
 20
41.0
 30
0.0
 11
471.4999999999999
 21
89.0
 31
0.0
  0
LINE
  5
30891
330
1F
100
AcDbEntity
  8
size
100
AcDbLine
 10
458.0
 20
41.0
 30
0.0
 11
458.0
 21
89.0
 31
0.0
  0
LINE
  5
30892
330
1F
100
AcDbEntity
  8
size
100
AcDbLine
 10
457.5
 20
41.0
 30
0.0
 11
457.5
 21
89.0
 31
0.0
  0
LINE
  5
30893
330
1F
100
AcDbEntity
  8
size
100
AcDbLine
 10
425.4999999999999
 20
41.0
 30
0.0
 11
425.4999999999999
 21
89.0
 31
0.0
  0
LINE
  5
30894
330
1F
100
AcDbEntity
  8
size
100
AcDbLine
 10
426.0
 20
41.0
 30
0.0
 11
426.0
 21
89.0
 31
0.0
  0
LINE
  5
30895
330
1F
100
AcDbEntity
  8
size
100
AcDbLine
 10
412.0
 20
41.0
 30
0.0
 11
412.0
 21
89.0
 31
0.0
  0
LINE
  5
30896
330
1F
100
AcDbEntity
  8
size
100
AcDbLine
 10
411.5
 20
41.0
 30
0.0
 11
411.5
 21
89.0
 31
0.0
  0
LINE
  5
30897
330
1F
100
AcDbEntity
  8
size
100
AcDbLine
 10
412.0
 20
65.25
 30
0.0
 11
547.5
 21
65.25
 31
0.0
  0
MTEXT
  5
30899
330
1F
100
AcDbEntity
  8
wakumoji
100
AcDbMText
 10
43.0
 20
88.0
 30
0.0
 40
6.0
 41
169.5
 71
     1
 72
     5
  1
記事
  7
gothic
 73
     1
 44
1.0
  0
LINE
  5
3089A
330
1F
100
AcDbEntity
  8
size
100
AcDbLine
 10
412.0
 20
64.75
 30
0.0
 11
547.5
 21
64.75
 31
0.0
  0
MTEXT
  5
3089B
330
1F
100
AcDbEntity
  8
wakumoji
100
AcDbMText
 10
418.75
 20
77.125
 30
0.0
 40
6.0
 41
13.5
 71
     5
 72
     5
  1
製図
  7
gothic
 73
     1
 44
1.0
  0
MTEXT
  5
3089C
330
1F
100
AcDbEntity
  8
wakumoji
100
AcDbMText
 10
464.7499999999999
 20
77.125
 30
0.0
 40
6.0
 41
13.5
 71
     5
 72
     5
  1
作図
  7
gothic
 73
     1
 44
1.0
  0
MTEXT
  5
3089D
330
1F
100
AcDbEntity
  8
wakumoji
100
AcDbMText
 10
418.75
 20
52.875
 30
0.0
 40
6.0
 41
13.5
 71
     5
 72
     5
  1
担当
  7
gothic
 73
     1
 44
1.0
  0
MTEXT
  5
3089E
330
1F
100
AcDbEntity
  8
wakumoji
100
AcDbMText
 10
464.7499999999999
 20
52.875
 30
0.0
 40
6.0
 41
13.5
 71
     5
 72
     5
  1
検図
  7
gothic
 73
     1
 44
1.0
  0
MTEXT
  5
3089F
330
1F
100
AcDbEntity
  8
wakumoji
100
AcDbMText
 10
509.75
 20
77.12499999999981
 30
0.0
 40
6.0
 41
0.0
 71
     5
 72
     5
  1
 年    月    日
  7
gothic
 73
     1
 44
1.0
  0
MTEXT
  5
308A0
330
1F
100
AcDbEntity
  8
wakumoji
100
AcDbMText
 10
509.75
 20
52.875
 30
0.0
 40
6.0
 41
0.0
 71
     5
 72
     5
  1
  年    月    日
  7
gothic
 73
     1
 44
1.0
  0
LWPOLYLINE
  5
308A1
330
1F
100
AcDbEntity
  8
size
100
AcDbPolyline
 90
        4
 70
     1
 43
0.0
 10
1155.0
 20
41.0
 10
1155.0
 20
803.0000000000002
 10
41.0
 20
803.0000000000002
 10
41.0
 20
41.0
  0
LWPOLYLINE
  5
308A2
330
1F
100
AcDbEntity
  8
size
100
AcDbPolyline
 90
        4
 70
     1
 43
0.0
 10
40.49999999999999
 20
803.5
 10
40.49999999999999
 20
40.49999999999999
 10
1155.5
 20
40.49999999999999
 10
1155.5
 20
803.5
  0
LWPOLYLINE
  5
308A3
330
1F
100
AcDbEntity
  8
size
100
AcDbPolyline
 90
        4
 70
     1
 43
0.0
 10
1156.0
 20
40.0
 10
1156.0
 20
804.0
 10
40.0
 20
804.0
 10
40.0
 20
40.0
  0
LWPOLYLINE
  5
308A4
330
1F
100
AcDbEntity
  8
size
100
AcDbPolyline
 90
        4
 70
     1
 43
0.0
 10
39.5
 20
804.4999999999999
 10
39.5
 20
39.5
 10
1156.5
 20
39.5
 10
1156.5
 20
804.4999999999999
  0
LWPOLYLINE
  5
308A5
330
1F
100
AcDbEntity
  8
size
100
AcDbPolyline
 90
        4
 70
     1
 43
0.0
 10
1157.0
 20
39.0
 10
1157.0
 20
805.0000000000004
 10
39.0
 20
805.0000000000004
 10
39.0
 20
39.0
  0
LWPOLYLINE
  5
308A6
330
1F
100
AcDbEntity
  8
size
100
AcDbPolyline
 90
        4
 70
     1
 43
0.0
 10
38.5
 20
805.5000000000003
 10
38.5
 20
38.5
 10
1157.5
 20
38.5
 10
1157.5
 20
805.5000000000003
  0
LWPOLYLINE
  5
308A7
330
1F
100
AcDbEntity
  8
size
100
AcDbPolyline
 90
        4
 70
     1
 43
0.0
 10
1158.0
 20
38.0
 10
1158.0
 20
806.0
 10
38.0
 20
806.0
 10
38.0
 20
38.0
  0
MTEXT
  5
308B6
330
1F
100
AcDbEntity
  8
wakumoji
100
AcDbMText
 10
998.4999999999999
 20
65.0
 30
0.0
 40
12.38095238095238
 41
195.9999999999999
 71
     5
 72
     5
  1
　　二葉工業株式会社
  7
gothic
 73
     1
 44
1.0
  0
VIEWPORT
  5
251
330
1B
100
AcDbEntity
 67
     1
  8
0
100
AcDbViewport
 10
295.8911494694115
 20
191.7702991973536
 30
0.0
 40
695.5056591064728
 41
431.3749859134674
 68
     1
 69
     1
 12
295.8911494694115
 22
191.7702991973536
 13
0.0
 23
0.0
 14
10.0
 24
10.0
 15
10.0
 25
10.0
 16
0.0
 26
0.0
 36
1.0
 17
0.0
 27
0.0
 37
0.0
 42
50.0
 43
0.0
 44
0.0
 45
431.3749859134674
 50
0.0
 51
0.0
 72
   100
 90
    32800
  1

281
     0
 71
     1
 74
     0
110
0.0
120
0.0
130
0.0
111
1.0
121
0.0
131
0.0
112
0.0
122
1.0
132
0.0
 79
     0
146
0.0
170
     0
  0
VIEWPORT
  5
173F
330
1B
100
AcDbEntity
 67
     1
  8
size
100
AcDbViewport
 10
294.041392142386
 20
191.7702934678536
 30
0.0
 40
614.9753320319469
 41
427.9387911499888
 68
     2
 69
     2
 12
297.0
 22
210.0
 13
0.0
 23
0.0
 14
10.0
 24
10.0
 15
10.0
 25
10.0
 16
0.0
 26
0.0
 36
1.0
 17
0.0
 27
0.0
 37
0.0
 42
50.0
 43
0.0
 44
0.0
 45
427.9387911499888
 50
0.0
 51
0.0
 72
   100
 90
    32864
  1

281
     0
 71
     1
 74
     0
110
0.0
120
0.0
130
0.0
111
1.0
121
0.0
131
0.0
112
0.0
122
1.0
132
0.0
 79
     0
146
0.0
170
     0
  0
ENDSEC
  0
SECTION
  2
OBJECTS
  0
DICTIONARY
  5
C
330
0
100
AcDbDictionary
281
     1
  3
ACAD_COLOR
350
362D
  3
ACAD_GROUP
350
D
  3
ACAD_LAYOUT
350
1A
  3
ACAD_MATERIAL
350
362C
  3
ACAD_MLINESTYLE
350
17
  3
ACAD_PLOTSETTINGS
350
19
  3
ACAD_PLOTSTYLENAME
350
E
  0
DICTIONARY
  5
1B46
330
2
100
AcDbDictionary
280
     1
281
     1
  3
ACAD_LAYERFILTERS
360
1B47
  3
ACAD_LAYERSTATES
360
3336
  0
DICTIONARY
  5
2FADB
330
2FADA
100
AcDbDictionary
280
     1
281
     1
  3
ACAD_XREC_ROUNDTRIP
360
2FADC
  3
ADSK_XREC_LAYER_RECONCILED
360
2FADD
  0
DICTIONARY
  5
362D
102
{ACAD_REACTORS
330
C
102
}
330
C
100
AcDbDictionary
281
     1
  0
DICTIONARY
  5
D
102
{ACAD_REACTORS
330
C
102
}
330
C
100
AcDbDictionary
281
     1
  0
DICTIONARY
  5
1A
102
{ACAD_REACTORS
330
C
102
}
330
C
100
AcDbDictionary
281
     1
  3
Model
350
22
  3
ﾚｲｱｳﾄ1
350
1E
  3
ﾚｲｱｳﾄ2
350
26
  0
DICTIONARY
  5
362C
102
{ACAD_REACTORS
330
C
102
}
330
C
100
AcDbDictionary
281
     1
  3
Global
350
5B5F
  0
DICTIONARY
  5
17
102
{ACAD_REACTORS
330
C
102
}
330
C
100
AcDbDictionary
281
     1
  3
Standard
350
18
  0
DICTIONARY
  5
19
102
{ACAD_REACTORS
330
C
102
}
330
C
100
AcDbDictionary
281
     1
  0
ACDBDICTIONARYWDFLT
  5
E
102
{ACAD_REACTORS
330
C
102
}
330
C
100
AcDbDictionary
281
     1
  3
Normal
350
F
100
AcDbDictionaryWithDefault
340
F
  0
DICTIONARY
  5
1B47
102
{ACAD_REACTORS
330
1B46
102
}
330
1B46
100
AcDbDictionary
280
     1
281
     1
  0
DICTIONARY
  5
3336
102
{ACAD_REACTORS
330
1B46
102
}
330
1B46
100
AcDbDictionary
281
     1
  0
XRECORD
  5
2FADC
102
{ACAD_REACTORS
330
2FADB
102
}
330
2FADB
100
AcDbXrecord
280
     1
102
MATERIAL
340
5B5F
  0
XRECORD
  5
2FADD
102
{ACAD_REACTORS
330
2FADB
102
}
330
2FADB
100
AcDbXrecord
280
     1
290
     1
  0
LAYOUT
  5
22
102
{ACAD_REACTORS
330
1A
102
}
330
1A
100
AcDbPlotSettings
  1

  2
自動 Canon Inkjet iX5000 (Uehira-pc 上)
  4
A3
  6

 40
4.180416584014892
 41
5.831417560577392
 42
4.180419921875
 43
3.757080078125
 44
296.9683227539062
 45
419.9889831542968
 46
2.459999999999999
 47
1.649999999999999
 48
20.0
 49
20.0
140
1168.0
141
820.0
142
1.0
143
2.819999999999999
 70
 11940
 72
     1
 73
     1
 74
     4
  7
monochrome.ctb
 75
     0
147
0.3546099290780142
 76
     0
 77
     2
 78
   300
148
-20.0
149
-20.0
100
AcDbLayout
  1
Model
 70
     1
 71
     0
 10
0.0
 20
0.0
 11
12.0
 21
9.0
 12
0.0
 22
0.0
 32
0.0
 14
0.0
 24
0.0
 34
0.0
 15
0.0
 25
0.0
 35
0.0
146
0.0
 13
0.0
 23
0.0
 33
0.0
 16
1.0
 26
0.0
 36
0.0
 17
0.0
 27
1.0
 37
0.0
 76
     0
330
1F
  0
LAYOUT
  5
1E
102
{ACAD_REACTORS
330
1A
102
}
330
1A
100
AcDbPlotSettings
  1

  2
HP DesignJet 800 24 by HP
  4
User1294
  6

 40
4.995333194732666
 41
16.97565841674804
 42
4.99530029296875
 43
16.97567749023437
 44
593.97900390625
 45
419.9466552734374
 46
0.0
 47
0.0
 48
0.0
 49
0.0
140
0.0
141
0.0
142
1.0
143
1.0
 70
   688
 72
     1
 73
     2
 74
     5
  7
monochrome.ctb
 75
    16
147
1.0
 76
     1
 77
     2
 78
   300
148
0.0
149
0.0
100
AcDbLayout
  1
ﾚｲｱｳﾄ1
 70
     1
 71
     1
 10
-4.99530029296875
 20
-16.97567749023437
 11
588.9837036132812
 21
402.9709777832031
 12
0.0
 22
0.0
 32
0.0
 14
-13.47440845624715
 24
-22.21867993191836
 34
-0.000000000000013
 15
601.5572178000511
 25
405.7592843052872
 35
0.0000000000000023
146
0.0
 13
0.0
 23
0.0
 33
0.0
 16
1.0
 26
0.0
 36
0.0
 17
0.0
 27
1.0
 37
0.0
 76
     0
330
1B
331
251
  0
LAYOUT
  5
26
102
{ACAD_REACTORS
330
1A
102
}
330
1A
100
AcDbPlotSettings
  1

  2
C:\PROGRAM FILES\AUTOCAD LT 2000I\plotters\DWF Classic.pc3
  4

  6

 40
0.0
 41
0.0
 42
0.0
 43
0.0
 44
0.0
 45
0.0
 46
0.0
 47
0.0
 48
0.0
 49
0.0
140
0.0
141
0.0
142
1.0
143
1.0
 70
   688
 72
     0
 73
     0
 74
     5
  7
monochrome.ctb
 75
    16
147
1.0
 76
     0
 77
     2
 78
   300
148
0.0
149
0.0
100
AcDbLayout
  1
ﾚｲｱｳﾄ2
 70
     1
 71
     2
 10
0.0
 20
0.0
 11
12.0
 21
9.0
 12
0.0
 22
0.0
 32
0.0
 14
0.0
 24
0.0
 34
0.0
 15
0.0
 25
0.0
 35
0.0
146
0.0
 13
0.0
 23
0.0
 33
0.0
 16
1.0
 26
0.0
 36
0.0
 17
0.0
 27
1.0
 37
0.0
 76
     0
330
23
  0
MATERIAL
  5
5B5F
102
{ACAD_REACTORS
330
362C
102
}
330
362C
100
AcDbMaterial
  1
GLOBAL
  0
MLINESTYLE
  5
18
102
{ACAD_REACTORS
330
17
102
}
330
17
100
AcDbMlineStyle
  2
STANDARD
 70
     0
  3

 62
   256
 51
90.0
 52
90.0
 71
     2
 49
0.5
 62
   256
  6
BYLAYER
 49
-0.5
 62
   256
  6
BYLAYER
  0
ACDBPLACEHOLDER
  5
F
102
{ACAD_REACTORS
330
E
102
}
330
E
  0
ENDSEC
  0
EOF
